osu file format v6

[General]
AudioFilename: Silver Forest - Cherry Phantasm - 11 - .mp3
AudioLeadIn: 0
PreviewTime: 62712
Countdown: 1
SampleSet: Soft
StackLeniency: 0.7
Mode: 0
LetterboxInBreaks: 1

[Editor]
DistanceSpacing: 1
BeatDivisor: 8
GridSize: 8

[Metadata]
Title:PORUTA ~ gaisuto no himatsubushi
Artist:Silver Forest
Creator:Eirene
Version:Normal
Source:
Tags:Touhou

[Difficulty]
HPDrainRate:4
CircleSize:4
OverallDifficulty:5
SliderMultiplier:1.4
SliderTickRate:2

[Events]
//Background and Video events
0,0,"img-225715qs5f9.jpg"
//Break Periods
2,44938,61642
2,120972,136642
//Storyboard Layer 0 (Background)
//Storyboard Layer 1 (Fail)
//Storyboard Layer 2 (Pass)
//Storyboard Layer 3 (Foreground)
//Storyboard Sound Samples
//Background Colour Transformations
3,100,255,130,192

[TimingPoints]
17842,517.241379310345,4,2,0,70,1,0
118712,-100,4,2,0,10,0,0
119100,-100,4,2,0,70,0,0
150134,-100,4,2,0,51,0,0
152203,-100,4,2,0,70,0,0
173022,-100,4,2,0,100,0,1
189574,-100,4,2,0,70,0,0

[Colours]
Combo1 : 149,0,74
Combo2 : 255,187,206
Combo3 : 255,36,146
Combo4 : 255,111,183

[HitObjects]
168,192,17842,2,0,B|168:104|272:104,1,140,0|2
344,192,18876,2,0,B|344:280|240:280,1,140,0|2
168,192,19910,2,0,B|168:104|272:104,2,140,0|2|0
368,312,21979,5,2
432,184,22497,2,0,B|368:240|296:176,2,140,0|0|2
368,56,24048,1,2
400,120,24307,2,0,B|368:160|320:104,3,70,0|0|0|2
120,296,26117,6,0,B|120:224,2,70,2|0|0
192,176,27152,2,0,B|192:248,2,70,2|0|0
320,120,28186,2,0,B|280:80|240:144,2,70,2|0|0
288,184,28962,2,0,B|328:224|368:160,1,70
392,128,29479,1,2
184,96,30255,5,2
184,96,30514,1,0
184,96,30773,1,0
88,192,31290,1,0
184,288,31807,1,2
280,192,32324,1,0
352,192,32583,6,0,B|432:192,1,70,0|2
424,120,33100,2,0,B|344:120,1,70
352,48,33617,2,0,B|424:48,2,70,0|2|0
280,48,34393,1,0
208,120,34910,6,0,B|208:216,2,70,2|0|0
280,120,35686,2,0,B|280:208,3,70,0|2|0|0
208,192,36721,2,0,B|208:264,1,70,0|2
280,264,37238,2,0,B|280:344,2,70,0|2|0
80,320,38531,5,0
120,184,39048,2,0,B|63:184|80:258,2,70,2|0|0
176,232,39824,1,0
231,184,40083,2,0,B|288:184|271:258,2,70,2|0|0
400,64,41376,2,0,B|328:64,1,70,2|0
296,128,41893,2,0,B|368:128,1,70,0|0
483,211,42669,5,2
424,256,42928,1,0
484,299,43186,2,0,B|420:363|356:291,1,140
312,248,43962,1,0
264,192,44221,2,0,B|224:152|184:216,2,70,0|0|2
384,168,62842,6,0,B|320:200,2,70
352,304,63876,2,0,B|248:368|224:288,2,140,2|0|0
232,224,65428,2,0,B|216:136|96:184,1,140,2|0
64,48,66462,1,0
200,48,66979,1,0
336,48,67497,1,0
64,120,68531,6,0,B|144:112|184:192,1,140,2|2
64,264,69566,2,0,B|112:344|200:320,1,140,0|0
296,72,71117,5,0
296,72,71376,1,0
296,72,71635,2,0,B|376:80|424:152,1,140,2|0
488,256,72669,2,0,B|424:320|328:288,1,140,2|2
256,200,73704,2,0,B|328:224|400:144,2,140,0|0|2
288,64,75255,1,0
144,48,75773,1,2
144,48,76548,2,0,B|96:56|80:104,1,70,0|2
208,152,77324,1,0
88,224,77842,1,4
360,80,79910,5,0
224,104,80428,1,2
320,216,80945,1,0
184,240,81463,1,2
280,352,81979,1,0
312,288,82238,2,0,B|408:280|440:216,2,140,0|0|0
320,216,83531,2,0,B|368:216|384:168,2,70,2|0|0
176,216,84566,5,0
72,120,85083,1,2
176,216,85600,1,0
200,80,86117,1,2
176,216,86635,1,0
232,168,86893,2,0,B|256:136|320:144,1,70,0|2
288,216,87410,2,0,B|328:221|367:171,1,70,2|0
432,304,88186,5,2
432,160,88704,2,0,B|448:120|504:120,2,70,0|0|2
344,272,89738,2,0,B|296:328|200:312,1,140,2|0
112,120,91548,6,0,B|160:112|168:64,2,70
120,192,92324,2,0,B|208:176|232:96,2,140,2|0|0
99,50,93876,1,0
240,24,94393,1,4
456,80,96462,6,0,B|352:32|248:120,1,210,4|2
312,160,97497,1,4
208,64,98014,2,0,B|136:72|72:152,1,140,2|4
208,64,99048,2,0,B|216:136|296:200,2,140,4|2|0
80,127,100600,6,0,B|69:241|186:311,1,210,4|0
208,240,101635,1,4
344,200,102152,1,2
248,104,102669,1,4
128,192,104479,5,0
128,192,104738,2,4,B|56:48,2,140,4|8|0
288,56,106548,2,8,B|320:120,1,70,8|0
304,328,107583,2,0,B|256:240,1,70,0|8
456,56,108876,5,4
352,152,109393,1,2
248,56,109910,1,2
352,152,110428,1,4
456,248,110945,1,4
352,152,111462,1,2
248,248,111979,1,4
248,248,112238,2,0,B|248:176,1,70,0|4
328,64,113014,6,8,B|32:-8|24:144|40:208|136:256,1,466.666666666667,8|2
136,176,115018,2,0,B|240:272|400:288|232:-8|512:8|488:152|456:272,1,525,8|2
392,256,117217,6,0,B|152:280|48:176|128:72|231:101,1,437.5,8|2
250,104,118962,2,0,B|386:112|234:344|42:240|50:40|266:32,1,490,0|0
416,104,137842,5,2
383,239,138359,2,0,B|365:282|305:258,1,70,0|0
304,199,138876,2,0,B|264:175|233:232,2,70,0|0|2
352,144,139652,1,0
304,88,139910,2,0,B|264:64|296:16,1,70,0|0
216,32,140428,1,0
264,232,141204,5,0
208,280,141462,1,2
152,232,141721,1,0
96,184,141979,2,0,B|96:40,1,140,0|0
168,160,143014,2,0,B|168:16,1,140,2|2
240,136,144048,1,0
312,112,144307,2,0,B|312:192,1,70,0|2
384,168,144824,2,0,B|384:248,1,70,0|0
104,256,146117,6,0,B|192:240|248:320,1,140,0|2
360,240,147152,2,0,B|272:256|216:176,1,140,0|2
344,112,148186,1,0
233,198,148704,1,0
200,64,149221,1,4
40,136,150255,6,0,B|80:296,1,140
192,192,151290,1,0
312,112,151807,1,0
432,32,152324,2,0,B|456:104,2,70,2|0|0
400,176,153359,2,0,B|376:104,2,70,2|0|0
312,280,154393,2,0,B|400:248,2,70,2|0|0
240,264,155169,1,2
176,232,155428,1,0
112,64,156462,6,0,B|256:64,1,140,0|2
152,160,157497,2,0,B|304:160,1,140,0|2
192,256,158531,2,0,B|344:256,1,140
402,256,159307,1,2
367,317,159566,1,0
439,197,160083,1,2
368,72,160600,5,2
232,48,161117,2,0,B|184:56|168:8,2,70,2|2|0
103,111,162152,2,0,B|80:64|24:80,2,70,2|2|0
136,176,162928,1,2
168,240,163186,1,0
216,184,163445,1,2
248,248,163703,1,0
400,104,164738,6,0,B|256:104,1,140,0|2
360,200,165773,2,0,B|208:200,1,140,0|2
320,296,166807,2,0,B|176:296,1,140
109,296,167583,1,2
144,356,167842,1,0
77,233,168359,1,2
144,112,168876,5,2
256,24,169393,2,0,B|288:-8|325:30,2,70,2|2|0
276,91,170169,2,0,B|292:59|316:123,2,35,2|0|0
288,160,170686,1,0
288,232,170945,1,2
192,208,173014,6,4,B|304:208,2,105,4|4|2
120,208,174048,2,0,B|120:120,2,70,4|2|4
120,280,174824,1,2
192,280,175083,6,0,B|304:280,2,105,4|2|2
192,208,176117,1,4
192,136,176376,1,2
192,64,176635,1,4
320,112,177152,6,4,B|432:112,2,105,4|0|4
320,184,178186,1,4
320,256,178445,1,0
248,256,178704,1,4
112,224,179221,5,0
112,152,179479,2,0,B|112:8,1,140,4|4
184,120,180385,2,0,B|184:8,1,105,0|4
256,120,181290,6,0,B|392:120,2,105,4|4|0
256,192,182324,2,0,B|400:192,2,140,4|4|4
184,192,183617,2,0,B|104:192,2,70,10|0|8
184,264,184393,6,0,B|72:264,2,105,8|4|4
256,264,185428,2,0,B|384:264,2,105,10|4|8
256,192,186462,1,4
136,112,186979,1,4
256,40,187497,1,4
