osu file format v9

[General]
AudioFilename: [] ~[PAD]~.mp3
AudioLeadIn: 993
PreviewTime: 222
Countdown: 1
SampleSet: Normal
StackLeniency: 0.2
Mode: 0
LetterboxInBreaks: 1

[Editor]
DistanceSpacing: 1.6
BeatDivisor: 4
GridSize: 8

[Metadata]
Title:PAD Senshinkoku Koumakan
Artist:Silver Forest
Creator:Mik-ey
Version:Lunatic
Source:Touhou
Tags:ZUN Sakuya Izayoi PAD Maid Flowering Night Luna Dial Sand Canyon Kirby Seishoujo Sacrifice

[Difficulty]
HPDrainRate:7
CircleSize:5
OverallDifficulty:8
ApproachRate:8
SliderMultiplier:1.4
SliderTickRate:1

[Events]
//Background and Video events
Video,0,"PAD.flv"
0,0,"Sakuya-BG.jpg"
//Break Periods
//Storyboard Layer 0 (Background)
//Storyboard Layer 1 (Fail)
//Storyboard Layer 2 (Pass)
//Storyboard Layer 3 (Foreground)
//Storyboard Sound Samples
//Background Colour Transformations
3,100,163,162,255

[TimingPoints]
222,379.746835443038,4,1,0,70,1,0
18386,-100,4,1,0,70,0,1
21108,-100,4,1,0,70,0,0
24525,-50,4,1,0,70,0,1
25222,-100,4,1,0,70,0,0
27563,-50,4,1,0,70,0,1
28259,-100,4,1,0,70,0,0
31361,-50,4,1,0,70,0,1
31867,-100,4,1,0,70,0,0
32880,-50,4,1,0,70,0,1
33386,-100,4,1,0,70,0,0

[Colours]
Combo1 : 128,119,166
Combo2 : 255,255,255
Combo3 : 35,60,127

[HitObjects]
472,60,222,1,0
444,60,316,1,0
415,60,411,1,0
386,60,506,1,0
357,60,601,1,8
357,172,981,1,0
328,172,1076,1,0
299,172,1171,1,0
270,172,1266,1,0
241,172,1361,1,8
241,60,1740,5,0
212,60,1835,1,0
184,60,1930,1,0
155,60,2025,1,0
126,60,2120,1,8
126,172,2500,1,0
69,172,2690,1,0
12,172,2880,1,8
12,200,2975,1,0
12,228,3070,1,0
12,339,3259,5,0
236,339,3639,1,8
236,114,4019,1,0
459,114,4398,1,8
459,226,4778,1,0
430,226,4873,1,0
401,226,4968,1,0
372,226,5063,1,0
344,228,5158,1,8
344,284,5348,1,0
344,339,5537,1,0
119,339,5917,1,8
119,114,6297,5,0
147,114,6392,1,0
175,114,6487,1,0
203,114,6582,1,0
231,114,6677,1,8
231,225,7056,1,0
259,225,7152,1,0
287,225,7247,1,0
315,225,7342,1,0
342,225,7436,1,8
342,337,7816,5,0
313,337,7911,1,0
284,337,8006,1,0
255,337,8101,1,0
227,337,8195,1,8
2,337,8575,1,0
160,178,8955,1,8
1,19,9334,1,0
225,19,9714,1,8
449,19,10094,1,0
449,47,10190,1,0
449,75,10285,1,0
449,103,10380,1,0
449,130,10474,1,8
449,353,10853,5,0
290,194,11233,1,8
131,352,11614,1,0
131,127,11994,1,8
354,127,12373,5,0
354,155,12468,1,0
354,183,12563,1,0
354,211,12658,1,0
354,239,12753,1,8
354,350,13132,1,0
129,350,13512,1,8
129,237,13892,5,0
129,208,13987,1,0
129,179,14082,1,0
129,150,14177,1,0
129,121,14272,1,8
17,121,14651,1,0
73,121,14842,1,0
128,121,15031,1,8
352,121,15411,1,0
323,121,15506,1,0
294,121,15601,1,0
265,121,15696,1,0
237,121,15790,1,8
237,345,16170,5,0
395,186,16550,1,8
236,27,16929,1,0
207,27,17025,1,0
178,27,17120,1,0
149,27,17215,1,0
121,27,17309,1,8
92,27,17405,1,0
16,176,17689,1,0
240,176,18069,1,8
398,334,18448,5,0
285,334,18639,1,0
173,334,18828,1,8
93,254,19019,1,0
13,174,19209,1,0
92,94,19399,1,0
170,15,19588,1,8
284,16,19778,1,0
363,95,19968,1,0
442,174,20158,1,0
442,286,20348,1,8
329,286,20538,1,0
250,207,20727,1,0
25,207,21107,5,8
137,207,21487,1,0
165,207,21582,1,0
193,207,21677,1,0
221,207,21772,1,0
249,207,21867,1,8
169,127,22246,1,0
197,127,22342,1,0
225,127,22437,1,0
253,127,22532,1,0
280,127,22626,1,8
438,285,23006,5,0
214,285,23385,1,0
185,285,23481,1,0
156,285,23576,1,0
127,285,23671,1,0
99,285,23765,1,0
99,60,24145,1,2
263,224,24525,2,0,B|303:160|303:160|347:224|347:224|399:160|399:160|455:248,1,280
422,85,25284,5,0
393,85,25380,1,0
364,85,25475,1,0
335,85,25570,1,0
307,85,25664,1,8
468,243,26043,1,0
468,243,26139,1,0
300,243,26423,1,0
300,243,26519,1,0
300,74,26804,1,0
187,74,26994,1,8
75,74,27183,1,0
75,298,27563,2,0,B|371:298,1,280
130,298,28322,5,0
130,269,28418,1,0
130,240,28513,1,0
130,211,28608,1,0
130,183,28702,1,8
209,262,29082,1,0
209,233,29177,1,0
209,204,29272,1,0
209,175,29367,1,0
209,146,29462,1,8
209,117,29557,5,0
237,117,29652,1,0
265,117,29747,1,0
292,117,29841,1,0
450,275,30221,1,8
225,275,30601,1,0
304,195,30791,1,0
382,116,30980,1,8
157,116,31361,2,0,B|253:156|253:156|237:196|237:196|365:252,1,280
144,200,32119,5,0
256,200,32310,1,0
367,200,32499,1,0
218,348,32880,2,0,B|434:364|330:172,1,280
178,27,33638,5,0
206,27,33734,1,0
234,27,33829,1,0
262,27,33924,1,0
289,27,34018,1,8
447,185,34399,1,0
447,185,34494,1,0
447,352,34778,1,0
448,352,34873,1,0
329,233,35158,1,0
168,72,35538,1,0
168,296,35918,1,0
168,184,36108,2,0,B|240:184,1,70,0|2
