osu file format v9

[General]
AudioFilename: marisa quest.mp3
AudioLeadIn: 2000
PreviewTime: 41568
Countdown: 0
SampleSet: Normal
StackLeniency: 0.7
Mode: 0
LetterboxInBreaks: 0

[Editor]
DistanceSpacing: 1
BeatDivisor: 4
GridSize: 4

[Metadata]
Title:Marisa*Quest ~Otakara Sagashi Daisakusen~
Artist:Silver Forest
Creator:mochi
Version:Normal
Source:Touhou
Tags:imperishable night koi iro master spark nyo aki miko

[Difficulty]
HPDrainRate:3
CircleSize:3
OverallDifficulty:3
ApproachRate:5
SliderMultiplier:0.9
SliderTickRate:1

[Events]
//Background and Video events
0,0,"bg.jpg"
Video,0,"marisa quest.avi"
//Break Periods
2,69460,74214
//Storyboard Layer 0 (Background)
//Storyboard Layer 1 (Fail)
//Storyboard Layer 2 (Pass)
//Storyboard Layer 3 (Foreground)
//Storyboard Sound Samples
//Background Colour Transformations
3,100,255,255,255

[TimingPoints]
30,384.615384615385,4,1,1,40,1,0
5799,-100,4,1,1,50,0,0
6183,-100,4,1,1,60,0,0
41568,-100,4,1,1,60,0,1
69260,-100,4,1,1,60,0,0
103106,-100,4,1,1,60,0,1
130799,-100,4,1,1,60,0,0

[Colours]
Combo1 : 115,239,97
Combo2 : 251,255,66
Combo3 : 82,192,228
Combo4 : 238,79,151

[HitObjects]
96,112,30,2,0,B|109:57|171:49,2,90,12|0|8
179,138,1183,1,0
179,138,1376,2,0,B|130:205|184:280,1,135,8|8
228,336,2337,1,0
316,353,2722,1,8
342,267,3106,6,0,B|394:283|404:338,2,90,8|0|8
263,222,4260,1,0
263,222,4453,2,0,B|194:187|226:91,1,135,8|8
267,28,5414,1,0
352,55,5799,1,8
387,137,6183,6,0,B|443:124|442:54,2,90,12|0|8
299,160,7337,1,0
299,160,7530,2,0,B|214:169|205:258,1,135,8|8
224,331,8491,1,0
305,293,8876,1,8
362,224,9260,6,0,B|404:260|392:320,2,90,8|0|8
288,172,10414,1,0
288,172,10606,2,0,B|250:150|250:150|206:196|150:163,1,135,8|8
102,108,11568,1,0
79,195,11953,1,8
136,264,12337,6,0,B|184:304|184:304|328:304|328:304|376:264,1,270,0|8
433,195,13876,5,4
397,112,14260,2,0,B|447:88|494:127,2,90,8|0|8
315,150,15414,1,0
229,178,15799,2,0,B|250:233|311:242,2,90,8|0|8
202,91,16953,5,0
114,109,17337,2,0,B|104:49|147:24,2,90,8|0|8
126,198,18491,1,0
58,257,18876,1,8
58,257,19068,2,0,B|42:288|42:288|54:357|120:350,1,135,0|8
192,316,20030,6,8,B|231:357|292:337,2,90,0|8|0
257,253,21183,1,8
258,162,21568,2,0,B|313:163|342:217,2,90,0|8|0
168,175,22722,1,8
120,98,23106,6,0,B|74:129|78:188,2,90,0|8|0
204,66,24260,1,8
294,66,24645,2,0,B|344:66|344:66|414:144,1,135,8|8
405,264,25799,5,0
329,312,26183,2,0,B|275:347|275:347|148:304,1,180,12|0
81,277,27337,5,0
121,196,27722,2,0,B|151:146|151:146|205:169|269:115,1,180,8|0
338,69,28876,5,0
427,72,29260,2,0,B|425:134|362:157|362:157|380:224,1,180,8|0
406,306,30414,5,0
316,316,30799,2,0,B|233:334|185:268|204:198,1,180,8|0
225,131,31953,5,0
166,63,32337,2,0,B|123:48|123:48|51:70|50:159,1,180,8|0
40,239,33491,5,0
117,285,33876,2,0,B|165:307|165:307|263:224,1,180,8|0
327,163,35030,5,0
414,144,35414,2,0,B|403:74|311:43|261:104,1,180,12|0
203,144,36568,5,0
116,120,36953,2,0,B|77:107|77:107|11:150|43:238,1,180,12|0
85,308,38106,5,0
175,308,38491,2,0,B|288:308|288:308|334:257,1,180,12|0
392,190,39645,5,0
353,108,40030,2,0,B|324:52,3,45,8|8|8|8
116,133,41568,6,0,B|146:93|146:93|194:83,2,90,4|8|0
76,214,42722,1,8
76,214,42914,2,0,B|62:305|162:318,1,135,0|8
232,314,43876,1,0
305,262,44260,1,8
349,183,44645,6,0,B|403:216|390:272,2,90,0|8|0
304,104,45799,1,8
304,104,45991,2,0,B|276:60|276:60|184:87,1,135,0|8
109,108,46953,1,0
79,192,47337,1,8
159,232,47722,6,0,B|134:283|76:283,2,90,0|8|0
202,153,48876,1,8
202,153,49068,2,0,B|250:96|336:128,1,135,0|8
407,161,50029,1,0
442,243,50414,1,8
407,326,50799,6,0,B|364:352|364:352|267:322,1,135,8|0
205,216,51953,2,0,B|248:190|248:190|345:220,1,135,8|0
38,93,53876,6,0,B|59:45|122:37,2,90,4|8|0
119,131,55029,1,8
119,131,55222,2,0,B|112:168|112:168|152:219|214:184,1,135,0|8
281,157,56183,1,0
370,163,56568,1,8
422,236,56953,6,0,B|467:205|459:150,2,90,0|8|0
347,286,58106,1,8
347,286,58299,2,0,B|299:315|299:315|208:288,1,135,0|8
136,267,59260,1,0
105,182,59645,1,8
144,100,60029,6,0,B|86:76|48:116,2,90,0|8|0
216,152,61183,1,8
216,152,61376,2,0,B|271:210|348:195,1,135,0|8
424,171,62337,1,0
357,109,62722,1,8
275,70,63106,6,0,B|231:54|231:54|139:109,1,135,8|0
103,224,64260,2,0,B|147:240|147:240|239:185,1,135,8|0
348,240,65414,2,0,B|406:250|418:311,1,90,8|8
330,328,66183,6,0,B|250:350|200:272,1,135,8|0
145,168,67337,2,0,B|225:146|275:224,1,135,8|0
375,132,68491,2,0,B|348:86|298:73,2,90,0|8|4
226,77,75414,5,4
178,154,75799,2,0,B|129:126|134:65,2,90,8|0|8
265,177,76953,1,0
295,261,77337,2,0,B|348:237|354:175,2,90,8|0|8
207,281,78491,5,0
118,266,78876,2,0,B|108:326|151:351,2,90,8|0|8
149,182,80029,1,0
129,94,80414,1,8
129,94,80606,2,0,B|148:64|148:64|214:42|243:96,1,135,0|8
281,165,81568,6,0,B|330:137|325:73,2,90,0|8|0
211,221,82722,1,8
211,310,83106,2,0,B|156:309|127:255,2,90,0|8|0
301,308,84260,1,8
349,232,84645,6,0,B|395:263|391:322,2,90,0|8|0
274,181,85799,1,8
186,162,86183,2,0,B|198:113|198:113|290:64,1,135,8|8
390,141,87337,5,0
433,220,87722,2,0,B|410:282|410:282|295:328,1,180,12|0
218,352,88876,5,0
130,331,89260,2,0,B|153:263|219:261|219:261|200:197,1,180,8|0
166,121,90414,5,0
252,96,90799,2,0,B|320:80|320:80|397:172,1,180,8|0
440,239,91953,5,0
497,307,92337,2,0,B|425:353|357:309|350:236,1,180,8|0
326,171,93491,5,0
265,237,93876,2,0,B|222:252|222:252|150:230|149:141,1,180,8|0
162,61,95029,5,0
250,45,95414,2,0,B|304:36|304:36|378:137,1,180,8|0
428,211,96568,5,0
396,295,96953,2,0,B|374:362|278:378|238:310,1,180,12|0
313,263,98106,5,0
271,182,98491,2,0,B|246:148|246:148|167:146|143:236,1,180,12|0
110,310,99645,5,0
53,240,100029,2,0,B|24:194|24:194|122:92,1,180,12|0
178,43,101183,5,0
268,43,101568,2,0,B|320:43,3,45,8|8|8|8
396,251,103106,6,0,B|366:291|366:291|318:301,2,90,4|8|0
436,170,104260,1,8
436,170,104453,2,0,B|450:79|350:66,1,135,0|8
280,70,105414,1,0
206,122,105799,1,8
156,197,106183,6,0,B|210:229|253:191,2,90,0|8|0
116,117,107337,1,8
116,117,107529,2,0,B|127:36|212:30,1,135,0|8
294,37,108491,1,0
361,97,108876,1,8
385,183,109260,6,0,B|439:168|450:111,2,90,0|8|0
298,208,110414,1,8
298,208,110606,2,0,B|223:234|162:193,1,135,0|8
88,153,111568,1,0
67,65,111953,1,8
154,43,112337,6,0,B|203:35|203:35|282:99,1,135,8|0
300,220,113491,2,0,B|250:227|250:227|171:163,1,135,8|0
474,291,115414,6,0,B|453:339|390:347,2,90,4|8|0
393,253,116568,1,8
393,253,116760,2,0,B|400:216|400:216|360:165|298:200,1,135,0|8
231,227,117722,1,0
179,300,118106,1,8
102,253,118491,6,0,B|72:299|101:346,2,90,0|8|0
153,179,119645,1,8
153,179,119837,2,0,B|196:138|196:138|284:117,1,135,0|8
359,126,120799,1,0
407,202,121183,1,8
368,284,121568,6,0,B|426:308|464:268,2,90,0|8|0
296,232,122722,1,8
296,232,122914,2,0,B|241:174|164:189,1,135,0|8
88,213,123876,1,0
155,275,124260,1,8
237,314,124645,6,0,B|281:330|281:330|373:275,1,135,8|0
409,160,125799,2,0,B|365:144|365:144|273:199,1,135,8|0
164,144,126953,2,0,B|106:134|94:73,1,90,8|8
182,56,127722,6,0,B|262:34|312:112,1,135,8|0
367,216,128876,2,0,B|287:238|237:160,1,135,8|0
137,252,130029,2,0,B|164:298|214:311,2,90,0|8|4
