osu file format v6

[General]
AudioFilename: Silver Forest - - 09 - .mp3
AudioLeadIn: 0
PreviewTime: 2857
Countdown: 1
SampleSet: Normal
StackLeniency: 0.7
Mode: 0
LetterboxInBreaks: 1

[Editor]
Bookmarks: 5357,7857,19983,21411,23376,26054,26070,26233,26249
DistanceSpacing: 0.800000011920929
BeatDivisor: 4
GridSize: 16

[Metadata]
Title:Marisa Spark
Artist:Silver Forest
Creator:Alice Margatroid
Version:Lunatic
Source:Touhou Soutenka
Tags:Imperishable Night Kirisame NYO

[Difficulty]
HPDrainRate:7
CircleSize:5
OverallDifficulty:8
SliderMultiplier:2.1
SliderTickRate:2

[Events]
//Background and Video events
0,0,"Konachan.com - 50437 kirisame_marisa touhou.jpg"
//Break Periods
2,23593,25320
//Storyboard Layer 0 (Background)
//Storyboard Layer 1 (Fail)
//Storyboard Layer 2 (Pass)
//Storyboard Layer 3 (Foreground)
//Storyboard Sound Samples
//Background Colour Transformations
3,100,163,162,255

[TimingPoints]
1429,357.142857142857,4,1,0,100,1,0
2215,-100,4,1,0,100,0,0
5161,-100,4,1,0,85,0,0
6946,-100,4,1,0,100,0,0
19018,-100,4,2,0,100,0,0
19285,-100,4,1,0,100,0,0
19732,-100,4,2,0,100,0,0
19910,-100,4,1,0,100,0,0
25534,-50,4,1,0,100,0,0
27230,-100,4,1,0,100,0,0

[HitObjects]
96,288,1429,1,2
256,32,1696,1,2
416,288,1964,1,8
96,144,2232,1,4
416,144,2500,1,4
256,192,2857,12,0,4286
176,96,4643,5,8
176,320,5000,1,8
256,240,5178,5,0
336,320,5357,1,0
336,144,5536,1,0
256,240,5714,1,8
176,144,5893,5,8
176,112,5982,1,0
176,80,6071,1,8
208,96,6161,1,0
240,80,6250,1,8
240,112,6339,1,0
272,96,6429,1,8
304,112,6518,1,0
304,80,6607,1,8
336,96,6696,1,0
368,96,6786,1,8
256,192,6875,12,0,7857
128,144,8036,5,0
176,48,8214,1,8
224,144,8393,1,0
272,48,8571,1,8
320,144,8750,1,0
368,48,8929,1,2
416,144,9107,1,0
416,256,9286,1,8
368,352,9464,1,2
320,256,9643,1,8
272,352,9821,1,8
144,240,10179,6,0,B|128:176|160:128,2,105
368,240,10714,2,0,B|400:160|336:96,2,105
256,192,11250,1,8
256,64,11428,5,0
256,64,11518,1,8
256,192,11696,1,0
256,192,11786,1,8
256,320,11964,1,0
256,320,12053,1,8
256,192,12232,1,0
256,192,12321,1,8
368,160,12500,5,0
368,160,12589,1,0
368,160,12678,1,0
368,160,12768,1,0
368,160,12857,1,0
336,48,13036,1,0
224,80,13214,1,8
256,192,13393,1,0
224,80,13571,1,8
112,48,13750,5,0
112,48,13839,1,0
112,48,13928,2,0,B|112:176,1,105,8|0
112,152,14286,2,0,B|224:31,1,157.5,8|0
217,38,14643,2,0,B|271:193,1,157.5,8|0
269,187,15000,1,8
336,96,15178,1,0
400,192,15357,1,8
464,96,15536,2,0,C|464:16|464:16|112:16|112:16|112:112,1,630
144,192,16786,5,0
176,96,16964,1,8
208,192,17143,1,0
240,96,17321,1,2
272,192,17500,1,8
304,96,17678,5,8
336,192,17857,1,8
368,96,18036,1,8
336,192,18214,1,0
304,96,18393,1,0
176,64,18571,5,2
160,32,18661,1,0
128,64,18750,1,2
112,32,18839,1,0
80,64,18928,1,2
128,192,19107,5,8
176,304,19286,5,0
128,304,19375,1,2
144,336,19464,1,0
96,336,19553,1,2
80,304,19643,1,0
128,192,19821,5,8
256,256,20000,6,0,B|256:32,3,210
256,160,21428,5,0
256,128,21518,1,0
256,96,21607,1,0
256,64,21696,1,0
256,32,21786,1,0
256,32,21875,5,0
256,64,21964,1,0
256,96,22053,1,0
256,128,22143,1,0
256,160,22232,1,0
256,192,22321,1,0
256,224,22411,5,0
256,256,22500,1,0
256,288,22589,1,0
256,320,22678,1,0
256,352,22768,1,0
256,352,22857,1,0
256,320,22946,5,0
256,288,23036,1,0
256,256,23125,1,0
256,224,23214,1,0
256,192,23303,1,0
256,160,23393,1,4
176,192,26070,5,4
336,192,26249,1,4
