osu file format v6

[General]
AudioFilename: Silver Forest - - 09 - .mp3
AudioLeadIn: 0
PreviewTime: 2857
Countdown: 1
SampleSet: Normal
StackLeniency: 0.7
Mode: 0
LetterboxInBreaks: 1

[Editor]
Bookmarks: 12678,13036,16071,16161,16250,18393,18928,19107,19643,19983,21411,23376,26054,26070,26233,26249
DistanceSpacing: 0.800000011920929
BeatDivisor: 4
GridSize: 8

[Metadata]
Title:Marisa Spark
Artist:Silver Forest
Creator:Alice Margatroid
Version:Hard
Source:Touhou Soutenka
Tags:Imperishable Night Kirisame NYO

[Difficulty]
HPDrainRate:6
CircleSize:4
OverallDifficulty:7
SliderMultiplier:2.1
SliderTickRate:2

[Events]
//Background and Video events
0,0,"Konachan.com - 50437 kirisame_marisa touhou.jpg"
//Break Periods
2,23593,25171
//Storyboard Layer 0 (Background)
//Storyboard Layer 1 (Fail)
//Storyboard Layer 2 (Pass)
//Storyboard Layer 3 (Foreground)
//Storyboard Sound Samples
//Background Colour Transformations
3,100,163,162,255

[TimingPoints]
1429,357.142857142857,4,1,0,100,1,0
2215,-100,4,1,0,100,0,0
5161,-100,4,1,0,85,0,0
6946,-100,4,1,0,100,0,0
25534,-50,4,1,0,100,0,0
27230,-100,4,1,0,100,0,0

[HitObjects]
144,272,1429,1,2
256,80,1696,1,2
368,272,1964,1,8
256,192,2857,12,0,4286
256,96,4643,5,8
256,192,4822,1,0
256,288,5000,1,8
416,208,5178,6,0,B|400:112|352:224,1,105
320,288,5536,2,0,B|288:352|256:256,1,105
256,160,5893,2,0,B|224:112|192:224,1,105
144,288,6250,2,0,B|128:352|80:224,1,105
80,144,6607,1,0
128,64,6786,1,0
192,144,6964,2,0,B|192:128|192:128|208:144|208:144|208:128|208:128|224:144|224:144|224:128|224:128|240:144|240:144|240:128|240:128|256:144|256:144|256:128|256:128|272:144|272:144|272:128|272:128|288:144|288:144|288:128|288:128|304:144|304:144|304:128|304:128|320:144|320:144|320:128|320:128|336:144|336:144|336:128|336:128|336:128|336:128|336:128,1,315
318,137,7857,1,8
272,48,8036,6,0,B|144:48,1,105
96,112,8393,1,0
160,176,8572,1,0
224,240,8750,1,0
176,320,8929,1,0
64,224,9286,6,0,B|64:80,1,105
160,144,9643,2,0,B|160:16,1,105
400,64,10178,6,0,B|448:128|368:160,1,105
288,160,10536,2,0,B|224:192|288:272,1,105
368,288,10893,2,0,B|432:272|416:192,1,105
418,208,11250,1,0
336,144,11428,6,0,B|320:48|272:160,1,105,0|8
208,104,11786,2,0,B|176:8|151:105,1,105,0|8
96,160,12143,2,0,B|80:96|32:128|30:203,1,105,0|8
56,256,12500,1,0
144,248,12678,2,0,B|96:318|199:346|279:298|232:295|221:233|221:233,1,210
256,152,13214,1,8
304,232,13393,1,0
352,152,13571,1,8
368,56,13750,6,0,B|224:56,1,105
160,56,14107,2,0,B|32:56,1,105
48,152,14464,2,0,B|48:296,1,105
144,296,14821,2,0,B|256:296,1,105
304,216,15178,1,0
224,152,15357,1,0
304,88,15536,2,0,B|224:152|224:152|208:168,1,105,0|8
400,152,16071,5,0
400,128,16161,1,0
384,112,16250,1,8
256,80,16607,6,0,B|256:48|224:16|144:80|192:112,1,105
188,170,16964,2,0,B|224:240|268:170,1,105
256,80,17321,2,0,B|304:16|352:96,1,105
349,176,17678,2,0,B|301:240|253:160,1,105
160,112,18036,1,0
160,112,18214,1,0
160,112,18393,2,0,B|144:112|144:112|160:128|160:128|144:128|144:128|160:144|160:144|144:144|144:144|160:160|160:160|144:160|144:160|160:176|160:176|144:176|144:176|160:192|160:192|144:192|144:192|160:208|160:208|144:208|144:208|160:224|160:224|144:224|144:224|160:240|160:240|144:240,1,315
264,272,19286,5,0
256,272,19375,1,0
248,272,19464,1,0
240,272,19553,1,0
232,272,19643,1,0
128,176,20000,6,0,B|176:80|192:224,1,105
185,180,20357,1,0
320,176,20714,2,0,B|352:96|384:176,1,105
383,173,21071,1,0
383,173,21161,1,0
383,173,21250,1,0
383,173,21339,1,0
256,192,21428,12,4,23393
208,192,26071,6,4,B|176:128|336:128|288:208,1,157.5
