osu file format v5

[General]
AudioFilename: 10_-_Silver_Forest_-_kero9_destiny.mp3
AudioLeadIn: 0
PreviewTime: 44647
Countdown: 0
SampleSet: Soft
StackLeniency: 0.9
Mode: 0
LetterboxInBreaks: 0

[Editor]
DistanceSpacing: 1.29999995231628
BeatDivisor: 8
GridSize: 8

[Metadata]
Title:Kero (9) Destiny
Artist:Silver Forest
Creator:Yes
Version:Tasty
Source:Touhou Soutenka
Tags:Touhou Suwako Cirno nice boat

[Difficulty]
HPDrainRate:5
CircleSize:4
OverallDifficulty:5
SliderMultiplier:1.8
SliderTickRate:1

[Events]
//Background and Video events
0,0,"editsmall.jpg"
Video,-705,"kerodestinyvideo.avi"
//Break Periods
2,66824,77086
2,122638,130109
//Storyboard Layer 0 (Background)
//Storyboard Layer 1 (Fail)
//Storyboard Layer 2 (Pass)
//Storyboard Layer 3 (Foreground)
//Storyboard Sound Samples
//Background Colour Transformations
3,100,163,162,255

[TimingPoints]
1392,697.674418604651,4,2,0,100,1,0
15276,-200,4,2,0,100,0,0
16236,-100,4,2,0,100,0,0
26439,-200,4,2,0,100,0,0
27339,-100,4,2,0,100,0,0
44143,-100,4,2,0,53,0,0
44404,-100,4,2,0,100,0,0
82253,-200,4,2,0,100,0,0
83299,-100,4,2,0,100,0,0
93416,-200,4,2,0,100,0,0
94462,-100,4,2,0,100,0,0
100015,-100,4,2,0,48,0,0
100247,-100,4,2,0,100,0,0
132108,-100,4,2,0,0,0,0
132340,-100,4,2,0,100,0,0
132486,-100,4,2,0,39,0,0
133706,-100,4,2,0,70,0,0
135189,-100,4,2,0,100,0,0
138154,-100,4,2,0,100,0,1
160305,-100,4,2,0,29,0,1
162310,-100,4,2,0,100,0,0
172864,-100,4,2,0,0,0,0

[Colours]
Combo1 : 233,73,101
Combo2 : 255,255,255
Combo3 : 125,222,97
Combo4 : 80,107,216
Combo5 : 255,255,128

[HitObjects]
176,192,5578,1,2
256,120,5926,1,8
336,192,6275,1,2
256,264,6624,1,8
352,288,6973,5,2
352,96,7322,1,8
160,96,7671,1,2
160,288,8019,1,8
166,192,8368,6,0,B|171:232,2,22.5,2|0|0
227,192,8717,2,0,B|227:232,2,22.5,8|0|0
283,192,9066,6,0,B|283:232,2,22.5,2|0|0
339,192,9415,2,0,B|339:232,2,22.5,8|0|0
256,192,9764,5,2
256,192,9938,1,0
256,192,10112,1,2
256,192,10287,1,0
256,192,10461,5,2
256,192,10636,1,0
256,192,10810,1,2
256,192,10985,1,0
256,128,11159,6,0,B|360:128,1,90,4|8
400,128,11682,1,0
400,184,11857,2,8,B|304:192,1,90,0|8
256,192,12380,5,0
208,216,12554,1,0
152,208,12729,2,0,B|112:168,1,45
112,120,13078,2,0,B|104:64,1,45,0|0
216,40,13601,5,0
256,80,13775,1,0
312,64,13950,2,0,B|312:136|360:136,1,90,0|8
408,112,14473,1,0
456,144,14647,1,0
472,232,14909,1,0
408,168,15171,1,0
408,168,15345,2,0,B|328:216,1,90
256,304,16392,5,2
256,248,16566,1,2
256,192,16740,2,0,B|200:112,1,90,4|8
256,88,17264,1,0
224,32,17438,1,0
176,64,17612,2,0,B|112:32,1,45
80,80,17961,5,0
48,128,18136,1,4
48,208,18397,1,0
144,208,18659,1,0
96,248,18833,1,4
48,304,19095,1,0
144,304,19357,1,0
96,336,19531,5,4
208,336,19880,1,8
328,336,20229,1,4
416,336,20490,1,0
504,336,20752,1,0
464,296,20926,5,4
464,296,21101,1,0
408,296,21275,1,4
408,296,21450,1,0
352,296,21624,1,4
256,192,22322,5,0
360,248,22671,1,8
360,192,22845,1,0
360,136,23019,1,0
256,192,23368,1,8
200,192,23543,5,0
144,192,23717,1,0
88,192,23891,2,0,B|80:240,1,45,0|0
136,264,24240,2,0,B|96:272|80:320,1,45,0|0
24,192,24764,5,0
32,136,24938,1,0
72,96,25112,2,0,B|104:136|160:96,1,90,0|8
192,144,25636,1,0
248,152,25810,2,0,B|256:208|216:224,2,67.5
248,152,26508,2,0,B|312:136|312:136|344:104,1,90
416,72,27554,5,2
376,24,27729,1,2
328,56,27903,2,0,B|280:32|232:40|216:56,1,90,4|8
184,48,28426,1,0
184,48,28514,1,0
184,48,28601,2,0,B|120:64,1,45,0|0
224,128,29124,5,0
176,160,29298,2,0,B|144:184|192:232,1,60,4|0
256,272,29822,1,0
304,304,29996,2,0,B|336:328|296:360,1,60,4|0
256,272,30519,1,0
256,216,30694,5,4
376,216,31043,1,2
312,120,31391,1,4
256,64,31653,1,0
200,120,31915,1,0
256,192,32089,5,4
256,192,32176,1,0
256,192,32264,1,0
256,192,32351,1,0
256,192,32438,1,4
256,192,32525,1,0
256,192,32612,1,0
256,192,32700,1,0
256,192,32787,2,0,B|256:288,1,90,4|8
120,232,33485,6,0,B|88:256,6,22.5
192,240,34182,2,0,B|216:272,6,22.5
168,184,34880,2,0,B|200:160,6,22.5
352,168,35578,6,0,B|392:152,6,22.5,0|0|0|0|0|0|0
304,128,36275,2,0,B|288:88,6,22.5
288,184,36973,2,0,B|248:200,6,22.5
256,192,37671,12,4,38368
112,168,39066,6,0,B|115:208,6,22.5
168,168,39764,2,0,B|163:208,6,22.5,0|0|0|0|0|0|0
224,168,40461,2,0,B|227:208,6,22.5
280,168,41159,6,0,B|280:208,6,22.5
336,168,41857,2,0,B|339:208,6,22.5
392,168,42554,2,0,B|392:192,6,22.5
256,192,43252,12,4,44298
256,32,44647,6,4,B|256:128,1,60,4|0
256,192,45171,1,0
256,248,45345,1,0
360,192,45694,1,8
472,192,46043,6,0,B|408:192,1,60
312,192,46566,1,0
256,192,46740,1,0
256,136,46915,5,2
136,136,47264,1,2
136,192,47438,5,8
56,200,47700,1,0
56,296,47961,1,0
56,240,48136,1,8
56,160,48397,1,0
56,80,48659,1,0
128,48,48833,5,8
184,48,49008,1,0
232,72,49182,1,8
288,72,49357,1,0
336,32,49531,1,8
392,16,49705,1,8
432,56,49880,1,8
440,112,50054,1,2
384,120,50229,6,4,B|384:216,1,60,4|0
384,280,50752,1,0
384,336,50926,1,0
264,336,51275,1,2
144,336,51624,6,0,B|208:336,1,60
208,240,52147,1,0
152,240,52322,1,0
96,240,52496,5,2
96,120,52845,1,2
40,120,53019,5,4
40,32,53281,1,0
128,48,53543,1,0
184,48,53717,1,4
272,48,53979,1,0
336,112,54240,1,0
360,56,54415,5,4
408,80,54589,1,0
456,104,54764,1,4
504,128,54938,1,0
416,208,55287,1,0
360,224,55461,1,4
256,168,55810,6,4,B|256:264,1,60,4|0
256,328,56333,1,0
200,328,56508,1,0
80,328,56857,1,8
24,224,57205,6,0,B|88:224,1,60
184,224,57729,1,0
240,224,57903,1,0
296,224,58078,5,2
416,224,58426,1,2
384,272,58601,5,8
320,336,58862,1,0
408,336,59124,1,0
464,336,59298,1,8
496,256,59560,1,0
496,168,59822,1,0
472,112,59996,5,8
424,144,60171,1,0
368,128,60345,1,8
352,72,60519,1,0
312,32,60694,1,8
256,32,60868,1,8
240,88,61043,1,8
280,128,61217,1,2
256,184,61391,6,4,B|160:184,1,60,4|0
96,184,61915,1,0
40,184,62089,1,0
152,184,62438,1,2
152,296,62787,6,0,B|200:312,1,45
312,320,63310,1,0
368,320,63485,1,0
424,320,63659,5,2
424,200,64008,1,2
368,200,64182,5,4
280,200,64444,1,0
328,128,64705,1,0
272,128,64880,1,4
184,128,65141,1,0
112,176,65403,1,0
72,216,65578,5,4
72,272,65752,1,0
128,272,65926,1,4
128,328,66101,1,0
296,304,66450,5,2
440,304,66624,1,2
80,192,78136,5,4
256,192,78659,1,0
256,192,78833,1,0
376,192,79182,1,8
376,136,79357,5,0
344,88,79531,1,0
400,80,79705,1,0
400,80,79793,1,0
456,144,80054,2,0,B|480:168|456:200,1,45
496,272,80578,5,0
464,320,80752,1,0
408,320,80926,2,0,B|360:304|360:304|344:360,1,90,0|8
288,336,81450,1,0
248,288,81624,1,0
160,264,81886,1,0
160,176,82147,1,0
160,176,82322,2,0,B|264:176,1,90
368,176,83368,5,2
336,128,83543,1,2
392,128,83717,2,0,B|448:128|432:56,1,90,4|8
376,40,84240,1,0
376,40,84328,1,0
376,40,84415,2,0,B|312:40,1,45
216,40,84938,5,0
216,96,85112,1,4
136,96,85374,1,0
56,152,85636,1,0
56,208,85810,1,4
144,208,86072,1,0
144,296,86333,1,0
200,296,86508,5,4
320,296,86857,1,8
432,296,87205,1,4
376,232,87467,1,0
424,160,87729,1,0
368,160,87903,5,4
320,120,88078,1,0
272,160,88252,1,4
224,120,88426,1,0
184,160,88601,1,4
256,192,88688,12,4,89298
48,40,89822,5,0
104,40,89996,1,0
48,144,90345,1,8
104,144,90519,5,0
72,192,90694,1,0
128,192,90868,2,0,B|152:248|176:256|192:208,1,90
184,224,91392,1,0
264,144,91740,5,0
296,192,91915,1,0
240,192,92089,2,0,B|216:248|192:256|176:208,1,90,0|8
144,272,92612,1,0
168,320,92787,1,0
248,344,93048,1,0
336,344,93310,1,0
336,344,93485,2,0,B|432:344,1,90,0|0
376,232,94531,5,2
432,216,94705,1,2
480,184,94880,2,0,B|472:120|424:120,1,90,4|8
384,80,95403,1,0
328,80,95578,1,0
264,32,95810,1,0
184,88,96101,5,0
136,48,96275,1,4
104,128,96537,1,0
96,216,96798,1,0
48,176,96973,1,4
8,256,97235,1,0
8,344,97496,1,0
64,344,97671,5,4
176,344,98019,1,8
296,344,98368,1,4
360,288,98630,1,0
424,232,98892,1,0
472,192,99066,5,4
472,192,99153,1,0
472,192,99240,1,0
472,192,99328,1,0
472,192,99415,1,4
472,192,99502,1,0
472,192,99589,1,0
472,192,99676,1,0
472,192,99764,1,4
256,192,100112,5,0
256,32,100461,6,4,B|256:128,1,60,4|0
256,192,100985,1,0
256,248,101159,1,0
256,368,101508,1,8
360,312,101857,6,0,B|360:248,1,60
360,152,102380,1,0
360,96,102554,1,0
304,120,102729,5,2
224,32,103078,1,2
168,32,103252,5,8
80,56,103514,1,0
72,144,103775,1,0
24,184,103950,1,8
96,208,104211,1,0
176,208,104473,1,0
256,208,104647,5,8
256,264,104822,1,0
304,232,104996,1,8
352,264,105171,1,0
352,208,105345,1,8
400,232,105519,1,8
448,264,105694,1,8
448,208,105868,1,2
504,208,106043,6,4,B|504:304,1,60,4|0
456,352,106566,1,0
400,352,106740,1,0
280,352,107089,1,2
256,240,107438,6,0,B|192:240,1,60
176,144,107961,1,0
176,88,108136,1,0
232,88,108310,5,2
336,40,108659,1,2
384,16,108833,5,4
384,104,109095,1,0
472,104,109357,1,0
440,152,109531,1,4
376,208,109793,1,0
296,248,110054,1,0
288,192,110229,5,4
232,192,110403,1,0
232,136,110578,1,4
288,136,110752,1,0
232,32,111101,1,0
288,32,111275,1,4
168,32,111624,6,4,B|168:128,1,60,4|0
168,192,112147,1,0
168,248,112322,1,0
96,152,112671,1,8
24,56,113019,6,0,B|88:56,1,60
32,136,113543,1,0
32,192,113717,1,0
32,248,113892,5,2
144,248,114240,1,2
144,304,114415,5,8
232,304,114676,1,0
320,304,114938,1,0
376,304,115112,1,8
376,216,115374,1,0
376,128,115636,1,0
376,72,115810,5,8
328,32,115985,1,0
272,56,116159,1,8
216,56,116333,1,0
160,40,116508,1,8
104,24,116682,1,8
48,48,116857,1,8
32,104,117031,1,2
56,160,117205,6,4,B|152:160,1,60,4|0
216,160,117729,1,0
272,160,117903,1,0
384,160,118252,1,2
480,224,118601,6,0,B|416:224,1,60
320,224,119124,1,0
264,224,119298,1,0
208,224,119473,5,2
208,104,119822,1,2
160,72,119996,5,4
72,72,120258,1,0
72,160,120519,1,0
128,160,120694,1,4
128,248,120955,1,0
40,248,121217,1,0
40,304,121392,5,4
96,304,121566,1,0
152,304,121740,1,4
208,304,121915,1,0
424,304,122264,5,2
424,176,122438,1,2
256,192,131159,12,0,132205
336,192,132554,5,0
256,120,132903,1,0
176,192,133252,1,0
256,264,133601,1,0
160,288,133950,5,2
160,96,134298,1,8
352,96,134647,1,2
352,288,134996,1,8
256,192,135345,6,0,B|216:192,2,22.5,2|0|0
312,192,135694,2,0,B|312:152,2,22.5,8|0|0
368,192,136043,2,0,B|368:232,2,22.5,2|0|0
424,192,136392,2,0,B|464:192,2,22.5,8|0|0
368,192,136740,5,0
344,192,136828,1,0
320,192,136915,1,0
296,192,137002,1,0
272,192,137089,5,0
248,192,137176,1,0
224,192,137264,1,0
200,192,137351,1,0
176,192,137438,5,0
152,192,137525,1,0
128,192,137612,1,0
104,192,137700,1,0
80,192,137787,5,0
256,352,138136,6,0,B|256:256,1,60,4|0
256,192,138659,1,0
256,136,138833,1,0
352,192,139182,1,8
317,80,139531,6,0,B|253:80,1,60
168,32,140054,1,0
112,32,140229,1,0
56,32,140403,5,2
144,104,140752,1,2
96,136,140926,5,8
24,104,141188,1,0
24,200,141450,1,0
24,256,141624,1,8
24,336,141886,1,0
104,336,142147,1,0
104,256,142322,5,8
152,216,142496,1,0
192,256,142671,1,8
232,216,142845,1,0
272,256,143019,1,8
320,216,143194,1,8
360,256,143368,1,8
400,216,143543,1,2
440,256,143717,6,4,B|440:160,1,60,4|0
440,96,144240,1,0
440,40,144415,1,0
328,72,144764,1,2
216,32,145112,6,0,B|216:96,1,60
216,192,145636,1,0
216,248,145810,1,0
216,192,145985,5,2
336,192,146333,1,2
392,192,146508,5,4
336,248,146769,1,0
392,328,147031,1,0
336,328,147205,1,4
256,328,147467,1,0
200,272,147729,1,0
144,328,147903,5,4
88,328,148078,1,0
144,328,148252,1,4
88,328,148426,1,0
112,216,148775,1,0
112,160,148950,1,4
168,56,149298,6,4,B|224:120,1,60,4|0
272,176,149822,1,0
312,224,149996,1,0
416,264,150345,1,8
488,360,150694,6,0,B|488:296,1,60
488,200,151217,1,0
488,144,151392,1,0
488,88,151566,5,2
392,16,151915,1,2
440,48,152089,5,8
392,104,152351,1,0
296,80,152612,1,0
264,128,152787,1,8
336,152,153048,1,0
280,208,153310,1,0
352,224,153485,5,8
320,272,153659,1,0
264,288,153833,1,8
216,256,154008,1,0
200,200,154182,1,8
160,160,154357,1,8
104,144,154531,1,8
56,176,154705,1,2
24,120,154880,6,4,B|24:24,1,60,4|0
120,48,155403,1,0
176,48,155578,1,0
296,48,155926,1,2
408,16,156275,6,0,B|408:80,1,60
408,176,156798,1,0
464,176,156973,1,0
432,224,157147,5,2
312,232,157496,1,2
256,216,157671,5,4
256,296,157932,1,0
160,304,158194,1,0
112,328,158368,1,4
56,272,158630,1,0
96,208,158892,1,0
48,144,159066,5,4
48,88,159240,1,0
96,112,159415,1,4
96,56,159589,1,0
184,200,159938,5,2
184,72,160112,1,2
256,8,160461,5,0
256,96,160723,1,0
256,184,160984,1,0
256,184,161159,1,0
256,272,161420,1,0
256,360,161682,1,0
256,360,161856,1,0
256,360,162031,2,0,B|208:360,1,45
424,120,162729,5,0
424,176,162903,2,0,B|424:232,1,45,8|0
256,192,163252,12,0,164124
256,192,164473,5,0
172,192,166043,5,0
228,192,166217,1,0
284,192,166392,1,0
340,192,166566,1,0
256,112,166915,5,2
256,112,167089,1,2
136,112,167438,5,4
16,112,167787,1,0
80,208,168136,1,0
16,304,168485,1,0
136,304,168833,5,0
208,208,169182,1,0
272,304,169531,1,0
216,304,169705,5,2
272,304,169880,1,0
328,304,170054,1,0
384,304,170229,5,4
504,304,170578,1,0
424,216,170926,1,4
344,136,171275,1,0
256,56,171624,6,0,B|256:120,1,45,2|0
256,160,171973,2,0,B|256:216,1,45,2|0
168,288,172496,5,4
344,288,172671,1,4
256,192,173019,12,0,176682
