osu file format v5

[General]
AudioFilename: Eternally Unreachable Distance.mp3
AudioLeadIn: 0
PreviewTime: -1
Countdown: 1
SampleSet: Normal
StackLeniency: 0.7
Mode: 0
LetterboxInBreaks: 1
EditorBookmarks: 19469,22326,23040,45897,46612,66612,69469
EditorDistanceSpacing: 0.699999988079071

[Metadata]
Title:Eternally Unreachable Distance
Artist:Silver Forest
Creator:blissfulyoshi
Version:animasks Hard
Source:
Tags:Touhou

[Difficulty]
HPDrainRate:0
CircleSize:5
OverallDifficulty:7
SliderMultiplier:2
SliderTickRate:2

[Events]
//Background and Video events
0,0,"mokou.jpg"
//Break Periods
2,45382,47140
//Storyboard Layer 0 (Background)
//Storyboard Layer 1 (Failing)
//Storyboard Layer 2 (Passing)
//Storyboard Layer 3 (Foreground)
//Storyboard Sound Samples
//Background Colour Transformations
3,100,163,162,255

[TimingPoints]
8770,357.142857142857,4,1,0,70,1,0

[Colours]
Combo1 : 255,255,0
Combo2 : 255,0,0
Combo3 : 255,128,0

[HitObjects]
256,192,8770,2,0,B|304:208|304:280,1,100
256,192,9127,2,0,B|240:240|168:240,1,100
256,192,9484,2,0,B|208:176|208:104,1,100
256,192,9841,2,0,B|272:144|344:144,1,100
256,192,10198,2,0,B|304:208|304:280,1,100
368,240,10555,1,0
424,200,10734,5,0
424,200,10823,1,0
424,200,10912,1,0
424,200,11002,1,0
424,200,11091,1,0
424,200,11180,1,0
424,200,11270,1,0
328,96,11627,6,0,B|232:40|104:104,1,200,0|8
8,152,12341,2,0,B|112:208|232:136,1,200,0|8
144,280,13055,2,0,B|248:336|368:264,1,200,0|8
440,232,13770,1,0
456,200,13859,1,0
456,168,13948,1,0
448,136,14037,1,0
424,112,14127,1,8
312,192,14484,6,0,L|296:144|216:136,2,100,0|0|8
168,192,15198,1,0
168,192,15287,1,0
168,192,15377,1,0
168,192,15466,1,0
168,192,15555,1,8
312,192,15912,2,0,L|296:240|216:248,2,100,0|0|8
448,192,16627,1,0
464,216,16716,1,0
480,248,16805,1,0
472,280,16894,1,0
456,312,16984,1,8
320,336,17341,6,0,L|360:288,4,50,0|0|0|0|8
248,336,17877,1,0
176,336,18055,2,0,L|136:288,4,50,0|0|0|0|8
248,336,18591,1,0
248,264,18769,2,0,L|248:160,2,100,0|0|8
360,184,19484,2,0,B|352:128|280:80,2,100,0|0|8
360,320,20198,6,0,B|368:264|440:216,2,100,0|0|8
480,248,20912,1,0
480,208,21002,1,0
480,176,21091,1,0
480,144,21180,1,0
480,112,21269,1,8
336,112,21627,2,0,B|208:112,1,100,0|0
168,112,21984,2,0,B|168:232,1,100,8|0
168,280,22341,2,0,B|296:280,1,100
336,280,22698,2,0,B|336:176,1,100,8|0
256,192,23055,1,4
256,192,23234,1,0
256,192,23412,1,4
256,192,23769,12,4,25912
256,192,26091,5,4
256,192,26269,1,4
360,96,26627,2,0,B|440:176,1,100,0|0
384,224,26984,2,0,B|304:144,1,100,8|0
256,104,27341,5,0
232,80,27430,1,0
200,64,27519,1,0
168,56,27609,1,0
136,56,27698,1,8
200,192,28055,1,0
176,216,28144,1,0
144,232,28233,1,0
112,240,28323,1,0
80,240,28412,1,8
184,336,28769,6,0,B|240:312|240:248,2,100,0|0|8
320,336,29484,2,0,B|264:312|264:248,2,100,0|0|8
320,184,30198,2,0,B|264:208|264:272,2,100,0|0|8
184,184,30912,2,0,B|240:208|240:272,2,100,0|0|8
72,96,31627,5,0
88,64,31716,1,0
112,40,31805,1,0
144,32,31894,1,0
176,32,31984,1,8
312,56,32341,1,0
280,56,32431,1,0
248,64,32520,1,0
224,88,32609,1,0
208,120,32698,1,8
72,192,33055,5,0
88,224,33144,1,0
112,248,33233,1,0
144,256,33322,1,0
176,256,33412,1,8
312,256,33769,2,0,B|376:248|400:200,2,100,0|0|8
256,128,34484,5,4
256,192,34662,12,0,35912
256,304,36627,5,0
288,288,36716,1,0
304,256,36805,1,0
312,224,36894,1,0
320,192,36984,1,8
320,120,37162,1,8
256,88,37341,5,0
152,192,37698,5,8
256,296,38055,5,0
360,192,38412,5,8
256,88,38769,5,4
256,192,38948,12,4,39841
424,136,40198,6,0,B|488:216|440:328,1,200,0|8
384,280,40734,2,0,B|392:208,2,50
312,280,41091,2,0,B|320:352,2,50,0|0|8
240,280,41448,2,0,B|232:208,2,50
160,160,41984,6,0,B|376:160,1,200,8|4
464,160,42609,1,0
376,96,42877,5,0
344,72,42966,1,0
312,56,43055,2,0,B|224:16|96:32,1,200,0|8
8,48,43591,1,0
40,72,43680,1,0
72,88,43769,2,0,B|160:128|288:112,1,200,0|8
376,128,44305,1,0
344,152,44394,1,0
312,168,44483,2,0,B|224:208|96:192,2,200,0|8|0
112,192,48055,5,0
184,192,48234,1,0
256,192,48412,1,8
392,192,48769,1,0
184,24,49484,6,0,B|72:56|56:184,1,200,0|8
328,360,50198,2,0,B|440:328|456:200,1,200,0|8
312,192,50912,5,0
248,160,51091,1,0
176,160,51269,1,8
112,192,51448,1,0
112,264,51627,1,0
144,248,51717,1,0
176,232,51806,1,0
248,232,51985,1,8
312,264,52162,1,0
344,320,52341,6,0,B|408:288|368:224,2,100,0|0|8
168,64,53055,2,0,B|104:96|144:160,2,100,0|0|8
232,192,53769,6,0,B|352:192,1,100
368,192,54037,1,0
400,192,54127,1,8
392,48,54484,2,0,B|272:48,1,100
256,48,54752,1,0
224,48,54841,1,8
88,96,55198,6,0,B|24:192,1,100,0|4
88,216,55555,2,0,B|152:120,1,100
200,168,55912,2,0,B|136:264,1,100,0|4
208,280,56269,2,0,B|272:184,1,100
320,232,56627,2,0,B|256:328,1,100,0|4
320,352,56984,2,0,B|384:256,1,100
256,192,57341,12,0,58055
256,56,58412,6,0,C|240:80|264:112|240:128|272:152|240:168|256:176|256:200,1,200,8|0
400,192,59127,2,0,C|376:176|344:200|328:176|304:208|288:176|280:192|256:192,1,200,8|0
120,192,59841,2,0,C|144:176|176:200|192:176|216:208|232:176|240:192|264:192,1,200,8|0
336,336,60912,6,0,C|432:312|432:208,1,200,0|8
176,48,61627,2,0,C|80:72|80:176,1,200,0|8
216,192,62341,5,0
288,192,62519,1,0
360,192,62698,1,8
432,192,62877,1,0
432,120,63055,1,0
416,88,63144,1,0
392,64,63234,1,0
360,48,63323,1,0
328,40,63412,1,8
256,40,63591,1,0
192,72,63769,6,0,L|136:80|88:152,2,100,0|0|8
320,312,64484,2,0,L|376:304|424:232,2,100,0|0|8
224,216,65198,6,0,L|168:216,4,50,0|0|0|0|8
288,168,65912,2,0,L|504:168,1,200,0|8
400,56,66627,5,0
328,56,66805,1,0
296,64,66894,1,0
264,80,66984,1,8
192,80,67162,1,0
120,80,67341,1,0
120,152,67520,1,0
192,152,67699,1,8
264,152,67877,1,0
296,136,67967,1,0
328,128,68056,1,0
400,128,68234,1,0
440,184,68412,5,8
440,184,68591,1,0
440,184,68769,2,0,B|336:360|72:328,1,400,0|4
