osu file format v5

[General]
AudioFilename: Eternally Unreachable Distance.mp3
AudioLeadIn: 0
PreviewTime: -1
Countdown: 1
SampleSet: Normal
StackLeniency: 0.7
Mode: 0
LetterboxInBreaks: 1
EditorBookmarks: 16076,18040,19469,22326,23040,24826,25540,26969,28040,28397,28754,31612,32683,33040,34112,45897,46612,55183,57326,69469
EditorDistanceSpacing: 0.699999988079071

[Metadata]
Title:Eternally Unreachable Distance
Artist:Silver Forest
Creator:blissfulyoshi
Version:Normal
Source:
Tags:Touhou

[Difficulty]
HPDrainRate:3
CircleSize:4
OverallDifficulty:4
SliderMultiplier:1.4
SliderTickRate:2

[Events]
//Background and Video events
0,0,"mokou.jpg"
//Break Periods
2,40383,45292
//Storyboard Layer 0 (Background)
//Storyboard Layer 1 (Failing)
//Storyboard Layer 2 (Passing)
//Storyboard Layer 3 (Foreground)
//Storyboard Sound Samples
//Background Colour Transformations
3,100,163,162,255

[TimingPoints]
8770,357.142857142857,4,1,0,79,1,0

[Colours]
Combo1 : 255,255,0
Combo2 : 255,0,0
Combo3 : 255,128,0

[HitObjects]
16,192,8770,1,8
112,192,9127,1,8
208,192,9484,1,8
304,192,9841,1,8
400,192,10198,1,8
496,192,10555,1,8
496,240,10734,2,0,B|496:304,8,35
448,240,11627,6,0,C|296:240,3,140,0|8|0|8
309,142,13055,2,0,C|469:142,3,140,0|8|0|8
448,40,14484,5,0
352,40,14841,2,0,C|200:40,3,140,8|0|0|0
216,88,16091,2,0,B|272:112|312:120|360:112|424:96|456:88|472:80|488:88|488:112|496:160|496:192|488:232|504:304|480:312|504:368|368:288|320:232|376:208|440:216|432:192|384:176|384:176|384:176|384:176|320:168|288:184|248:184|176:176,1,770
112,184,18412,5,8
72,272,18769,1,8
168,288,19127,1,0
264,288,19484,2,0,C|336:288,2,70
264,192,20198,5,8
360,192,20555,1,8
360,96,20912,2,0,C|440:96,2,70
312,96,21448,2,0,B|152:96,2,140
320,144,22341,6,0,B|400:184|400:280|488:336|256:296|224:216,1,350
232,184,23412,1,8
136,184,23769,2,0,C|56:184,2,70,8|8|8
136,280,24484,1,0
232,280,24841,6,8,B|256:360|304:376|376:376|424:344|440:256,1,280,8|0
336,280,25912,1,8
336,184,26269,1,8
432,184,26627,1,10
432,88,26984,6,8,B|408:48|312:8|176:0|40:16|40:88,1,420,0|12
128,120,28412,1,8
208,168,28769,1,0
304,168,29127,6,0,C|304:248,1,70
208,240,29662,2,0,C|120:240,1,70
40,240,30198,2,0,C|40:160,3,70
184,168,31269,5,2
280,168,31627,2,0,B|392:176|472:216|456:280|344:296|176:264,1,420
184,168,33055,2,0,B|264:72|416:88|360:0|240:-16|112:72,1,420
40,112,34484,5,2
40,256,35019,2,0,C|112:256,2,70
40,352,35734,2,2,C|256:352,1,210,2|0
432,192,37341,5,8
336,192,37698,1,8
240,192,38055,1,8
144,192,38412,1,8
256,192,38769,12,4,40198
112,200,46627,5,8
312,200,47341,2,0,C|392:200,2,70
384,136,48055,2,0,C|232:136,1,140,8|0
96,136,48948,6,0,B|88:288|232:280,1,210
208,184,49841,1,2
304,184,50198,1,0
304,280,50555,1,2
208,280,50912,2,0,B|104:280|104:192|104:96|224:112,1,280
384,192,52341,6,0,B|160:192,1,210
120,192,53055,2,0,B|32:192,2,70,2|0|2
120,288,53769,2,0,B|168:352|168:352|272:264|272:264,1,210
304,232,54484,1,0
304,32,55198,6,8,B|408:24|472:48|496:136|472:232|408:224|352:160|280:120,2,420,8|0|8
304,224,58055,5,8
144,104,58769,2,0,B|64:40,2,70
224,160,59484,1,8
224,160,60377,6,0,B|152:224,2,70
264,128,60912,1,8
336,200,61269,1,10
264,272,61627,1,8
192,200,61984,1,10
96,200,62341,2,0,B|96:48,1,140,0|4
392,56,63769,5,0
192,56,64484,1,10
192,104,64662,1,10
192,152,64841,1,10
192,248,65198,2,0,B|416:248,1,210
448,248,65912,1,4
256,192,66627,12,0,69484
