osu file format v5

[General]
AudioFilename: Eternally Unreachable Distance.mp3
AudioLeadIn: 0
PreviewTime: -1
Countdown: 1
SampleSet: Normal
StackLeniency: 0.7
Mode: 0
LetterboxInBreaks: 1
EditorBookmarks: 19469,22326,23040,45897,46612,66612,69469
EditorDistanceSpacing: 0.800000011920929

[Metadata]
Title:Eternally Unreachable Distance
Artist:Silver Forest
Creator:blissfulyoshi
Version:Hard
Source:
Tags:Touhou

[Difficulty]
HPDrainRate:3
CircleSize:4
OverallDifficulty:5
SliderMultiplier:2
SliderTickRate:2

[Events]
//Background and Video events
0,0,"mokou.jpg"
//Break Periods
2,46008,47733
//Storyboard Layer 0 (Background)
//Storyboard Layer 1 (Failing)
//Storyboard Layer 2 (Passing)
//Storyboard Layer 3 (Foreground)
//Storyboard Sound Samples
//Background Colour Transformations
3,100,163,162,255

[TimingPoints]
8770,357.142857142857,4,1,0,70,1,0

[Colours]
Combo1 : 255,255,0
Combo2 : 255,0,0
Combo3 : 255,128,0

[HitObjects]
96,56,8770,1,12
96,216,9127,1,12
256,216,9484,1,12
256,56,9841,1,12
416,56,10198,1,12
416,216,10555,1,12
416,296,10734,2,0,B|416:352,8,50
336,296,11627,5,8
176,296,11984,2,0,B|144:80,1,200
304,96,12698,1,0
432,192,13055,5,8
352,192,13234,1,8
352,272,13412,1,8
272,272,13591,1,8
272,192,13770,2,0,B|160:192,1,100
168,112,14127,1,2
88,112,14305,1,2
88,192,14484,1,2
88,352,14841,6,0,B|200:352,1,100
264,352,15198,2,0,B|264:248,2,100
344,352,15734,1,0
344,192,16091,2,0,C|416:192,10,50
184,192,17341,5,8
147,262,17519,1,8
112,192,17698,1,8
112,32,18055,2,0,B|112:136,2,100
272,32,18769,1,2
328,88,18948,1,2
352,160,19127,1,2
328,232,19305,1,2
272,288,19484,1,2
200,320,19662,1,2
120,320,19841,1,2
120,160,20198,5,0
280,160,20555,1,8
440,160,20912,1,0
408,232,21091,1,0
344,280,21269,1,0
408,232,21448,5,0
440,160,21627,1,0
408,88,21805,1,0
344,40,21984,5,0
408,88,22162,1,0
440,160,22341,1,0
400,160,22430,5,0
360,160,22519,1,8
320,160,22609,1,8
280,160,22698,1,8
240,160,22787,1,8
200,160,22877,1,8
160,160,22966,1,8
120,160,23055,1,8
120,320,23412,5,0
280,320,23769,2,0,C|216:320,2,50,2|2|2
360,320,24127,1,2
360,160,24484,1,8
200,160,24841,6,0,B|200:224,8,50
360,160,25912,1,4
360,320,26269,1,0
200,320,26627,1,4
200,160,26984,6,0,C|200:80,6,50
280,160,27698,5,0
360,160,27877,2,0,B|280:240,1,100
368,232,28234,1,0
368,312,28412,5,8
328,312,28502,1,8
288,312,28591,1,8
248,312,28680,1,8
208,312,28769,1,8
48,312,29127,6,0,C|120:224,1,100
168,176,29484,1,0
112,120,29662,2,0,C|192:32,1,100
336,48,30198,2,0,C|336:160,3,100
336,224,30912,6,0,B|384:264,4,50
176,224,31627,2,0,C|112:160,6,50,0|0|0|0|0|0|0
256,224,32341,5,2
256,184,32430,1,2
256,144,32519,1,2
288,120,32609,1,2
320,96,32698,1,2
352,72,32787,1,2
384,48,32877,1,2
384,128,33055,5,8
384,168,33144,1,8
384,208,33234,1,8
384,248,33323,1,8
384,288,33412,1,8
344,288,33502,1,8
304,288,33591,1,8
264,288,33680,1,8
224,288,33769,2,0,B|104:288,2,100
224,128,34484,5,0
464,128,35019,1,8
384,128,35198,1,8
304,128,35377,1,8
144,128,35734,2,0,B|144:288|336:352,1,300
320,264,36448,5,0
320,184,36627,1,0
320,144,36716,1,0
320,104,36805,1,0
280,104,36894,1,0
240,104,36984,1,0
168,64,37162,1,0
256,40,37341,5,2
472,192,37698,1,2
256,344,38055,1,2
40,192,38412,1,2
256,192,38769,5,0
296,192,38859,2,0,B|360:192,2,50
296,232,39127,2,0,B|296:296,2,50
336,232,39394,2,0,B|408:232,2,50
336,272,39662,2,0,B|336:336,2,50
336,112,40198,5,8
176,112,40555,1,8
176,192,40734,1,0
144,216,40823,1,0
176,240,40912,1,0
256,240,41091,1,0
288,216,41180,1,0
256,192,41269,1,0
256,112,41448,6,0,B|256:8,1,100
336,16,41805,1,8
416,16,41984,1,8
376,80,42162,1,0
352,112,42252,1,0
392,112,42341,1,0
376,192,42519,1,0
376,232,42609,1,0
376,272,42698,1,0
296,272,42877,5,8
216,272,43055,2,0,B|-8:272,1,200
16,192,43591,1,0
48,168,43680,1,0
16,144,43769,1,0
16,64,43948,1,8
96,64,44127,1,8
176,64,44305,5,0
200,32,44394,1,0
224,64,44484,1,0
224,144,44662,1,8
224,224,44841,2,0,B|344:224,1,100
328,144,45198,1,0
408,144,45377,1,0
408,64,45555,1,0
328,64,45734,1,0
328,64,45823,1,4
88,144,48948,6,0,B|80:296|352:288,1,300
472,288,49841,1,4
472,128,50198,1,0
312,128,50555,1,4
312,288,50912,2,0,B|208:288|152:288|96:192|104:88,1,300
104,48,51627,5,2
136,72,51716,1,2
168,96,51805,1,2
200,120,51894,1,2
232,144,51984,1,2
312,144,52162,1,8
392,144,52341,6,0,B|88:144,1,300
96,224,53055,1,0
176,224,53234,1,0
256,224,53412,1,0
256,64,53769,2,0,B|304:128|304:128|504:248|504:248,1,300
456,312,54484,1,0
168,176,55198,5,8
248,176,55377,2,0,B|184:80,1,100
232,24,55734,1,8
288,80,55912,2,0,B|416:80,1,100
392,160,56269,1,8
336,216,56448,1,8
280,160,56627,2,0,B|200:248,1,100
136,248,56984,1,8
136,168,57162,1,8
136,88,57341,2,0,B|136:56|120:-24|312:-16|384:72,1,300,0|0
376,136,58055,5,0
112,312,58769,1,8
112,232,58948,1,8
112,152,59127,1,8
248,232,59484,1,0
328,232,59662,6,2,B|328:128,1,100,2|2
408,136,60019,2,2,B|408:256,1,100,2|2
328,232,60377,5,8
248,232,60555,1,8
168,232,60734,1,8
32,352,60912,1,2
32,32,61269,1,2
480,32,61627,1,2
480,352,61984,1,2
256,328,62341,2,0,B|256:24,1,300
168,24,63055,5,0
168,64,63144,1,0
168,104,63234,1,0
168,144,63323,1,0
168,184,63412,1,0
168,264,63591,1,8
248,264,63769,6,0,B|416:264|464:240|464:104,1,300
384,120,64484,1,8
304,120,64662,1,8
224,120,64841,1,8
224,280,65198,2,10,B|336:280|376:232|336:160|488:152,1,300
480,232,65912,1,8
176,120,66627,5,0
240,168,66805,1,0
304,216,66984,1,0
240,264,67162,1,4
176,312,67341,5,8
112,264,67519,1,8
48,216,67698,1,8
112,168,67876,1,12
176,120,68055,1,8
176,216,68234,5,2
176,216,68412,1,2
176,216,68591,1,2
176,312,68769,2,0,B|296:400|400:328|488:264|384:144|384:144,1,400,2|2
