osu file format v9

[General]
AudioFilename: STREET DANCER.mp3
AudioLeadIn: 0
PreviewTime: -1
Countdown: 0
SampleSet: Normal
StackLeniency: 1
Mode: 0
LetterboxInBreaks: 1
SkinPreference:streamproject

[Editor]
DistanceSpacing: 0.8
BeatDivisor: 2
GridSize: 16

[Metadata]
Title:STREET DANCER
Artist:Silky F
Creator:Koko Ban
Version:Extreme
Source:
Tags:

[Difficulty]
HPDrainRate:0
CircleSize:3
OverallDifficulty:0
ApproachRate:10
SliderMultiplier:2.6
SliderTickRate:4

[Events]
//Background and Video events
0,0,"wallpaper.jpg"
0,0,"playfield.png"
//Break Periods
//Storyboard Layer 0 (Background)
//Storyboard Layer 1 (Fail)
//Storyboard Layer 2 (Pass)
//Storyboard Layer 3 (Foreground)
//Storyboard Sound Samples
//Background Colour Transformations
3,100,0,0,0

[TimingPoints]
320,434.845629801421,4,1,0,100,1,0

[HitObjects]
160,48,3146,1,8
160,144,3363,1,8
256,48,3581,1,8
256,144,3798,1,8
352,144,4016,1,8
352,240,4234,1,8
448,144,4451,1,8
448,240,4668,1,8
256,240,4885,1,8
256,336,5103,1,8
160,240,5320,1,8
160,336,5538,1,8
352,144,6625,1,8
256,240,7277,1,8
256,144,7386,1,8
160,144,7930,1,8
160,240,8038,1,8
160,48,10104,1,8
160,144,10321,1,8
256,48,10539,1,8
256,144,10756,1,8
352,144,10974,1,8
352,240,11192,1,8
448,144,11409,1,8
448,240,11626,1,8
256,240,11843,1,8
256,336,12061,1,8
160,240,12278,1,8
160,336,12496,1,8
160,144,14235,1,8
352,144,14452,1,8
256,240,14670,1,8
448,240,14887,1,8
160,48,17278,1,8
256,48,17495,1,8
160,144,17713,1,8
256,144,17930,1,8
160,240,18148,1,8
352,48,18365,1,8
352,144,18582,1,8
256,240,18800,1,8
160,336,19017,1,8
256,336,19235,1,8
352,240,19452,1,8
448,48,19670,1,8
448,144,19887,1,8
448,240,20104,1,8
352,336,20322,1,8
448,336,20539,1,8
352,240,20757,1,8
256,336,20974,1,8
448,144,21192,1,8
448,240,21409,1,8
352,336,21626,1,8
256,240,21844,1,8
352,144,22061,1,8
256,144,22279,1,8
160,240,22496,1,8
352,48,22713,1,8
160,144,22931,1,8
256,48,23148,1,8
160,48,23366,1,8
256,144,23584,1,8
256,240,23801,1,8
352,144,24019,1,8
352,144,25975,1,8
256,240,26193,1,8
352,240,26410,1,8
256,144,26628,1,8
160,48,27063,1,8
160,144,27497,1,8
256,144,27606,1,8
352,144,27715,1,8
256,240,27932,1,8
352,240,28041,1,8
448,240,28150,1,8
448,336,28802,1,8
256,336,29237,1,8
448,144,29672,1,8
256,144,30106,1,8
160,48,30324,1,8
160,48,31194,1,8
256,48,31411,1,8
160,144,31629,1,8
256,144,31846,1,8
160,240,32064,1,8
352,48,32281,1,8
352,144,32498,1,8
256,240,32716,1,8
160,336,32933,1,8
256,336,33151,1,8
352,240,33368,1,8
448,48,33586,1,8
448,144,33803,1,8
448,240,34020,1,8
352,336,34238,1,8
448,336,34455,1,8
352,240,34673,1,8
256,336,34890,1,8
448,144,35108,1,8
448,240,35325,1,8
352,336,35542,1,8
256,240,35760,1,8
352,144,35977,1,8
256,144,36195,1,8
160,240,36412,1,8
352,48,36629,1,8
160,144,36847,1,8
256,48,37064,1,8
160,48,37282,1,8
256,144,37500,1,8
352,240,37716,1,8
352,144,39891,1,8
256,240,40108,1,8
256,144,40544,1,8
160,48,40979,1,8
160,144,41413,1,8
256,144,41522,1,8
352,144,41631,1,8
256,240,41848,1,8
352,240,41957,1,8
448,240,42066,1,8
448,336,42500,1,8
352,240,42716,1,8
256,336,42935,1,8
448,144,43152,1,8
256,144,43587,1,8
160,48,44022,1,8
448,336,44891,1,8
352,336,45326,1,8
448,240,45761,1,8
352,240,46196,1,8
256,240,46631,1,8
352,144,46957,1,8
256,48,47283,1,8
256,144,47500,1,8
160,144,47718,1,8
448,336,48370,1,8
352,336,48805,1,8
448,240,49240,1,8
352,240,49675,1,8
256,240,50110,1,8
352,144,50436,1,8
256,48,50762,1,8
256,144,50979,1,8
160,144,51197,1,8
448,336,51849,1,8
352,336,52284,1,8
448,240,52719,1,8
352,240,53154,1,8
256,240,53589,1,8
352,144,53915,1,8
256,48,54241,1,8
256,144,54458,1,8
160,144,54676,1,8
352,144,55327,1,8
256,240,55980,1,8
256,144,56197,1,8
448,336,56849,1,8
448,240,57284,1,8
352,336,57502,1,8
352,240,57937,1,8
256,144,58154,1,8
160,48,58806,1,8
160,144,58915,1,8
160,240,59024,1,8
160,336,59132,1,8
256,336,59241,1,8
352,336,59350,1,8
448,336,59459,1,8
448,240,59567,1,8
448,144,59676,1,8
160,48,60546,1,8
160,144,60763,1,8
256,48,60981,1,8
256,144,61198,1,8
352,144,61416,1,8
352,240,61634,1,8
448,144,61851,1,8
448,240,62068,1,8
256,240,62285,1,8
256,336,62503,1,8
160,240,62720,1,8
160,336,62938,1,8
352,144,64025,1,8
256,240,64677,1,8
256,144,64786,1,8
160,144,65330,1,8
160,240,65438,1,8
160,48,67504,1,8
160,144,67721,1,8
256,48,67939,1,8
256,144,68156,1,8
352,144,68374,1,8
352,240,68592,1,8
448,144,68809,1,8
448,240,69026,1,8
256,240,69243,1,8
256,336,69461,1,8
160,240,69678,1,8
160,336,69896,1,8
160,144,71635,1,8
352,144,71852,1,8
256,240,72070,1,8
448,240,72287,1,8
448,336,74461,1,8
352,336,74896,1,8
448,240,75331,1,8
352,240,75766,1,8
256,240,76201,1,8
352,144,76527,1,8
256,48,76853,1,8
256,144,77070,1,8
160,144,77288,1,8
448,336,77940,1,8
352,336,78375,1,8
448,240,78810,1,8
352,240,79245,1,8
256,240,79680,1,8
352,144,80006,1,8
256,48,80332,1,8
256,144,80549,1,8
160,144,80767,1,8
448,336,81419,1,8
352,336,81854,1,8
448,240,82289,1,8
352,240,82724,1,8
256,240,83159,1,8
352,144,83485,1,8
256,48,83811,1,8
256,144,84028,1,8
160,144,84246,1,8
352,144,84897,1,8
256,240,85550,1,8
256,144,85767,1,8
448,336,86419,1,8
448,240,86854,1,8
352,336,87072,1,8
352,240,87507,1,8
256,144,87724,1,8
448,336,88593,1,8
352,336,88811,1,8
448,240,89028,1,8
352,240,89245,1,8
352,240,89572,1,8
256,144,89898,1,8
160,144,90115,1,8
256,48,90224,1,8
160,240,90550,1,8
352,48,90767,1,8
256,144,90985,1,8
160,48,91202,1,8
352,336,92072,1,8
448,240,92289,1,8
256,336,92506,1,8
448,144,92724,1,8
256,240,93159,1,8
352,144,93376,1,8
352,240,93593,1,8
160,144,94028,1,8
256,48,94246,1,8
256,144,94463,1,8
160,48,94681,1,8
352,336,95551,1,8
448,240,95768,1,8
256,336,95986,1,8
448,144,96203,1,8
448,144,96420,1,8
448,336,96638,1,8
352,240,96855,1,8
256,240,97073,1,8
352,144,97290,1,8
256,144,97507,1,8
256,48,97725,1,8
160,48,97942,1,8
160,48,98160,1,8
352,144,99899,1,8
256,144,100116,1,8
352,144,100333,1,8
352,240,100551,1,8
256,240,100985,1,8
160,336,101420,1,8
256,336,101637,1,8
352,336,101855,1,8
448,336,102072,1,8
448,240,102290,1,8
448,144,102507,1,8
448,48,102724,1,8
352,48,102942,1,8
256,48,103160,1,8
160,48,103378,1,8
160,144,103595,1,8
160,240,103813,1,8
160,336,104030,1,8
256,336,104139,1,8
352,336,104248,1,8
448,336,104356,1,8
448,240,104465,1,8
448,144,104574,1,8
448,48,104682,1,8
352,48,104791,1,8
256,48,104900,1,8
160,48,105009,1,8
160,144,105117,1,8
256,144,105226,1,8
352,144,105335,1,8
352,240,105443,1,8
256,240,105552,1,8
160,240,105661,1,8
160,144,105770,1,8
