osu file format v9

[General]
AudioFilename: STREET DANCER.mp3
AudioLeadIn: 0
PreviewTime: -1
Countdown: 0
SampleSet: Normal
StackLeniency: 1
Mode: 0
LetterboxInBreaks: 1
SkinPreference:streamproject

[Editor]
DistanceSpacing: 0.8
BeatDivisor: 2
GridSize: 16

[Metadata]
Title:STREET DANCER
Artist:Silky F
Creator:Koko Ban
Version:Basic
Source:
Tags:

[Difficulty]
HPDrainRate:0
CircleSize:3
OverallDifficulty:0
ApproachRate:10
SliderMultiplier:2.6
SliderTickRate:4

[Events]
//Background and Video events
0,0,"wallpaper.jpg"
0,0,"playfield.png"
//Break Periods
//Storyboard Layer 0 (Background)
//Storyboard Layer 1 (Fail)
//Storyboard Layer 2 (Pass)
//Storyboard Layer 3 (Foreground)
//Storyboard Sound Samples
//Background Colour Transformations
3,100,0,0,0

[TimingPoints]
320,434.845629801421,4,1,0,100,1,0

[HitObjects]
160,336,3164,1,8
448,48,3599,1,8
160,48,4034,1,8
448,336,4469,1,8
256,144,4904,1,8
352,144,5338,1,8
256,240,5755,1,8
256,144,7060,1,0
448,336,7495,1,8
352,240,7930,1,8
160,48,8365,1,8
160,336,10122,1,8
448,48,10557,1,8
160,48,10992,1,8
448,336,11427,1,8
256,144,11862,1,8
352,144,12296,1,8
256,240,12713,1,8
256,144,14017,1,8
352,240,14452,1,8
160,48,14886,1,8
448,336,15321,1,8
160,144,17496,1,8
352,144,17931,1,8
256,240,18366,1,8
448,240,18801,1,8
256,144,19236,1,8
352,240,19671,1,8
448,144,20975,1,8
448,336,21410,1,8
256,240,21845,1,8
256,48,22280,1,8
160,144,22715,1,8
448,240,23149,1,8
256,336,23584,1,8
352,48,24019,1,8
160,240,26193,1,8
256,144,26628,1,8
352,240,27063,1,8
256,336,27497,1,8
352,48,28802,1,8
448,144,29237,1,8
352,240,29672,1,8
256,144,30106,1,8
160,144,31411,1,8
352,144,31846,1,8
256,240,32281,1,8
448,240,32716,1,8
256,144,33151,1,8
352,240,33586,1,8
448,144,34890,1,8
448,336,35325,1,8
256,240,35760,1,8
256,48,36195,1,8
160,144,36630,1,8
448,240,37064,1,8
256,336,37499,1,8
352,48,37934,1,8
352,48,40108,1,8
448,240,40561,1,8
256,336,40996,1,8
160,144,41430,1,8
256,48,42717,1,8
256,240,43152,1,8
352,144,43587,1,8
160,144,44021,1,8
352,336,45326,1,8
448,240,45761,1,8
256,240,46196,1,8
352,144,46631,1,8
160,144,47065,1,8
256,48,47500,1,8
160,48,47935,1,8
448,336,48805,1,8
352,240,49240,1,8
256,240,49674,1,8
352,144,50109,1,8
256,144,50544,1,8
160,48,50979,1,8
352,336,52284,1,8
448,240,52718,1,8
256,336,53153,1,8
448,144,53588,1,8
256,144,54023,1,8
160,144,54458,1,8
256,48,54893,1,8
160,144,57067,1,8
352,144,57502,1,8
256,240,57937,1,8
448,240,58371,1,8
448,48,58806,1,8
352,144,59024,1,8
256,240,59241,1,8
160,336,59459,1,8
256,336,59676,1,8
160,336,60564,1,8
448,48,60999,1,8
160,48,61434,1,8
448,336,61869,1,8
256,144,62304,1,8
352,144,62738,1,8
256,240,63155,1,8
256,144,64459,1,8
448,336,64894,1,8
352,240,65329,1,8
160,48,65764,1,8
160,336,67522,5,8
448,48,67957,1,8
160,48,68392,1,8
448,336,68827,1,8
256,144,69262,1,8
352,144,69696,1,8
256,240,70113,1,8
256,144,71417,1,8
352,240,71852,1,8
160,48,72286,1,8
448,336,72721,1,8
352,336,74896,1,8
448,240,75331,1,8
256,240,75766,1,8
352,144,76201,1,8
160,144,76635,1,8
256,48,77070,1,8
160,48,77505,1,8
448,336,78375,1,8
352,240,78810,1,8
256,240,79244,1,8
352,144,79679,1,8
256,144,80114,1,8
160,48,80549,5,8
352,336,81854,1,8
448,240,82288,1,8
256,336,82723,1,8
448,144,83158,1,8
256,144,83593,1,8
160,144,84028,1,8
256,48,84463,1,8
160,144,86637,1,8
352,144,87072,1,8
256,240,87507,1,8
448,240,87941,1,8
352,336,88811,1,8
448,240,89245,1,8
256,144,89680,1,8
256,240,90115,1,8
352,144,90550,1,8
160,48,90985,1,8
448,336,92289,1,8
352,240,92724,1,8
352,144,93159,1,8
256,240,93594,1,8
256,144,94029,1,8
160,48,94464,1,8
352,336,95768,1,8
448,240,96203,1,8
256,240,96638,1,8
352,144,97073,1,8
160,144,97507,1,8
256,48,97942,1,8
160,48,98160,1,8
448,48,100551,1,8
448,336,100986,1,8
160,336,101421,1,8
160,48,101856,1,8
352,144,102291,1,8
352,240,102726,1,8
256,240,103160,1,8
256,144,103595,1,8
160,48,104030,1,8
160,336,104465,1,8
448,336,104900,1,8
448,48,105335,1,8
352,144,105770,1,8
