osu file format v9

[General]
AudioFilename: STREET DANCER.mp3
AudioLeadIn: 0
PreviewTime: -1
Countdown: 0
SampleSet: Normal
StackLeniency: 1
Mode: 0
LetterboxInBreaks: 1
SkinPreference:streamproject

[Editor]
DistanceSpacing: 0.8
BeatDivisor: 2
GridSize: 16

[Metadata]
Title:STREET DANCER
Artist:Silky F
Creator:Koko Ban
Version:Advanced
Source:
Tags:

[Difficulty]
HPDrainRate:0
CircleSize:3
OverallDifficulty:0
ApproachRate:10
SliderMultiplier:2.6
SliderTickRate:4

[Events]
//Background and Video events
0,0,"wallpaper.jpg"
0,0,"playfield.png"
//Break Periods
//Storyboard Layer 0 (Background)
//Storyboard Layer 1 (Fail)
//Storyboard Layer 2 (Pass)
//Storyboard Layer 3 (Foreground)
//Storyboard Sound Samples
//Background Colour Transformations
3,100,0,0,0

[TimingPoints]
320,434.845629801421,4,1,0,100,1,0

[HitObjects]
160,48,1642,1,8
256,48,1859,1,8
256,144,2076,1,8
256,240,2294,1,8
352,240,2511,1,8
352,336,2729,1,8
256,336,2946,1,8
160,336,3164,1,8
448,48,3599,1,8
160,48,4034,1,8
448,336,4469,1,8
256,144,4904,1,8
352,144,5338,1,8
256,240,5556,1,8
352,240,5990,1,8
352,240,6860,1,8
160,48,7078,1,8
256,144,7295,1,8
448,336,7512,1,8
352,144,7730,1,8
160,336,7947,1,8
256,240,8165,1,8
448,48,8382,1,8
352,240,9469,1,8
352,336,9687,1,8
256,336,9904,1,8
160,336,10122,1,8
448,48,10557,1,8
160,48,10992,1,8
448,336,11427,1,8
256,144,11862,1,8
352,144,12296,1,8
256,240,12514,1,8
352,240,12948,1,8
352,240,13818,1,8
160,48,14036,1,8
256,144,14253,1,8
448,336,14470,1,8
352,144,14688,1,8
160,336,14905,1,8
256,240,15123,1,8
448,48,15340,1,8
256,144,17296,1,8
160,144,17514,1,8
352,144,17731,1,8
256,240,17949,1,8
448,240,18166,1,8
352,240,18601,1,8
256,144,18818,1,8
256,48,19253,1,8
352,336,19688,1,8
448,144,20775,1,8
448,240,21210,1,8
448,336,21428,1,8
160,240,21862,1,8
160,144,22080,1,8
160,48,22297,1,8
352,48,22732,1,8
448,240,23167,1,8
256,336,23602,1,8
160,144,24037,1,8
448,144,25993,1,8
256,144,26211,1,8
352,240,26428,1,8
160,240,26646,1,8
352,48,27081,1,8
256,336,27515,1,8
160,144,28820,1,8
448,240,29255,1,8
352,48,29690,1,8
256,336,30124,1,8
352,336,30342,1,8
256,144,31211,1,8
160,144,31429,1,8
352,144,31646,1,8
256,240,31864,1,8
448,240,32081,1,8
352,240,32299,1,8
256,336,32516,1,8
352,336,32733,1,8
448,336,32951,1,8
256,48,33386,1,8
352,48,34690,1,8
160,240,35125,1,8
256,240,35342,1,8
448,144,35777,1,8
256,48,36212,1,8
160,240,36647,1,8
352,336,37081,1,8
352,240,37299,1,8
256,144,37734,1,8
448,48,39908,1,8
448,144,40126,1,8
448,240,40561,1,8
256,336,40996,1,8
160,144,41430,1,8
352,240,42518,1,8
256,144,42735,1,8
160,240,42952,1,8
256,336,43170,1,8
352,48,43605,1,8
352,144,44039,1,8
256,144,45127,1,8
160,48,45344,1,8
352,240,45779,1,8
448,336,45996,1,8
352,336,46431,1,8
448,240,46649,1,8
256,144,47083,1,8
160,48,47301,1,8
160,144,47518,1,8
256,48,47736,1,8
256,144,48823,1,8
160,48,49258,1,8
352,240,49910,1,8
448,336,50127,1,8
448,240,50345,1,8
256,48,50780,1,8
160,144,50997,1,8
160,48,51215,1,8
352,240,52084,1,8
448,336,52302,1,8
352,336,52519,1,8
448,240,52736,1,8
256,48,53171,1,8
256,144,53389,1,8
160,144,53606,1,8
160,48,54041,1,8
256,144,54258,1,8
160,144,54476,1,8
256,48,54693,1,8
160,144,56433,1,8
352,144,56650,1,8
256,144,56867,1,8
448,144,57085,1,8
256,240,57520,1,8
352,240,57955,1,8
352,240,58172,1,8
448,48,58824,1,8
352,144,59042,1,8
256,240,59259,1,8
160,336,59477,1,8
256,336,59694,1,8
352,336,60129,1,8
256,336,60346,1,8
160,336,60564,1,8
448,48,60999,1,8
160,48,61434,1,8
448,336,61869,1,8
256,144,62304,1,8
352,144,62738,1,8
256,240,62956,1,8
352,240,63390,1,8
352,240,64260,1,8
160,48,64478,1,8
256,144,64695,1,8
448,336,64912,1,8
352,144,65130,1,8
160,336,65347,1,8
256,240,65565,1,8
448,48,65782,1,8
352,240,66869,1,8
352,336,67087,1,8
256,336,67304,1,8
160,336,67522,1,8
448,48,67957,1,8
160,48,68392,1,8
448,336,68827,1,8
256,144,69262,1,8
352,144,69696,1,8
256,240,69914,1,8
352,240,70348,1,8
352,240,71218,1,8
160,48,71436,1,8
256,144,71653,1,8
448,336,71870,1,8
352,144,72088,1,8
160,336,72305,1,8
256,240,72523,1,8
448,48,72740,1,8
256,144,74696,1,8
160,48,74913,1,8
352,240,75348,1,8
448,336,75565,1,8
352,336,76000,1,8
448,240,76218,1,8
256,144,76652,1,8
160,48,76870,1,8
160,144,77087,1,8
256,48,77305,1,8
256,144,78392,1,8
160,48,78827,1,8
352,240,79479,1,8
448,336,79696,1,8
448,240,79914,1,8
256,48,80349,1,8
160,144,80566,1,8
160,48,80784,1,8
352,240,81653,1,8
448,336,81871,1,8
352,336,82088,1,8
448,240,82305,1,8
256,48,82740,1,8
256,144,82958,1,8
160,144,83175,1,8
160,48,83610,1,8
256,144,83827,1,8
160,144,84045,1,8
256,48,84262,1,8
160,144,86002,1,8
352,144,86219,1,8
256,144,86436,1,8
448,144,86654,1,8
256,240,87089,1,8
352,240,87524,1,8
352,240,87741,1,8
256,336,88611,1,8
448,144,88829,1,8
352,336,89046,1,8
448,240,89263,1,8
448,336,89481,1,8
352,240,89916,1,8
256,144,90133,1,8
256,240,90351,1,8
352,144,90568,1,8
160,144,90785,1,8
256,48,91003,1,8
160,48,91220,1,8
448,240,92090,1,8
352,336,92307,1,8
448,336,92525,1,8
352,240,92742,1,8
256,240,93177,1,8
256,144,93394,1,8
352,144,93612,1,8
256,48,94047,1,8
160,144,94264,1,8
256,144,94482,1,8
160,48,94699,1,8
256,336,95569,1,8
448,144,95786,1,8
352,336,96004,1,8
448,240,96221,1,8
448,336,96438,1,8
352,240,96656,1,8
256,240,96873,1,8
352,144,97091,1,8
256,144,97308,1,8
256,48,97525,1,8
160,144,97743,1,8
160,48,97960,1,8
160,48,98178,1,8
256,144,99917,1,8
352,144,100135,1,8
256,240,100352,1,8
352,240,100569,1,8
160,336,101004,1,8
448,336,101439,1,8
448,240,101657,1,8
448,144,101874,1,8
448,48,102091,1,8
352,48,102309,1,8
256,48,102526,1,8
160,48,102744,1,8
160,144,102961,1,8
160,240,103178,1,8
160,336,103396,1,8
256,336,103613,1,8
352,336,103831,1,8
352,240,104048,1,8
352,144,104266,1,8
256,144,104483,1,8
256,240,104700,1,8
160,240,104918,1,8
160,144,105135,1,8
160,48,105353,1,8
256,48,105570,1,8
352,48,105788,1,8
