osu file format v14

[General]
AudioFilename: Anhedonia.mp3
AudioLeadIn: 0
PreviewTime: 44375
Countdown: 0
SampleSet: Soft
StackLeniency: 0.7
Mode: 3
LetterboxInBreaks: 0
SpecialStyle: 0
WidescreenStoryboard: 1

[Editor]
DistanceSpacing: 0.8
BeatDivisor: 4
GridSize: 32
TimelineZoom: 1.9

[Metadata]
Title:Anhedonia
TitleUnicode:Ανηεδονια
Artist:Silent Spica
ArtistUnicode:Silent Spica
Creator:Lieselotte
Version:Lv.5
Source:BMS
Tags:a_hisa bof2013 of fighters
BeatmapID:1069801
BeatmapSetID:502701

[Difficulty]
HPDrainRate:7
CircleSize:7
OverallDifficulty:6
ApproachRate:5
SliderMultiplier:1.4
SliderTickRate:1

[Events]
//Background and Video events
0,0,"BG.jpg",0,0
//Break Periods
//Storyboard Layer 0 (Background)
//Storyboard Layer 1 (Fail)
//Storyboard Layer 2 (Pass)
//Storyboard Layer 3 (Foreground)
//Storyboard Layer 4 (Overlay)
//Storyboard Sound Samples

[TimingPoints]
1559,666.666666666667,4,2,0,30,1,0
6913,666.666666666667,4,2,0,30,1,0
10913,-128.205128205128,4,2,0,30,0,0
11579,-149.253731343284,4,2,0,30,0,0
11877,333.333333333333,4,2,0,30,1,0
12210,-178.571428571429,4,2,0,30,0,0
12876,333.333333333333,4,2,0,30,1,0
108875,-200,4,2,0,30,0,0
130042,-263.157894736842,4,2,0,30,0,0
130292,-322.58064516129,4,2,0,30,0,0

[Colours]
Combo1 : 18,124,255
Combo2 : 0,202,0

[HitObjects]
329,192,12210,128,0,12876:0:0:0:0:
182,192,12876,1,0,0:0:0:0:
402,192,13209,1,0,0:0:0:0:
182,192,13709,1,0,0:0:0:0:
402,192,13875,1,0,0:0:0:0:
182,192,14209,1,0,0:0:0:0:
402,192,14542,1,0,0:0:0:0:
182,192,15042,1,0,0:0:0:0:
402,192,15209,1,0,0:0:0:0:
109,192,15542,1,0,0:0:0:0:
329,192,15875,1,0,0:0:0:0:
109,192,16375,1,0,0:0:0:0:
329,192,16542,1,0,0:0:0:0:
109,192,16875,1,0,0:0:0:0:
329,192,17209,1,0,0:0:0:0:
109,192,17709,1,0,0:0:0:0:
329,192,17875,1,0,0:0:0:0:
182,192,18209,1,0,0:0:0:0:
182,192,18542,1,0,0:0:0:0:
182,192,19042,1,0,0:0:0:0:
182,192,19375,1,0,0:0:0:0:
182,192,19709,1,0,0:0:0:0:
182,192,20042,1,0,0:0:0:0:
182,192,20209,1,0,0:0:0:0:
182,192,20542,1,0,0:0:0:0:
329,192,20875,1,0,0:0:0:0:
329,192,21209,1,0,0:0:0:0:
329,192,21709,1,0,0:0:0:0:
329,192,22042,1,0,0:0:0:0:
329,192,22375,1,0,0:0:0:0:
329,192,22709,1,0,0:0:0:0:
329,192,22875,128,0,23209:0:0:0:0:
256,192,23542,1,0,0:0:0:0:
182,192,23709,1,0,0:0:0:0:
109,192,23875,1,0,0:0:0:0:
36,192,24042,1,0,0:0:0:0:
256,192,24209,1,0,0:0:0:0:
329,192,24375,1,0,0:0:0:0:
402,192,24542,1,0,0:0:0:0:
475,192,24709,1,0,0:0:0:0:
256,192,24875,1,0,0:0:0:0:
182,192,25042,1,0,0:0:0:0:
109,192,25209,1,0,0:0:0:0:
36,192,25375,1,0,0:0:0:0:
256,192,25542,1,0,0:0:0:0:
329,192,25709,1,0,0:0:0:0:
402,192,25875,1,0,0:0:0:0:
475,192,26042,1,0,0:0:0:0:
256,192,26209,1,0,0:0:0:0:
182,192,26375,1,0,0:0:0:0:
109,192,26542,1,0,0:0:0:0:
36,192,26709,1,0,0:0:0:0:
256,192,26875,1,0,0:0:0:0:
329,192,27042,1,0,0:0:0:0:
402,192,27209,1,0,0:0:0:0:
475,192,27375,1,0,0:0:0:0:
256,192,27542,1,0,0:0:0:0:
182,192,27709,1,0,0:0:0:0:
109,192,27875,1,0,0:0:0:0:
36,192,28042,1,0,0:0:0:0:
475,192,28209,1,0,0:0:0:0:
402,192,28375,1,0,0:0:0:0:
329,192,28542,1,0,0:0:0:0:
256,192,28709,1,0,0:0:0:0:
182,192,28875,1,0,0:0:0:0:
109,192,29042,1,0,0:0:0:0:
109,192,29209,1,0,0:0:0:0:
329,192,29375,1,0,0:0:0:0:
402,192,29542,1,0,0:0:0:0:
402,192,29709,1,0,0:0:0:0:
182,192,29875,1,0,0:0:0:0:
329,192,30042,1,0,0:0:0:0:
36,192,30209,1,0,0:0:0:0:
182,192,30375,1,0,0:0:0:0:
329,192,30542,1,0,0:0:0:0:
475,192,30709,1,0,0:0:0:0:
182,192,30875,1,0,0:0:0:0:
109,192,31042,1,0,0:0:0:0:
329,192,31209,1,0,0:0:0:0:
402,192,31375,1,0,0:0:0:0:
182,192,31542,1,0,0:0:0:0:
109,192,31709,1,0,0:0:0:0:
329,192,31875,1,0,0:0:0:0:
329,192,32042,1,0,0:0:0:0:
402,192,32209,1,0,0:0:0:0:
182,192,32375,1,0,0:0:0:0:
329,192,32542,1,0,0:0:0:0:
182,192,32709,1,0,0:0:0:0:
329,192,32875,1,0,0:0:0:0:
402,192,33042,1,0,0:0:0:0:
475,192,33209,1,0,0:0:0:0:
402,192,33375,1,0,0:0:0:0:
182,192,33542,1,0,0:0:0:0:
109,192,33709,1,0,0:0:0:0:
182,192,33875,1,0,0:0:0:0:
109,192,34042,1,0,0:0:0:0:
329,192,34209,128,0,34542:0:0:0:0:
475,192,34542,1,0,0:0:0:0:
182,192,34709,128,0,35042:0:0:0:0:
329,192,35042,1,0,0:0:0:0:
36,192,35209,128,0,36709:0:0:0:0:
329,192,36875,128,0,37209:0:0:0:0:
475,192,37209,1,0,0:0:0:0:
182,192,37375,128,0,37709:0:0:0:0:
329,192,37709,1,0,0:0:0:0:
475,192,37875,128,0,39375:0:0:0:0:
329,192,39542,128,0,39875:0:0:0:0:
475,192,39875,1,0,0:0:0:0:
182,192,40042,128,0,40375:0:0:0:0:
329,192,40375,1,0,0:0:0:0:
36,192,40542,128,0,42209:0:0:0:0:
329,192,42209,1,0,0:0:0:0:
475,192,43875,1,0,0:0:0:0:
109,192,44209,1,0,0:0:0:0:
109,192,44375,1,0,0:0:0:0:
402,192,44542,1,0,0:0:0:0:
402,192,44709,1,0,0:0:0:0:
182,192,44875,1,0,0:0:0:0:
475,192,45209,1,0,0:0:0:0:
329,192,45375,1,0,0:0:0:0:
475,192,45709,1,0,0:0:0:0:
329,192,45875,1,0,0:0:0:0:
256,192,46209,1,0,0:0:0:0:
36,192,46542,1,0,0:0:0:0:
182,192,46709,1,0,0:0:0:0:
36,192,47042,1,0,0:0:0:0:
182,192,47209,1,0,0:0:0:0:
256,192,47542,1,0,0:0:0:0:
475,192,47875,1,0,0:0:0:0:
329,192,48042,1,0,0:0:0:0:
182,192,48209,1,0,0:0:0:0:
109,192,48292,1,0,0:0:0:0:
36,192,48375,1,0,0:0:0:0:
329,192,48709,1,0,0:0:0:0:
402,192,48792,1,0,0:0:0:0:
182,192,48875,1,0,0:0:0:0:
475,192,49209,1,0,0:0:0:0:
182,192,49375,1,0,0:0:0:0:
475,192,49709,1,0,0:0:0:0:
256,192,50209,1,0,0:0:0:0:
402,192,50542,1,0,0:0:0:0:
109,192,50709,1,0,0:0:0:0:
402,192,51042,1,0,0:0:0:0:
256,192,51542,1,0,0:0:0:0:
475,192,51875,1,0,0:0:0:0:
36,192,52042,1,0,0:0:0:0:
475,192,52375,1,0,0:0:0:0:
36,192,52542,1,0,0:0:0:0:
329,192,52875,1,0,0:0:0:0:
182,192,53209,128,0,54209:0:0:0:0:
329,192,54209,1,0,0:0:0:0:
182,192,54709,1,0,0:0:0:0:
182,192,54875,1,0,0:0:0:0:
329,192,55125,1,0,0:0:0:0:
402,192,55375,1,0,0:0:0:0:
109,192,55542,1,0,0:0:0:0:
182,192,55792,1,0,0:0:0:0:
109,192,56042,1,0,0:0:0:0:
475,192,56209,1,0,0:0:0:0:
329,192,56459,1,0,0:0:0:0:
402,192,56709,1,0,0:0:0:0:
182,192,56875,1,0,0:0:0:0:
475,192,57125,1,0,0:0:0:0:
402,192,57375,1,0,0:0:0:0:
329,192,57542,1,0,0:0:0:0:
329,192,57709,1,0,0:0:0:0:
182,192,57875,1,0,0:0:0:0:
182,192,58042,1,0,0:0:0:0:
109,192,58209,1,0,0:0:0:0:
182,192,58709,1,0,0:0:0:0:
109,192,58792,1,0,0:0:0:0:
36,192,58875,1,0,0:0:0:0:
329,192,59125,1,0,0:0:0:0:
402,192,59375,1,0,0:0:0:0:
475,192,59542,1,0,0:0:0:0:
329,192,59875,1,0,0:0:0:0:
182,192,60209,1,0,0:0:0:0:
329,192,60542,1,0,0:0:0:0:
256,192,60875,1,0,0:0:0:0:
402,192,61209,1,0,0:0:0:0:
109,192,61375,1,0,0:0:0:0:
402,192,61709,1,0,0:0:0:0:
402,192,62042,1,0,0:0:0:0:
182,192,62209,1,0,0:0:0:0:
329,192,62542,1,0,0:0:0:0:
182,192,62709,1,0,0:0:0:0:
329,192,63042,1,0,0:0:0:0:
182,192,63209,1,0,0:0:0:0:
36,192,63542,1,0,0:0:0:0:
182,192,63792,1,0,0:0:0:0:
329,192,64042,1,0,0:0:0:0:
109,192,64209,1,0,0:0:0:0:
256,192,64459,1,0,0:0:0:0:
402,192,64709,1,0,0:0:0:0:
475,192,64875,128,0,66209:0:0:0:0:
182,192,66209,1,0,0:0:0:0:
109,192,66375,1,0,0:0:0:0:
36,192,66542,1,0,0:0:0:0:
109,192,66709,1,0,0:0:0:0:
329,192,66875,1,0,0:0:0:0:
402,192,67042,1,0,0:0:0:0:
475,192,67209,1,0,0:0:0:0:
402,192,67375,1,0,0:0:0:0:
182,192,68042,1,0,0:0:0:0:
329,192,68209,1,0,0:0:0:0:
402,192,68375,1,0,0:0:0:0:
475,192,68542,1,0,0:0:0:0:
402,192,68709,1,0,0:0:0:0:
182,192,68875,1,0,0:0:0:0:
109,192,69042,1,0,0:0:0:0:
36,192,69209,1,0,0:0:0:0:
109,192,69375,1,0,0:0:0:0:
329,192,69542,1,0,0:0:0:0:
402,192,69709,1,0,0:0:0:0:
475,192,69875,1,0,0:0:0:0:
182,192,70709,1,0,0:0:0:0:
329,192,70875,1,0,0:0:0:0:
402,192,71042,1,0,0:0:0:0:
475,192,71209,1,0,0:0:0:0:
329,192,71375,1,0,0:0:0:0:
109,192,71542,1,0,0:0:0:0:
182,192,71709,1,0,0:0:0:0:
36,192,72042,1,0,0:0:0:0:
182,192,72375,1,0,0:0:0:0:
329,192,72542,1,0,0:0:0:0:
182,192,72709,1,0,0:0:0:0:
475,192,72875,1,0,0:0:0:0:
402,192,73042,1,0,0:0:0:0:
329,192,73209,1,0,0:0:0:0:
402,192,73375,1,0,0:0:0:0:
182,192,73542,1,0,0:0:0:0:
109,192,73709,1,0,0:0:0:0:
182,192,73875,1,0,0:0:0:0:
109,192,74042,1,0,0:0:0:0:
475,192,74209,1,0,0:0:0:0:
402,192,74375,1,0,0:0:0:0:
329,192,74542,1,0,0:0:0:0:
402,192,74709,1,0,0:0:0:0:
182,192,75042,1,0,0:0:0:0:
109,192,75209,1,0,0:0:0:0:
182,192,75375,1,0,0:0:0:0:
475,192,75542,1,0,0:0:0:0:
402,192,75709,1,0,0:0:0:0:
329,192,75875,1,0,0:0:0:0:
256,192,76042,1,0,0:0:0:0:
36,192,76209,1,0,0:0:0:0:
109,192,76375,1,0,0:0:0:0:
182,192,76542,1,0,0:0:0:0:
256,192,76709,1,0,0:0:0:0:
329,192,76875,128,0,78209:0:0:0:0:
182,192,78209,128,0,78875:0:0:0:0:
475,192,78875,128,0,79542:0:0:0:0:
329,192,79542,128,0,80209:0:0:0:0:
182,192,80209,128,0,80875:0:0:0:0:
36,192,80875,128,0,81542:0:0:0:0:
182,192,81542,128,0,82209:0:0:0:0:
329,192,82209,128,0,84875:0:0:0:0:
109,192,84875,1,0,0:0:0:0:
109,192,85542,1,0,0:0:0:0:
109,192,86209,1,0,0:0:0:0:
109,192,86875,1,0,0:0:0:0:
329,192,87209,1,0,0:0:0:0:
329,192,87542,128,0,88209:0:0:0:0:
402,192,88209,1,0,0:0:0:0:
329,192,88542,1,0,0:0:0:0:
182,192,88875,1,0,0:0:0:0:
329,192,89125,1,0,0:0:0:0:
475,192,89375,1,0,0:0:0:0:
475,192,89542,128,0,90042:0:0:0:0:
475,192,90209,1,0,0:0:0:0:
329,192,90459,1,0,0:0:0:0:
182,192,90709,1,0,0:0:0:0:
36,192,90875,1,0,0:0:0:0:
475,192,91375,1,0,0:0:0:0:
475,192,91542,1,0,0:0:0:0:
329,192,91792,1,0,0:0:0:0:
182,192,92042,1,0,0:0:0:0:
402,192,92209,1,0,0:0:0:0:
256,192,92459,1,0,0:0:0:0:
109,192,92709,1,0,0:0:0:0:
329,192,92875,128,0,93542:0:0:0:0:
402,192,93542,1,0,0:0:0:0:
329,192,93875,1,0,0:0:0:0:
109,192,94209,1,0,0:0:0:0:
182,192,94375,1,0,0:0:0:0:
109,192,94542,1,0,0:0:0:0:
36,192,94709,128,0,95042:0:0:0:0:
329,192,95042,1,0,0:0:0:0:
402,192,95209,1,0,0:0:0:0:
475,192,95375,1,0,0:0:0:0:
182,192,95542,128,0,97542:0:0:0:0:
329,192,97875,1,0,0:0:0:0:
329,192,98209,128,0,98875:0:0:0:0:
475,192,98875,128,0,99209:0:0:0:0:
329,192,99209,128,0,99542:0:0:0:0:
182,192,99542,128,0,99792:0:0:0:0:
329,192,99792,128,0,100042:0:0:0:0:
182,192,100042,1,0,0:0:0:0:
109,192,100209,128,0,100709:0:0:0:0:
329,192,100709,1,0,0:0:0:0:
475,192,100875,128,0,101125:0:0:0:0:
329,192,101125,128,0,101375:0:0:0:0:
182,192,101375,128,0,101542:0:0:0:0:
36,192,101542,128,0,101875:0:0:0:0:
329,192,102042,1,0,0:0:0:0:
402,192,102125,1,0,0:0:0:0:
475,192,102209,128,0,102459:0:0:0:0:
402,192,102459,128,0,102709:0:0:0:0:
329,192,102709,128,0,102875:0:0:0:0:
36,192,102875,128,0,103125:0:0:0:0:
109,192,103125,128,0,103375:0:0:0:0:
182,192,103375,128,0,103542:0:0:0:0:
329,192,103542,128,0,104209:0:0:0:0:
182,192,104209,128,0,104542:0:0:0:0:
475,192,104542,128,0,104875:0:0:0:0:
329,192,104875,1,0,0:0:0:0:
402,192,105042,1,0,0:0:0:0:
329,192,105209,1,0,0:0:0:0:
182,192,105375,128,0,105709:0:0:0:0:
36,192,105709,1,0,0:0:0:0:
402,192,105875,1,0,0:0:0:0:
475,192,106042,1,0,0:0:0:0:
329,192,106209,128,0,108542:0:0:0:0:
256,192,108875,1,0,0:0:0:0:
329,192,108875,1,0,0:0:0:0:
402,192,108875,1,0,0:0:0:0:
182,192,108875,1,0,0:0:0:0:
109,192,108875,1,0,0:0:0:0:
402,192,109542,1,0,0:0:0:0:
182,192,110209,128,0,110709:0:0:0:0:
329,192,110709,128,0,111209:0:0:0:0:
182,192,111209,128,0,111542:0:0:0:0:
36,192,111542,128,0,112875:0:0:0:0:
109,192,112875,1,0,0:0:0:0:
182,192,113209,1,0,0:0:0:0:
256,192,113542,1,0,0:0:0:0:
329,192,113875,1,0,0:0:0:0:
402,192,114209,128,0,115542:0:0:0:0:
182,192,115542,1,0,0:0:0:0:
475,192,116042,1,0,0:0:0:0:
182,192,116542,1,0,0:0:0:0:
329,192,116875,128,0,118875:0:0:0:0:
182,192,119542,1,0,0:0:0:0:
109,192,119542,1,0,0:0:0:0:
36,192,119542,1,0,0:0:0:0:
475,192,119542,128,0,120875:0:0:0:0:
402,192,120875,128,0,122209:0:0:0:0:
109,192,122209,128,0,122875:0:0:0:0:
182,192,122875,128,0,124209:0:0:0:0:
329,192,124209,128,0,124875:0:0:0:0:
402,192,124875,128,0,126209:0:0:0:0:
475,192,126209,1,0,0:0:0:0:
329,192,126709,1,0,0:0:0:0:
182,192,127209,1,0,0:0:0:0:
109,192,127542,128,0,130542:0:0:0:0:
329,192,130875,1,0,0:0:0:0:
402,192,130875,1,0,0:0:0:0:
