osu file format v14

[General]
AudioFilename: Anhedonia.mp3
AudioLeadIn: 0
PreviewTime: 44375
Countdown: 0
SampleSet: Soft
StackLeniency: 0.7
Mode: 3
LetterboxInBreaks: 0
SpecialStyle: 0
WidescreenStoryboard: 1

[Editor]
DistanceSpacing: 0.8
BeatDivisor: 4
GridSize: 32
TimelineZoom: 1.8

[Metadata]
Title:Anhedonia
TitleUnicode:Ανηεδονια
Artist:Silent Spica
ArtistUnicode:Silent Spica
Creator:Lieselotte
Version:Lv.13
Source:BMS
Tags:a_hisa bof2013 of fighters
BeatmapID:1069798
BeatmapSetID:502701

[Difficulty]
HPDrainRate:7
CircleSize:7
OverallDifficulty:7
ApproachRate:5
SliderMultiplier:1.4
SliderTickRate:1

[Events]
//Background and Video events
0,0,"BG.jpg",0,0
//Break Periods
//Storyboard Layer 0 (Background)
//Storyboard Layer 1 (Fail)
//Storyboard Layer 2 (Pass)
//Storyboard Layer 3 (Foreground)
//Storyboard Layer 4 (Overlay)
//Storyboard Sound Samples

[TimingPoints]
1559,666.666666666667,4,2,0,30,1,0
6913,666.666666666667,4,2,0,30,1,0
10913,-128.205128205128,4,2,0,30,0,0
11579,-149.253731343284,4,2,0,30,0,0
11877,333.333333333333,4,2,0,30,1,0
12210,-178.571428571429,4,2,0,30,0,0
12876,333.333333333333,4,2,0,30,1,0
108875,-133.333333333333,4,2,0,30,0,0
119542,-200,4,2,0,30,0,0
130042,-263.157894736842,4,2,0,30,0,0
130292,-322.58064516129,4,2,0,30,0,0

[Colours]
Combo1 : 18,124,255
Combo2 : 0,202,0

[HitObjects]
475,192,1559,128,0,2892:0:0:0:0:
329,192,2892,128,0,3892:0:0:0:0:
182,192,3559,128,0,4225:0:0:0:0:
402,192,4225,128,0,5559:0:0:0:0:
256,192,5559,128,0,6559:0:0:0:0:
109,192,6225,128,0,6892:0:0:0:0:
36,192,6892,128,0,7579:0:0:0:0:
182,192,7579,128,0,8246:0:0:0:0:
329,192,8246,128,0,8913:0:0:0:0:
475,192,8913,128,0,9579:0:0:0:0:
182,192,9579,128,0,10913:0:0:0:0:
36,192,10579,128,0,10913:0:0:0:0:
329,192,10913,128,0,12876:0:0:0:0:
475,192,11579,128,0,12876:0:0:0:0:
109,192,11877,128,0,12876:0:0:0:0:
182,192,12876,1,0,0:0:0:0:
182,192,13209,1,0,0:0:0:0:
182,192,13709,1,0,0:0:0:0:
182,192,14042,1,0,0:0:0:0:
182,192,14375,1,0,0:0:0:0:
182,192,14709,1,0,0:0:0:0:
36,192,14875,1,0,0:0:0:0:
109,192,14959,1,0,0:0:0:0:
182,192,15042,1,0,0:0:0:0:
182,192,15209,128,0,15542:0:0:0:0:
329,192,15542,1,0,0:0:0:0:
329,192,15875,1,0,0:0:0:0:
329,192,16375,1,0,0:0:0:0:
329,192,16709,1,0,0:0:0:0:
329,192,17042,1,0,0:0:0:0:
329,192,17375,1,0,0:0:0:0:
36,192,17542,1,0,0:0:0:0:
109,192,17625,1,0,0:0:0:0:
182,192,17709,1,0,0:0:0:0:
256,192,17792,1,0,0:0:0:0:
329,192,17875,128,0,18209:0:0:0:0:
182,192,18209,1,0,0:0:0:0:
182,192,18542,1,0,0:0:0:0:
36,192,18542,1,0,0:0:0:0:
182,192,19042,1,0,0:0:0:0:
182,192,19375,1,0,0:0:0:0:
182,192,19709,1,0,0:0:0:0:
182,192,20042,1,0,0:0:0:0:
36,192,20209,1,0,0:0:0:0:
109,192,20292,1,0,0:0:0:0:
182,192,20375,1,0,0:0:0:0:
182,192,20542,128,0,20875:0:0:0:0:
329,192,20875,1,0,0:0:0:0:
329,192,21209,1,0,0:0:0:0:
475,192,21209,1,0,0:0:0:0:
329,192,21709,1,0,0:0:0:0:
329,192,22042,1,0,0:0:0:0:
329,192,22375,1,0,0:0:0:0:
329,192,22709,1,0,0:0:0:0:
36,192,22875,1,0,0:0:0:0:
109,192,22959,1,0,0:0:0:0:
182,192,23042,1,0,0:0:0:0:
256,192,23125,1,0,0:0:0:0:
329,192,23209,128,0,23542:0:0:0:0:
182,192,23542,128,0,23709:0:0:0:0:
36,192,23709,1,0,0:0:0:0:
109,192,23875,1,0,0:0:0:0:
182,192,24042,1,0,0:0:0:0:
475,192,24209,128,0,24375:0:0:0:0:
329,192,24375,1,0,0:0:0:0:
402,192,24542,1,0,0:0:0:0:
475,192,24709,1,0,0:0:0:0:
182,192,24875,128,0,25042:0:0:0:0:
36,192,25042,1,0,0:0:0:0:
109,192,25209,1,0,0:0:0:0:
182,192,25375,1,0,0:0:0:0:
475,192,25542,128,0,25709:0:0:0:0:
329,192,25709,1,0,0:0:0:0:
402,192,25875,1,0,0:0:0:0:
475,192,26042,1,0,0:0:0:0:
182,192,26209,128,0,26375:0:0:0:0:
36,192,26375,1,0,0:0:0:0:
109,192,26542,1,0,0:0:0:0:
182,192,26709,1,0,0:0:0:0:
475,192,26875,128,0,27042:0:0:0:0:
329,192,27042,1,0,0:0:0:0:
402,192,27209,1,0,0:0:0:0:
475,192,27375,1,0,0:0:0:0:
182,192,27542,128,0,27709:0:0:0:0:
36,192,27709,1,0,0:0:0:0:
109,192,27875,1,0,0:0:0:0:
182,192,28042,1,0,0:0:0:0:
475,192,28209,128,0,28375:0:0:0:0:
402,192,28375,128,0,28542:0:0:0:0:
329,192,28542,128,0,28709:0:0:0:0:
256,192,28709,128,0,28875:0:0:0:0:
109,192,28875,128,0,29042:0:0:0:0:
256,192,29042,128,0,29209:0:0:0:0:
402,192,29209,128,0,29375:0:0:0:0:
109,192,29375,128,0,29542:0:0:0:0:
256,192,29542,128,0,29709:0:0:0:0:
402,192,29709,128,0,29875:0:0:0:0:
109,192,29875,128,0,30042:0:0:0:0:
402,192,30042,128,0,30209:0:0:0:0:
36,192,30209,128,0,30375:0:0:0:0:
182,192,30375,128,0,30542:0:0:0:0:
329,192,30542,128,0,30709:0:0:0:0:
475,192,30709,128,0,30875:0:0:0:0:
182,192,30875,128,0,31042:0:0:0:0:
36,192,31042,128,0,31209:0:0:0:0:
329,192,31209,128,0,31375:0:0:0:0:
475,192,31375,128,0,31542:0:0:0:0:
256,192,31542,128,0,31709:0:0:0:0:
36,192,31709,128,0,31875:0:0:0:0:
182,192,31875,128,0,32042:0:0:0:0:
329,192,32042,128,0,32209:0:0:0:0:
475,192,32209,128,0,32375:0:0:0:0:
109,192,32375,128,0,32542:0:0:0:0:
329,192,32542,128,0,32709:0:0:0:0:
182,192,32709,128,0,32875:0:0:0:0:
329,192,32875,128,0,33042:0:0:0:0:
402,192,33042,128,0,33209:0:0:0:0:
475,192,33209,128,0,33375:0:0:0:0:
329,192,33375,128,0,33542:0:0:0:0:
182,192,33542,128,0,33709:0:0:0:0:
36,192,33709,128,0,33875:0:0:0:0:
182,192,33875,128,0,34042:0:0:0:0:
36,192,34042,128,0,34209:0:0:0:0:
329,192,34209,128,0,34542:0:0:0:0:
475,192,34542,1,0,0:0:0:0:
36,192,34542,1,0,0:0:0:0:
182,192,34709,128,0,35042:0:0:0:0:
329,192,35042,1,0,0:0:0:0:
402,192,35042,1,0,0:0:0:0:
36,192,35209,128,0,36709:0:0:0:0:
329,192,35542,1,0,0:0:0:0:
182,192,35709,1,0,0:0:0:0:
256,192,35875,1,0,0:0:0:0:
329,192,36042,1,0,0:0:0:0:
402,192,36209,1,0,0:0:0:0:
329,192,36375,1,0,0:0:0:0:
256,192,36542,1,0,0:0:0:0:
182,192,36709,1,0,0:0:0:0:
329,192,36875,128,0,37209:0:0:0:0:
475,192,37209,1,0,0:0:0:0:
36,192,37209,1,0,0:0:0:0:
182,192,37375,128,0,37709:0:0:0:0:
329,192,37709,1,0,0:0:0:0:
402,192,37709,1,0,0:0:0:0:
475,192,37875,128,0,39375:0:0:0:0:
329,192,38209,1,0,0:0:0:0:
109,192,38375,1,0,0:0:0:0:
182,192,38542,1,0,0:0:0:0:
256,192,38709,1,0,0:0:0:0:
329,192,38875,1,0,0:0:0:0:
256,192,39042,1,0,0:0:0:0:
182,192,39209,1,0,0:0:0:0:
109,192,39375,1,0,0:0:0:0:
329,192,39542,128,0,39875:0:0:0:0:
475,192,39875,1,0,0:0:0:0:
36,192,39875,1,0,0:0:0:0:
182,192,40042,128,0,40375:0:0:0:0:
329,192,40375,1,0,0:0:0:0:
402,192,40375,1,0,0:0:0:0:
36,192,40542,128,0,42042:0:0:0:0:
329,192,40875,1,0,0:0:0:0:
182,192,41042,1,0,0:0:0:0:
256,192,41209,1,0,0:0:0:0:
329,192,41375,1,0,0:0:0:0:
402,192,41542,1,0,0:0:0:0:
329,192,41709,1,0,0:0:0:0:
256,192,41875,1,0,0:0:0:0:
182,192,42042,1,0,0:0:0:0:
329,192,42209,1,0,0:0:0:0:
402,192,42209,1,0,0:0:0:0:
182,192,42709,1,0,0:0:0:0:
36,192,42709,1,0,0:0:0:0:
329,192,43209,1,0,0:0:0:0:
475,192,43209,1,0,0:0:0:0:
402,192,43875,1,0,0:0:0:0:
329,192,43959,1,0,0:0:0:0:
402,192,44042,1,0,0:0:0:0:
182,192,44209,1,0,0:0:0:0:
36,192,44209,1,0,0:0:0:0:
256,192,44375,1,0,0:0:0:0:
329,192,44542,1,0,0:0:0:0:
402,192,44709,1,0,0:0:0:0:
475,192,44875,1,0,0:0:0:0:
36,192,44875,1,0,0:0:0:0:
402,192,45042,1,0,0:0:0:0:
329,192,45125,1,0,0:0:0:0:
256,192,45209,1,0,0:0:0:0:
182,192,45292,1,0,0:0:0:0:
109,192,45375,1,0,0:0:0:0:
36,192,45459,1,0,0:0:0:0:
182,192,45542,1,0,0:0:0:0:
329,192,45709,1,0,0:0:0:0:
475,192,45875,1,0,0:0:0:0:
256,192,46042,1,0,0:0:0:0:
402,192,46209,1,0,0:0:0:0:
475,192,46292,1,0,0:0:0:0:
402,192,46375,1,0,0:0:0:0:
329,192,46459,1,0,0:0:0:0:
256,192,46542,1,0,0:0:0:0:
182,192,46625,1,0,0:0:0:0:
109,192,46709,1,0,0:0:0:0:
36,192,46792,1,0,0:0:0:0:
109,192,46875,1,0,0:0:0:0:
182,192,46959,1,0,0:0:0:0:
256,192,47042,1,0,0:0:0:0:
329,192,47125,1,0,0:0:0:0:
182,192,47209,1,0,0:0:0:0:
256,192,47292,1,0,0:0:0:0:
329,192,47375,1,0,0:0:0:0:
402,192,47459,1,0,0:0:0:0:
182,192,47542,1,0,0:0:0:0:
109,192,47625,1,0,0:0:0:0:
182,192,47709,1,0,0:0:0:0:
256,192,47792,1,0,0:0:0:0:
329,192,47875,1,0,0:0:0:0:
182,192,48042,1,0,0:0:0:0:
109,192,48209,1,0,0:0:0:0:
182,192,48375,1,0,0:0:0:0:
256,192,48542,1,0,0:0:0:0:
329,192,48709,1,0,0:0:0:0:
402,192,48875,1,0,0:0:0:0:
475,192,49042,1,0,0:0:0:0:
402,192,49125,1,0,0:0:0:0:
329,192,49209,1,0,0:0:0:0:
256,192,49292,1,0,0:0:0:0:
182,192,49375,1,0,0:0:0:0:
109,192,49459,1,0,0:0:0:0:
36,192,49542,1,0,0:0:0:0:
329,192,49709,1,0,0:0:0:0:
402,192,49875,1,0,0:0:0:0:
475,192,50042,1,0,0:0:0:0:
402,192,50209,1,0,0:0:0:0:
256,192,50209,1,0,0:0:0:0:
182,192,50375,1,0,0:0:0:0:
329,192,50459,1,0,0:0:0:0:
109,192,50625,1,0,0:0:0:0:
402,192,50709,1,0,0:0:0:0:
475,192,50875,1,0,0:0:0:0:
36,192,50875,1,0,0:0:0:0:
475,192,51375,1,0,0:0:0:0:
402,192,51459,1,0,0:0:0:0:
329,192,51542,1,0,0:0:0:0:
256,192,51625,1,0,0:0:0:0:
182,192,51709,1,0,0:0:0:0:
109,192,51792,1,0,0:0:0:0:
36,192,51875,1,0,0:0:0:0:
109,192,51959,1,0,0:0:0:0:
182,192,52042,1,0,0:0:0:0:
256,192,52125,1,0,0:0:0:0:
329,192,52209,1,0,0:0:0:0:
182,192,52375,1,0,0:0:0:0:
329,192,52459,1,0,0:0:0:0:
109,192,52625,1,0,0:0:0:0:
402,192,52709,1,0,0:0:0:0:
475,192,52875,1,0,0:0:0:0:
36,192,52875,1,0,0:0:0:0:
36,192,53209,1,0,0:0:0:0:
109,192,53292,1,0,0:0:0:0:
182,192,53375,1,0,0:0:0:0:
256,192,53459,1,0,0:0:0:0:
109,192,53542,1,0,0:0:0:0:
182,192,53625,1,0,0:0:0:0:
256,192,53709,1,0,0:0:0:0:
329,192,53792,1,0,0:0:0:0:
182,192,53875,1,0,0:0:0:0:
256,192,53959,1,0,0:0:0:0:
329,192,54042,1,0,0:0:0:0:
402,192,54125,1,0,0:0:0:0:
475,192,54209,1,0,0:0:0:0:
329,192,54709,1,0,0:0:0:0:
329,192,54792,1,0,0:0:0:0:
329,192,54875,1,0,0:0:0:0:
402,192,55125,1,0,0:0:0:0:
475,192,55375,1,0,0:0:0:0:
182,192,55542,1,0,0:0:0:0:
36,192,55709,1,0,0:0:0:0:
109,192,55792,1,0,0:0:0:0:
256,192,55959,1,0,0:0:0:0:
329,192,56042,1,0,0:0:0:0:
475,192,56209,1,0,0:0:0:0:
109,192,56375,1,0,0:0:0:0:
182,192,56459,1,0,0:0:0:0:
329,192,56625,1,0,0:0:0:0:
402,192,56709,1,0,0:0:0:0:
36,192,56875,128,0,57125:0:0:0:0:
475,192,57125,128,0,57375:0:0:0:0:
402,192,57375,1,0,0:0:0:0:
329,192,57542,1,0,0:0:0:0:
256,192,57709,1,0,0:0:0:0:
182,192,57875,1,0,0:0:0:0:
109,192,58042,1,0,0:0:0:0:
36,192,58209,128,0,58625:0:0:0:0:
256,192,58375,1,0,0:0:0:0:
329,192,58459,1,0,0:0:0:0:
402,192,58542,1,0,0:0:0:0:
475,192,58625,1,0,0:0:0:0:
182,192,58709,1,0,0:0:0:0:
109,192,58792,1,0,0:0:0:0:
36,192,58875,1,0,0:0:0:0:
182,192,59125,1,0,0:0:0:0:
329,192,59375,1,0,0:0:0:0:
475,192,59542,128,0,59875:0:0:0:0:
329,192,59875,128,0,60209:0:0:0:0:
182,192,60209,128,0,60542:0:0:0:0:
329,192,60542,128,0,60875:0:0:0:0:
475,192,60875,1,0,0:0:0:0:
182,192,60875,1,0,0:0:0:0:
36,192,60875,1,0,0:0:0:0:
109,192,61209,1,0,0:0:0:0:
182,192,61292,1,0,0:0:0:0:
256,192,61375,1,0,0:0:0:0:
329,192,61459,1,0,0:0:0:0:
402,192,61542,1,0,0:0:0:0:
329,192,61792,1,0,0:0:0:0:
256,192,62042,1,0,0:0:0:0:
182,192,62209,1,0,0:0:0:0:
256,192,62292,1,0,0:0:0:0:
329,192,62375,1,0,0:0:0:0:
402,192,62459,1,0,0:0:0:0:
329,192,62542,1,0,0:0:0:0:
256,192,62625,1,0,0:0:0:0:
182,192,62709,1,0,0:0:0:0:
109,192,62792,1,0,0:0:0:0:
182,192,62875,1,0,0:0:0:0:
256,192,62959,1,0,0:0:0:0:
329,192,63042,1,0,0:0:0:0:
402,192,63125,1,0,0:0:0:0:
475,192,63209,1,0,0:0:0:0:
329,192,63375,1,0,0:0:0:0:
256,192,63542,1,0,0:0:0:0:
109,192,63542,1,0,0:0:0:0:
36,192,63709,1,0,0:0:0:0:
182,192,63792,1,0,0:0:0:0:
329,192,63959,1,0,0:0:0:0:
475,192,64042,1,0,0:0:0:0:
256,192,64209,1,0,0:0:0:0:
182,192,64375,1,0,0:0:0:0:
329,192,64459,1,0,0:0:0:0:
109,192,64709,1,0,0:0:0:0:
402,192,64792,1,0,0:0:0:0:
475,192,64875,1,0,0:0:0:0:
36,192,64875,1,0,0:0:0:0:
402,192,65042,1,0,0:0:0:0:
329,192,65125,1,0,0:0:0:0:
109,192,65209,1,0,0:0:0:0:
182,192,65292,1,0,0:0:0:0:
402,192,65375,1,0,0:0:0:0:
329,192,65459,1,0,0:0:0:0:
109,192,65542,1,0,0:0:0:0:
182,192,65709,1,0,0:0:0:0:
402,192,65875,1,0,0:0:0:0:
329,192,66042,1,0,0:0:0:0:
475,192,66209,1,0,0:0:0:0:
36,192,66209,1,0,0:0:0:0:
182,192,66209,128,0,66875:0:0:0:0:
402,192,66709,1,0,0:0:0:0:
475,192,66875,1,0,0:0:0:0:
256,192,66875,128,0,67542:0:0:0:0:
109,192,67375,1,0,0:0:0:0:
109,192,67542,1,0,0:0:0:0:
329,192,67542,128,0,68209:0:0:0:0:
182,192,68042,1,0,0:0:0:0:
402,192,68209,128,0,68875:0:0:0:0:
36,192,68209,1,0,0:0:0:0:
109,192,68709,1,0,0:0:0:0:
109,192,68875,1,0,0:0:0:0:
329,192,68875,128,0,70209:0:0:0:0:
182,192,69375,1,0,0:0:0:0:
36,192,69542,1,0,0:0:0:0:
109,192,70042,1,0,0:0:0:0:
182,192,70209,1,0,0:0:0:0:
475,192,70209,128,0,71375:0:0:0:0:
36,192,70375,1,0,0:0:0:0:
182,192,70542,1,0,0:0:0:0:
36,192,70875,1,0,0:0:0:0:
182,192,71542,1,0,0:0:0:0:
475,192,71542,128,0,72875:0:0:0:0:
182,192,72042,1,0,0:0:0:0:
36,192,72209,1,0,0:0:0:0:
109,192,72709,1,0,0:0:0:0:
182,192,72875,1,0,0:0:0:0:
402,192,72875,128,0,73542:0:0:0:0:
182,192,73209,1,0,0:0:0:0:
36,192,73542,1,0,0:0:0:0:
329,192,73542,128,0,74209:0:0:0:0:
109,192,74042,1,0,0:0:0:0:
36,192,74209,1,0,0:0:0:0:
182,192,74209,128,0,75542:0:0:0:0:
329,192,74709,1,0,0:0:0:0:
475,192,74875,1,0,0:0:0:0:
402,192,75375,1,0,0:0:0:0:
329,192,75542,1,0,0:0:0:0:
36,192,75542,1,0,0:0:0:0:
402,192,75709,1,0,0:0:0:0:
329,192,75875,1,0,0:0:0:0:
475,192,76209,1,0,0:0:0:0:
36,192,76209,1,0,0:0:0:0:
182,192,76542,1,0,0:0:0:0:
475,192,76709,1,0,0:0:0:0:
402,192,76792,1,0,0:0:0:0:
36,192,76875,1,0,0:0:0:0:
329,192,76875,128,0,78209:0:0:0:0:
109,192,77042,1,0,0:0:0:0:
182,192,77209,1,0,0:0:0:0:
256,192,77375,1,0,0:0:0:0:
475,192,77542,1,0,0:0:0:0:
36,192,77542,1,0,0:0:0:0:
182,192,78209,128,0,78875:0:0:0:0:
475,192,78209,1,0,0:0:0:0:
402,192,78375,1,0,0:0:0:0:
329,192,78542,1,0,0:0:0:0:
256,192,78709,1,0,0:0:0:0:
402,192,78875,1,0,0:0:0:0:
36,192,78875,1,0,0:0:0:0:
475,192,78875,128,0,79542:0:0:0:0:
36,192,79542,1,0,0:0:0:0:
329,192,79542,128,0,80209:0:0:0:0:
109,192,79709,1,0,0:0:0:0:
36,192,79875,1,0,0:0:0:0:
109,192,80042,1,0,0:0:0:0:
36,192,80209,1,0,0:0:0:0:
475,192,80209,1,0,0:0:0:0:
182,192,80209,128,0,80875:0:0:0:0:
475,192,80542,1,0,0:0:0:0:
402,192,80709,1,0,0:0:0:0:
329,192,80875,1,0,0:0:0:0:
36,192,80875,128,0,81542:0:0:0:0:
475,192,81042,1,0,0:0:0:0:
329,192,81209,1,0,0:0:0:0:
329,192,81375,1,0,0:0:0:0:
475,192,81542,1,0,0:0:0:0:
182,192,81542,128,0,82209:0:0:0:0:
402,192,81875,1,0,0:0:0:0:
402,192,82042,1,0,0:0:0:0:
36,192,82209,1,0,0:0:0:0:
329,192,82209,128,0,84875:0:0:0:0:
109,192,82292,1,0,0:0:0:0:
182,192,82375,1,0,0:0:0:0:
256,192,82459,1,0,0:0:0:0:
36,192,82542,1,0,0:0:0:0:
109,192,82625,1,0,0:0:0:0:
182,192,82709,1,0,0:0:0:0:
256,192,82792,1,0,0:0:0:0:
402,192,82875,1,0,0:0:0:0:
475,192,82875,1,0,0:0:0:0:
182,192,83375,1,0,0:0:0:0:
256,192,83542,1,0,0:0:0:0:
182,192,83625,1,0,0:0:0:0:
109,192,83709,1,0,0:0:0:0:
36,192,83792,1,0,0:0:0:0:
256,192,83875,1,0,0:0:0:0:
182,192,83959,1,0,0:0:0:0:
109,192,84042,1,0,0:0:0:0:
36,192,84125,1,0,0:0:0:0:
402,192,84209,1,0,0:0:0:0:
475,192,84209,1,0,0:0:0:0:
36,192,84542,1,0,0:0:0:0:
109,192,84625,1,0,0:0:0:0:
182,192,84709,1,0,0:0:0:0:
256,192,84792,1,0,0:0:0:0:
182,192,84875,1,0,0:0:0:0:
109,192,84959,1,0,0:0:0:0:
36,192,85042,1,0,0:0:0:0:
475,192,85209,1,0,0:0:0:0:
402,192,85375,1,0,0:0:0:0:
329,192,85709,1,0,0:0:0:0:
182,192,86042,128,0,87209:0:0:0:0:
329,192,87209,1,0,0:0:0:0:
182,192,87542,128,0,88209:0:0:0:0:
329,192,88209,128,0,88542:0:0:0:0:
182,192,88542,128,0,88875:0:0:0:0:
36,192,88875,128,0,89125:0:0:0:0:
329,192,89125,128,0,89375:0:0:0:0:
475,192,89375,1,0,0:0:0:0:
475,192,89542,128,0,89875:0:0:0:0:
475,192,90042,1,0,0:0:0:0:
475,192,90209,128,0,90459:0:0:0:0:
402,192,90459,128,0,90709:0:0:0:0:
329,192,90709,128,0,90875:0:0:0:0:
182,192,90875,128,0,91209:0:0:0:0:
475,192,91375,1,0,0:0:0:0:
402,192,91459,1,0,0:0:0:0:
475,192,91542,128,0,91792:0:0:0:0:
402,192,91792,128,0,92042:0:0:0:0:
329,192,92042,128,0,92209:0:0:0:0:
182,192,92209,128,0,92459:0:0:0:0:
109,192,92459,128,0,92709:0:0:0:0:
36,192,92709,128,0,92875:0:0:0:0:
256,192,92875,1,0,0:0:0:0:
402,192,92875,1,0,0:0:0:0:
329,192,93042,1,0,0:0:0:0:
475,192,93209,1,0,0:0:0:0:
182,192,93375,1,0,0:0:0:0:
329,192,93542,1,0,0:0:0:0:
402,192,93625,1,0,0:0:0:0:
475,192,93709,1,0,0:0:0:0:
36,192,93709,1,0,0:0:0:0:
256,192,93875,1,0,0:0:0:0:
329,192,93959,1,0,0:0:0:0:
402,192,94042,1,0,0:0:0:0:
475,192,94125,1,0,0:0:0:0:
182,192,94209,1,0,0:0:0:0:
109,192,94209,1,0,0:0:0:0:
329,192,94375,1,0,0:0:0:0:
475,192,94542,1,0,0:0:0:0:
36,192,94542,1,0,0:0:0:0:
182,192,94709,1,0,0:0:0:0:
329,192,94875,1,0,0:0:0:0:
402,192,94959,1,0,0:0:0:0:
475,192,95042,1,0,0:0:0:0:
182,192,95042,1,0,0:0:0:0:
36,192,95209,1,0,0:0:0:0:
329,192,95209,1,0,0:0:0:0:
402,192,95375,1,0,0:0:0:0:
256,192,95542,1,0,0:0:0:0:
109,192,95542,128,0,97542:0:0:0:0:
402,192,95709,1,0,0:0:0:0:
475,192,95875,1,0,0:0:0:0:
256,192,96042,1,0,0:0:0:0:
329,192,96209,1,0,0:0:0:0:
402,192,96292,1,0,0:0:0:0:
475,192,96375,1,0,0:0:0:0:
329,192,96875,1,0,0:0:0:0:
402,192,97042,1,0,0:0:0:0:
475,192,97209,1,0,0:0:0:0:
256,192,97375,1,0,0:0:0:0:
329,192,97542,1,0,0:0:0:0:
402,192,97625,1,0,0:0:0:0:
475,192,97709,1,0,0:0:0:0:
182,192,97875,128,0,98209:0:0:0:0:
36,192,98209,1,0,0:0:0:0:
329,192,98209,128,0,98875:0:0:0:0:
475,192,98875,128,0,99209:0:0:0:0:
329,192,99209,128,0,99542:0:0:0:0:
182,192,99542,128,0,99792:0:0:0:0:
329,192,99792,128,0,100042:0:0:0:0:
182,192,100042,128,0,100209:0:0:0:0:
36,192,100209,128,0,100542:0:0:0:0:
256,192,100709,1,0,0:0:0:0:
475,192,100875,128,0,101125:0:0:0:0:
329,192,101125,128,0,101375:0:0:0:0:
182,192,101375,128,0,101542:0:0:0:0:
36,192,101542,128,0,101875:0:0:0:0:
475,192,102042,1,0,0:0:0:0:
475,192,102125,1,0,0:0:0:0:
475,192,102209,128,0,102459:0:0:0:0:
329,192,102459,128,0,102709:0:0:0:0:
182,192,102709,128,0,102875:0:0:0:0:
402,192,102875,128,0,103125:0:0:0:0:
256,192,103125,128,0,103375:0:0:0:0:
109,192,103375,128,0,103542:0:0:0:0:
475,192,103542,1,0,0:0:0:0:
329,192,103542,128,0,104209:0:0:0:0:
182,192,104209,1,0,0:0:0:0:
36,192,104209,128,0,104542:0:0:0:0:
329,192,104542,1,0,0:0:0:0:
475,192,104542,128,0,104875:0:0:0:0:
402,192,104875,1,0,0:0:0:0:
109,192,104875,1,0,0:0:0:0:
36,192,105042,1,0,0:0:0:0:
475,192,105042,1,0,0:0:0:0:
402,192,105209,1,0,0:0:0:0:
109,192,105209,1,0,0:0:0:0:
329,192,105375,1,0,0:0:0:0:
182,192,105375,1,0,0:0:0:0:
329,192,105709,1,0,0:0:0:0:
182,192,105709,1,0,0:0:0:0:
402,192,105875,1,0,0:0:0:0:
109,192,105875,1,0,0:0:0:0:
475,192,106042,1,0,0:0:0:0:
36,192,106042,1,0,0:0:0:0:
182,192,106209,1,0,0:0:0:0:
329,192,106209,128,0,108875:0:0:0:0:
109,192,106375,1,0,0:0:0:0:
475,192,106542,1,0,0:0:0:0:
36,192,106542,1,0,0:0:0:0:
256,192,106709,1,0,0:0:0:0:
182,192,106875,1,0,0:0:0:0:
109,192,106959,1,0,0:0:0:0:
36,192,107042,1,0,0:0:0:0:
109,192,107542,1,0,0:0:0:0:
182,192,107709,1,0,0:0:0:0:
475,192,107875,1,0,0:0:0:0:
109,192,108042,1,0,0:0:0:0:
182,192,108209,1,0,0:0:0:0:
475,192,108375,1,0,0:0:0:0:
256,192,108875,1,0,0:0:0:0:
475,192,108875,1,0,0:0:0:0:
36,192,108875,1,0,0:0:0:0:
182,192,108875,128,0,110209:0:0:0:0:
36,192,109542,1,0,0:0:0:0:
36,192,110209,1,0,0:0:0:0:
329,192,110209,128,0,110709:0:0:0:0:
402,192,110709,128,0,111209:0:0:0:0:
36,192,110875,1,0,0:0:0:0:
329,192,111209,128,0,111542:0:0:0:0:
475,192,111542,1,0,0:0:0:0:
182,192,111542,128,0,112875:0:0:0:0:
475,192,112209,1,0,0:0:0:0:
475,192,112875,1,0,0:0:0:0:
36,192,112875,128,0,113209:0:0:0:0:
109,192,113209,128,0,113542:0:0:0:0:
475,192,113542,1,0,0:0:0:0:
256,192,113542,128,0,113875:0:0:0:0:
329,192,113875,128,0,114209:0:0:0:0:
109,192,114209,1,0,0:0:0:0:
402,192,114209,128,0,115542:0:0:0:0:
109,192,114875,1,0,0:0:0:0:
36,192,115542,1,0,0:0:0:0:
329,192,115542,128,0,116042:0:0:0:0:
475,192,116042,128,0,116542:0:0:0:0:
36,192,116209,1,0,0:0:0:0:
182,192,116542,128,0,116875:0:0:0:0:
475,192,116875,1,0,0:0:0:0:
329,192,116875,128,0,118875:0:0:0:0:
475,192,117542,1,0,0:0:0:0:
109,192,118209,1,0,0:0:0:0:
109,192,118875,1,0,0:0:0:0:
256,192,118875,128,0,119542:0:0:0:0:
36,192,119542,1,0,0:0:0:0:
182,192,119542,1,0,0:0:0:0:
329,192,119542,1,0,0:0:0:0:
475,192,119542,1,0,0:0:0:0:
109,192,120209,1,0,0:0:0:0:
182,192,120375,1,0,0:0:0:0:
256,192,120542,1,0,0:0:0:0:
329,192,120709,1,0,0:0:0:0:
402,192,120875,1,0,0:0:0:0:
109,192,120875,1,0,0:0:0:0:
182,192,121542,1,0,0:0:0:0:
256,192,121709,1,0,0:0:0:0:
329,192,121875,1,0,0:0:0:0:
402,192,122042,1,0,0:0:0:0:
256,192,122209,1,0,0:0:0:0:
109,192,122209,1,0,0:0:0:0:
402,192,122875,1,0,0:0:0:0:
36,192,122875,1,0,0:0:0:0:
109,192,123042,1,0,0:0:0:0:
182,192,123209,1,0,0:0:0:0:
256,192,123375,1,0,0:0:0:0:
329,192,123542,1,0,0:0:0:0:
475,192,123542,1,0,0:0:0:0:
109,192,123709,1,0,0:0:0:0:
182,192,123875,1,0,0:0:0:0:
109,192,124042,1,0,0:0:0:0:
256,192,124209,1,0,0:0:0:0:
402,192,124209,1,0,0:0:0:0:
36,192,124375,1,0,0:0:0:0:
109,192,124542,1,0,0:0:0:0:
36,192,124709,1,0,0:0:0:0:
182,192,124875,1,0,0:0:0:0:
475,192,124875,1,0,0:0:0:0:
329,192,124875,128,0,126209:0:0:0:0:
36,192,125542,1,0,0:0:0:0:
109,192,125709,1,0,0:0:0:0:
182,192,125875,1,0,0:0:0:0:
256,192,126042,1,0,0:0:0:0:
36,192,126209,1,0,0:0:0:0:
475,192,126209,128,0,126709:0:0:0:0:
329,192,126709,128,0,127209:0:0:0:0:
36,192,126875,1,0,0:0:0:0:
182,192,127209,128,0,127542:0:0:0:0:
402,192,127542,1,0,0:0:0:0:
109,192,127542,128,0,130875:0:0:0:0:
402,192,128209,1,0,0:0:0:0:
402,192,128875,1,0,0:0:0:0:
402,192,129542,128,0,130875:0:0:0:0:
256,192,130875,1,0,0:0:0:0:
