osu file format v12

[General]
AudioFilename: Silent Siren.mp3
AudioLeadIn: 0
PreviewTime: 80226
Countdown: 0
SampleSet: Soft
StackLeniency: 0.5
Mode: 0
LetterboxInBreaks: 1
WidescreenStoryboard: 0

[Editor]
DistanceSpacing: 1
BeatDivisor: 4
GridSize: 4
TimelineZoom: 1

[Metadata]
Title:stella*
TitleUnicode:stella☆
Artist:Silent Siren
ArtistUnicode:Silent Siren
Creator:captin1
Version:Normal
Source:
Tags:start raose climbb65588 kanpakyin
BeatmapID:399466
BeatmapSetID:163253

[Difficulty]
HPDrainRate:4
CircleSize:3
OverallDifficulty:4
ApproachRate:5
SliderMultiplier:1.2
SliderTickRate:2

[Events]
//Background and Video events
0,0,"39662910.jpg",0,0
//Break Periods
2,131312,135002
//Storyboard Layer 0 (Background)
//Storyboard Layer 1 (Fail)
//Storyboard Layer 2 (Pass)
//Storyboard Layer 3 (Foreground)
//Storyboard Sound Samples
//Background Colour Transformations
3,100,163,162,255

[TimingPoints]
2189,379.746835443038,4,2,2,70,1,0
8264,-100,4,2,1,70,0,0
13771,-100,4,2,1,60,0,0
14340,-100,4,2,2,70,0,0
20037,-100,4,2,1,70,0,0
32568,-100,4,2,2,70,0,0
43201,-100,4,2,1,5,0,0
44720,-100,4,2,1,70,0,0
81176,-100,4,2,1,70,0,1
102442,-100,4,2,1,60,0,1
103771,-100,4,2,1,70,0,0
105480,-100,4,2,1,50,0,0
105859,-100,4,2,1,60,0,0
106239,-100,4,2,1,70,0,0
118391,-100,4,2,1,60,0,0
119151,-100,4,2,1,70,0,0
130543,-100,4,2,1,60,0,0
131113,-100,4,2,1,70,0,0
136202,379.746835443038,4,2,1,70,1,0

[Colours]
Combo1 : 242,24,57
Combo2 : 255,113,45
Combo3 : 3,101,248

[HitObjects]
100,108,2189,6,0,P|144:152|208:160,1,120,2|0,0:0|0:0,0:0:0:0:
304,100,2948,2,0,P|336:152|328:236,1,120,2|0,0:0|0:0,0:0:0:0:
300,256,3518,1,2,0:0:0:0:
188,304,3897,1,0,0:0:0:0:
72,268,4277,1,2,0:0:0:0:
152,180,4657,2,0,B|176:190|211:182|211:182|242:157|242:157|282:185|332:168,1,180,2|0,0:0|0:0,0:0:0:0:
400,84,5606,5,0,0:0:0:0:
292,28,5986,2,0,L|180:100,1,120,2|0,0:0|0:0,0:0:0:0:
140,124,6556,1,2,0:0:0:0:
20,116,6935,1,0,0:0:0:0:
72,224,7315,2,0,B|100:276|100:276|168:304|224:248,1,180,2|0,0:0|0:0,0:0:0:0:
300,176,8264,6,0,P|340:188|400:256,1,120,6|8,0:0|0:0,0:0:0:0:
328,344,9024,1,2,0:0:0:0:
328,344,9214,2,0,P|257:338|201:362,1,120,2|2,0:0|0:0,0:0:0:0:
92,364,9973,2,0,L|44:300,1,60,2|8,0:0|0:0,0:0:0:0:
140,228,10543,1,2,0:0:0:0:
88,120,10923,1,8,0:0:0:0:
208,124,11302,6,0,P|247:165|258:238,1,120,2|8,0:0|0:0,0:0:0:0:
204,332,12062,1,2,0:0:0:0:
204,332,12252,2,0,P|260:352|324:348,1,120,2|2,0:0|0:0,0:0:0:0:
440,340,13011,2,0,P|464:320|480:284,1,60,2|8,0:0|0:0,0:0:0:0:
440,180,13581,1,2,0:0:0:0:
320,184,13961,1,8,0:0:0:0:
204,148,14340,6,0,P|192:116|216:28,1,120,0|0,0:0|0:0,0:0:0:0:
324,72,15100,2,0,P|367:112|425:122,1,120,2|0,0:0|0:0,0:0:0:0:
484,108,15670,1,2,0:0:0:0:
456,224,16049,1,0,0:0:0:0:
336,244,16429,1,2,0:0:0:0:
248,160,16809,2,0,B|216:132|216:132|184:136|184:136|144:88|80:96,1,180,2|0,0:0|0:0,0:0:0:0:
4,176,17758,5,0,0:0:0:0:
52,288,18138,2,0,L|184:276,1,120,2|0,0:0|0:0,0:0:0:0:
220,244,18707,1,2,0:0:0:0:
296,336,19087,1,0,0:0:0:0:
404,284,19467,2,0,P|436:256|436:164,1,120,2|0,0:0|0:0,0:0:0:0:
424,128,20037,1,8,0:0:0:0:
316,76,20416,6,0,P|304:120|324:192,1,120,6|8,0:0|0:0,0:0:0:0:
320,312,21176,1,2,0:0:0:0:
320,312,21366,2,0,L|176:292,1,120,2|2,0:0|0:0,0:0:0:0:
196,176,22125,2,0,L|132:168,1,60,2|8,0:0|0:0,0:0:0:0:
17,163,22695,1,2,0:0:0:0:
72,272,23075,1,8,0:0:0:0:
188,304,23454,6,0,P|251:290|296:250,1,120,2|8,0:0|0:0,0:0:0:0:
352,152,24214,1,2,0:0:0:0:
352,152,24404,2,0,L|408:264,1,120,2|2,0:0|0:0,0:0:0:0:
328,348,25163,2,0,L|264:332,1,60,2|8,0:0|0:0,0:0:0:0:
184,248,25733,2,0,L|192:184,2,60,2|8|8,0:0|0:3|0:0,0:0:0:0:
92,324,26492,6,0,P|64:296|48:212,2,120,6|2|8,0:0|0:0|0:0,0:0:0:0:
204,368,27632,1,2,0:0:0:0:
204,368,27821,2,0,L|328:348,1,120,2|2,0:0|0:0,0:0:0:0:
384,248,28581,2,0,L|380:180,1,60,2|8,0:0|0:0,0:0:0:0:
324,172,28961,2,0,L|320:104,1,60,0|0,0:0|0:0,0:0:0:0:
236,28,29530,6,0,P|200:80|208:144,2,120,2|2|8,0:0|0:0|0:0,0:0:0:0:
356,32,30670,1,2,0:0:0:0:
356,32,30859,2,0,L|456:124,1,120,2|2,0:0|0:0,0:0:0:0:
380,216,31619,2,0,L|440:268,2,60,2|8|0,0:0|0:0|0:0,0:0:0:0:
324,240,32189,1,8,0:3:0:0:
216,192,32568,6,0,P|196:136|208:68,1,120,4|0,0:0|0:0,0:0:0:0:
300,4,33328,2,0,P|320:60|308:128,1,120,2|0,0:0|0:0,0:0:0:0:
216,192,34087,2,0,B|164:224|168:296|168:296|108:256,1,180,2|0,0:0|0:0,0:0:0:0:
72,224,34847,2,0,P|44:148|60:96,1,120,2|0,0:0|0:0,0:0:0:0:
168,76,35606,6,0,P|236:88|284:72,1,120,2|0,0:0|0:0,0:0:0:0:
384,8,36366,2,0,P|372:76|388:124,1,120,2|0,0:0|0:0,0:0:0:0:
468,212,37125,2,0,P|448:248|316:272,1,180,2|0,0:0|0:0,0:0:0:0:
276,236,37885,1,2,0:0:0:0:
156,220,38264,2,0,L|80:236,1,60,0|2,0:0|0:0,0:0:0:0:
36,240,38644,6,0,B|16:184|16:184|36:120|104:104,1,180,2|2,0:0|0:0,0:0:0:0:
220,124,39594,2,0,P|256:120|324:68,1,120,0|2,0:0|0:0,0:0:0:0:
224,4,40353,1,0,0:0:0:0:
124,68,40733,2,0,B|108:120|108:120|140:248,1,180,2|0,0:0|0:0,0:0:0:0:
256,220,41682,6,0,P|324:220|372:252,1,120,2|0,0:0|0:0,0:0:0:0:
288,336,42442,2,0,B|228:356|176:312|176:312|120:368,1,180,2|2,0:0|0:0,0:0:0:0:
256,192,43391,12,6,44720,0:0:0:0:
256,272,45480,6,0,P|211:305|144:320,1,120,2|8,0:0|0:0,0:0:0:0:
52,252,46239,2,0,B|32:188|32:188|72:136|44:68,1,180,0|0,0:0|0:0,0:0:0:0:
20,28,46999,2,0,L|152:20,1,120,2|8,0:0|0:0,0:0:0:0:
260,24,47758,6,0,P|248:80|196:128,1,120,2|8,0:0|0:0,0:0:0:0:
84,132,48518,2,0,L|112:204,1,60,2|2,0:0|0:0,0:0:0:0:
112,248,48897,1,8,0:0:0:0:
232,253,49277,2,0,P|306:221|328:175,1,120,2|8,0:0|0:0,0:0:0:0:
280,76,50037,2,0,B|328:48|328:48|392:76|452:48,1,180,2|0,0:0|0:0,0:0:0:0:
492,8,50796,6,0,L|488:128,1,120,2|8,0:0|0:0,0:0:0:0:
432,152,51366,2,0,B|430:212|430:212|460:268,2,120,0|2|2,0:0|0:0|0:0,0:0:0:0:
324,208,52505,1,2,0:0:0:0:
324,208,52695,2,0,P|274:230|210:224,1,120,8|2,0:0|0:0,0:0:0:0:
132,132,53454,1,8,0:0:0:0:
12,112,53834,6,0,B|0:160|0:160|24:192|24:192|0:244|24:296,1,180,2|0,0:0|0:0,0:0:0:0:
44,332,54594,1,2,0:0:0:0:
164,340,54973,2,0,L|216:292,1,60,8|2,0:0|0:0,0:0:0:0:
328,304,55543,1,2,0:0:0:0:
328,304,55733,2,0,P|392:264|408:208,1,120,8|2,0:0|0:0,0:0:0:0:
332,132,56492,1,8,0:0:0:0:
408,40,56872,6,0,P|453:62|496:127,2,120,4|0|8,0:0|0:0|0:0,0:0:0:0:
288,24,58011,2,0,L|220:36,1,60,2|2,0:0|0:0,0:0:0:0:
172,20,58391,2,0,P|176:64|140:144,2,120,0|0|8,0:0|0:0|0:0,0:0:0:0:
56,52,59530,1,0,0:0:0:0:
36,172,59910,6,0,L|8:308,2,120,2|0|8,0:0|0:0|0:0,0:0:0:0:
128,252,61049,2,0,L|176:296,1,60,2|2,0:0|0:0,0:0:0:0:
200,348,61429,2,0,B|240:336|240:336|316:356,2,120,0|0|8,0:0|0:0|0:0,0:0:0:0:
248,236,62568,1,0,0:0:0:0:
364,204,62948,6,0,P|412:208|472:256,1,120,2|0,0:0|0:0,0:0:0:0:
408,356,63707,2,0,L|268:340,1,120,8|0,0:0|0:0,0:0:0:0:
232,364,64277,1,2,0:0:0:0:
124,312,64657,1,2,0:0:0:0:
188,212,65037,2,0,L|208:152,2,60,2|8|0,0:0|0:0|0:0,0:0:0:0:
128,220,65606,1,0,0:0:0:0:
48,132,65986,6,0,P|56:80|112:28,1,120,2|0,0:0|0:0,0:0:0:0:
220,12,66745,1,8,0:0:0:0:
284,112,67125,2,0,L|228:164,1,60,0|2,0:0|0:0,0:0:0:0:
200,196,67505,2,0,L|252:308,2,120,2|0|8,0:0|0:0|0:0,0:0:0:0:
88,160,68644,1,8,0:3:0:0:
164,68,69024,6,0,P|212:60|280:96,1,120,6|2,0:0|0:0,0:0:0:0:
292,208,69783,1,2,0:0:0:0:
192,276,70163,2,0,L|128:272,1,60,0|0,0:0|0:0,0:0:0:0:
76,288,70543,2,0,B|78:346|100:372|100:372|148:380,2,120,2|2|2,0:0|0:0|0:0,0:0:0:0:
96,168,71682,1,8,0:0:0:0:
216,164,72062,6,0,P|268:140|296:84,1,120,2|2,0:0|0:0,0:0:0:0:
212,0,72821,1,2,0:0:0:0:
100,44,73201,2,0,L|44:80,1,60,2|0,0:0|0:0,0:0:0:0:
32,136,73581,2,0,P|40:176|16:264,2,120,2|2|2,0:0|0:0|0:0,0:0:0:0:
152,148,74720,1,8,0:0:0:0:
156,268,75100,5,6,0:0:0:0:
268,312,75480,2,0,P|340:292|376:260,2,120,8|2|8,0:0|0:0|0:0,0:0:0:0:
248,192,76619,2,0,L|240:132,2,60,2|0|8,0:0|0:0|0:0,0:0:0:0:
212,240,77189,2,0,P|160:232|108:188,1,120,0|0,0:0|0:0,0:0:0:0:
84,136,77758,1,8,0:0:0:0:
148,36,78138,6,0,L|200:84,1,60,8|2,0:0|0:0,0:0:0:0:
312,60,78707,2,0,L|360:104,1,60,8|2,0:0|0:0,0:0:0:0:
308,212,79277,2,0,L|256:164,1,60,12|12,0:0|0:0,0:0:0:0:
144,188,79847,2,0,L|84:132,1,60,8|8,0:3|0:3,0:0:0:0:
24,324,81176,6,0,P|92:344|148:328,1,120,4|8,0:0|0:0,0:0:0:0:
188,300,81745,1,0,0:0:0:0:
144,188,82125,1,2,0:0:0:0:
264,172,82505,2,0,P|318:145|354:91,1,120,2|2,0:0|0:0,0:0:0:0:
360,36,83075,1,8,0:0:0:0:
464,92,83454,1,2,0:0:0:0:
424,204,83834,2,0,L|428:264,1,60,8|2,0:0|0:0,0:0:0:0:
464,312,84214,6,0,P|392:308|328:332,1,120,2|8,0:0|0:0,0:0:0:0:
296,352,84783,1,0,0:0:0:0:
180,316,85163,1,2,0:0:0:0:
108,220,85543,2,0,P|92:160|112:104,1,120,6|0,0:0|0:0,0:0:0:0:
164,80,86113,2,0,L|152:8,2,60,8|0|2,0:0|0:0|0:0,0:0:0:0:
248,168,86872,2,0,L|260:240,1,60,8|2,0:0|0:0,0:0:0:0:
248,288,87252,5,0,0:0:0:0:
364,256,87632,1,8,0:0:0:0:
368,136,88011,2,0,P|408:68|448:52,1,120,2|8,0:0|0:0,0:0:0:0:
496,84,88581,2,0,L|512:204,2,120,2|0|0,0:0|0:0|0:0,0:0:0:0:
408,4,89720,1,2,0:0:0:0:
408,4,89910,2,0,L|324:28,1,60,8|0,0:0|0:0,0:0:0:0:
320,72,90290,6,0,P|262:64|208:7,1,120,2|8,0:0|0:0,0:0:0:0:
156,32,90859,2,0,P|136:68|68:108,1,120,0|2,0:0|0:0,0:0:0:0:
24,148,91429,2,0,L|4:208,1,60,8|4,0:0|0:0,0:0:0:0:
100,276,91999,2,0,L|176:264,2,60,2|8|0,0:0|0:0|0:0,0:0:0:0:
56,316,92568,1,8,0:0:0:0:
168,360,92948,2,0,L|244:348,1,60,8|2,0:3|0:0,0:0:0:0:
264,304,93328,6,0,P|268:256|236:184,1,120,6|8,0:0|0:0,0:0:0:0:
188,164,93897,1,0,0:0:0:0:
296,116,94277,1,2,0:0:0:0:
200,44,94657,2,0,P|148:46|90:89,1,120,2|2,0:0|0:0,0:0:0:0:
72,140,95226,1,8,0:0:0:0:
60,260,95606,1,2,0:0:0:0:
172,216,95986,2,0,L|244:228,1,60,8|2,0:0|0:0,0:0:0:0:
264,276,96366,6,0,P|280:224|336:180,1,120,2|8,0:0|0:0,0:0:0:0:
388,184,96935,1,0,0:0:0:0:
452,288,97315,1,2,0:0:0:0:
500,176,97695,2,0,B|480:120|480:120|496:60,1,120,6|2,0:0|0:0,0:0:0:0:
440,44,98264,2,0,L|420:116,1,60,8|0,0:0|0:0,0:0:0:0:
368,128,98644,1,2,0:0:0:0:
248,112,99024,1,8,0:0:0:0:
144,168,99404,6,0,P|132:212|156:292,1,120,6|8,0:0|0:0,0:0:0:0:
268,268,100163,1,8,0:0:0:0:
192,360,100543,1,8,0:0:0:0:
76,328,100923,2,0,P|36:284|24:224,1,120,2|8,0:0|0:0,0:0:0:0:
76,196,101492,1,2,0:0:0:0:
76,196,101682,2,0,L|144:80,1,120,8|8,0:0|0:0,0:0:0:0:
120,36,102252,1,2,0:0:0:0:
120,36,102442,6,0,L|180:36,1,60,12|12,0:3|0:3,0:0:0:0:
256,128,103011,1,12,0:3:0:0:
332,36,103391,2,0,L|392:36,2,60,12|12|12,0:3|0:3|0:3,0:0:0:0:
256,128,105480,5,8,0:3:0:0:
256,248,105859,1,8,0:3:0:0:
336,336,106239,2,0,P|392:308|404:292,1,60,8|8,0:0|0:3,0:0:0:0:
428,264,106619,1,12,0:0:0:0:
348,176,106999,6,0,P|360:128|424:72,1,120,6|8,0:0|0:0,0:0:0:0:
468,184,107758,1,2,0:0:0:0:
468,184,107948,2,0,L|476:320,1,120,2|2,0:0|0:0,0:0:0:0:
364,344,108707,2,0,L|304:288,1,60,2|8,0:0|0:0,0:0:0:0:
200,320,109277,1,2,0:0:0:0:
192,200,109657,1,8,0:0:0:0:
72,208,110037,6,0,P|40:172|32:88,1,120,2|8,0:0|0:0,0:0:0:0:
144,76,110796,1,2,0:0:0:0:
144,76,110986,2,0,P|212:64|268:16,1,120,2|2,0:0|0:0,0:0:0:0:
372,48,111745,2,0,L|356:124,1,60,2|8,0:0|0:0,0:0:0:0:
248,148,112315,1,2,0:0:0:0:
288,260,112695,1,8,0:0:0:0:
408,252,113075,6,0,P|460:208|468:152,2,120,6|2|8,0:0|0:0|0:0,0:0:0:0:
336,348,114214,1,2,0:0:0:0:
336,348,114404,2,0,L|212:332,1,120,2|2,0:0|0:0,0:0:0:0:
120,264,115163,2,0,L|128:200,1,60,2|8,0:0|0:0,0:0:0:0:
80,164,115543,2,0,L|88:100,1,60,0|0,0:0|0:0,0:0:0:0:
200,60,116113,6,0,P|280:48|316:20,2,120,2|2|8,0:0|0:0|0:0,0:0:0:0:
88,20,117252,1,2,0:0:0:0:
88,20,117442,2,0,L|104:140,1,120,2|2,0:0|0:0,0:0:0:0:
168,240,118201,2,0,L|128:300,2,60,2|8|8,0:0|0:0|0:0,0:0:0:0:
204,192,118771,1,8,0:3:0:0:
284,280,119151,5,6,0:0:0:0:
404,272,119530,1,12,0:0:0:0:
428,156,119910,1,2,0:0:0:0:
428,156,120100,2,0,L|320:84,1,120,2|2,0:0|0:0,0:0:0:0:
216,136,120859,2,0,L|136:144,1,60,2|8,0:0|0:0,0:0:0:0:
60,68,121429,1,2,0:0:0:0:
52,188,121809,1,8,0:0:0:0:
152,256,122189,6,0,L|291:242,1,120,2|8,0:0|0:0,0:0:0:0:
364,320,122948,1,2,0:0:0:0:
364,320,123138,1,2,0:0:0:0:
380,200,123518,2,0,L|396:72,1,120,2|2,0:0|0:0,0:0:0:0:
348,44,124087,1,8,0:0:0:0:
248,112,124467,2,0,L|168:124,1,60,2|8,0:0|0:3,0:0:0:0:
136,96,124847,1,8,0:0:0:0:
76,200,125226,6,0,L|96:328,2,120,2|2|8,0:0|0:0|0:0,0:0:0:0:
92,80,126366,1,2,0:0:0:0:
92,80,126556,2,0,P|160:76|212:32,1,120,2|2,0:0|0:0,0:0:0:0:
312,88,127315,2,0,L|336:160,1,60,2|8,0:0|0:0,0:0:0:0:
288,188,127695,2,0,L|312:260,1,60,0|0,0:0|0:0,0:0:0:0:
388,336,128264,6,0,P|424:284|424:220,2,120,0|2|8,0:0|0:0|0:0,0:0:0:0:
272,360,129404,1,2,0:0:0:0:
272,360,129594,2,0,L|160:316,1,120,2|2,0:0|0:0,0:0:0:0:
136,200,130353,2,0,L|144:136,2,60,0|12|12,0:0|0:3|0:3,0:0:0:0:
88,236,130923,2,0,L|100:308,1,60,12|8,0:3|0:0,0:0:0:0:
256,284,136202,5,0,0:0:0:0:
256,284,136391,2,0,B|240:240|240:240|268:212|268:212|240:168|256:104,1,180,6|0,0:0|0:0,0:0:0:0:
