osu file format v12

[General]
AudioFilename: Silent Siren.mp3
AudioLeadIn: 0
PreviewTime: 80226
Countdown: 0
SampleSet: Normal
StackLeniency: 0.5
Mode: 1
LetterboxInBreaks: 1
WidescreenStoryboard: 1

[Editor]
Bookmarks: 20409,32561,44713,56865,69017,81169,93321,106992,119144
DistanceSpacing: 0.6
BeatDivisor: 4
GridSize: 4
TimelineZoom: 1

[Metadata]
Title:stella*
TitleUnicode:stella☆
Artist:Silent Siren
ArtistUnicode:Silent Siren
Creator:captin1
Version:Muzukashii
Source:
Tags:start raose climbb65588 kanpakyin
BeatmapID:421154
BeatmapSetID:163253

[Difficulty]
HPDrainRate:6
CircleSize:4
OverallDifficulty:6
ApproachRate:6
SliderMultiplier:1.4
SliderTickRate:1

[Events]
//Background and Video events
0,0,"39662910.jpg",0,0
//Break Periods
//Storyboard Layer 0 (Background)
//Storyboard Layer 1 (Fail)
//Storyboard Layer 2 (Pass)
//Storyboard Layer 3 (Foreground)
//Storyboard Sound Samples
//Background Colour Transformations
3,100,163,162,255

[TimingPoints]
2189,379.746835443038,4,1,0,70,1,0
81176,-100,4,1,0,70,0,1
103771,-100,4,1,0,70,0,0
136202,379.746835443038,4,1,0,70,1,0

[Colours]
Combo1 : 242,24,57
Combo2 : 255,113,45
Combo3 : 3,101,248

[HitObjects]
421,105,2189,5,4,0:0:0:0:
421,105,2568,1,0,0:0:0:0:
421,105,2948,1,0,0:0:0:0:
421,105,3328,1,0,0:0:0:0:
421,105,3518,1,8,0:0:0:0:
421,105,3707,1,0,0:0:0:0:
421,105,4087,1,0,0:0:0:0:
421,105,4467,1,0,0:0:0:0:
421,105,4847,1,0,0:0:0:0:
421,105,5037,1,8,0:0:0:0:
421,105,5226,1,0,0:0:0:0:
421,105,5606,1,0,0:0:0:0:
421,105,5986,1,0,0:0:0:0:
421,105,6366,1,0,0:0:0:0:
421,105,6745,1,0,0:0:0:0:
421,105,7125,1,0,0:0:0:0:
421,105,7315,1,8,0:0:0:0:
421,105,8264,1,4,0:0:0:0:
421,105,8644,1,8,0:0:0:0:
421,105,9024,1,0,0:0:0:0:
421,105,9214,1,0,0:0:0:0:
421,105,9404,1,8,0:0:0:0:
421,105,9594,1,0,0:0:0:0:
421,105,9973,1,0,0:0:0:0:
421,105,10163,1,8,0:0:0:0:
421,105,10543,1,0,0:0:0:0:
421,105,10733,1,0,0:0:0:0:
421,105,10923,1,8,0:0:0:0:
421,105,11302,1,0,0:0:0:0:
421,105,11682,1,8,0:0:0:0:
421,105,12062,1,0,0:0:0:0:
421,105,12252,1,0,0:0:0:0:
421,105,12442,1,8,0:0:0:0:
421,105,12632,1,0,0:0:0:0:
421,105,13011,1,0,0:0:0:0:
421,105,13201,1,8,0:0:0:0:
421,105,13581,1,0,0:0:0:0:
421,105,13771,1,0,0:0:0:0:
421,105,13961,1,8,0:0:0:0:
421,105,14056,1,8,0:0:0:0:
421,105,14151,1,8,0:0:0:0:
421,105,14340,1,0,0:0:0:0:
421,105,14720,1,0,0:0:0:0:
421,105,15100,1,0,0:0:0:0:
421,105,15480,1,0,0:0:0:0:
421,105,15670,1,8,0:0:0:0:
421,105,15859,1,0,0:0:0:0:
421,105,16239,1,0,0:0:0:0:
389,104,16619,1,0,0:0:0:0:
421,105,16999,1,0,0:0:0:0:
421,105,17189,1,8,0:0:0:0:
421,105,17378,1,0,0:0:0:0:
421,105,17758,1,0,0:0:0:0:
421,105,18138,1,0,0:0:0:0:
421,105,18518,1,0,0:0:0:0:
421,105,18707,1,8,0:0:0:0:
421,105,18897,1,0,0:0:0:0:
421,105,19277,1,0,0:0:0:0:
421,105,19467,1,8,0:0:0:0:
421,105,19847,1,0,0:0:0:0:
421,105,20037,1,12,0:0:0:0:
348,132,20416,1,0,0:0:0:0:
268,164,20796,1,8,0:0:0:0:
192,196,21176,1,0,0:0:0:0:
232,180,21366,1,0,0:0:0:0:
232,180,21556,1,8,0:0:0:0:
232,180,21745,1,0,0:0:0:0:
296,236,22125,1,0,0:0:0:0:
232,180,22315,1,8,0:0:0:0:
240,108,22695,1,0,0:0:0:0:
228,144,22790,1,0,0:0:0:0:
240,136,22885,1,0,0:0:0:0:
232,172,23075,1,8,0:0:0:0:
192,172,23264,1,0,0:0:0:0:
156,168,23454,1,0,0:0:0:0:
156,168,23834,1,8,0:0:0:0:
156,168,24214,1,0,0:0:0:0:
156,168,24404,1,0,0:0:0:0:
156,168,24594,1,8,0:0:0:0:
156,168,24783,1,0,0:0:0:0:
232,180,25163,1,0,0:0:0:0:
200,172,25353,1,8,0:0:0:0:
200,172,25733,1,0,0:0:0:0:
196,168,25923,1,0,0:0:0:0:
196,148,26018,1,0,0:0:0:0:
200,172,26113,1,8,0:0:0:0:
200,172,26492,1,4,0:0:0:0:
200,172,26872,1,0,0:0:0:0:
140,120,27252,1,8,0:0:0:0:
200,168,27632,1,0,0:0:0:0:
168,144,27821,1,0,0:0:0:0:
180,112,28011,1,8,0:0:0:0:
168,144,28201,1,0,0:0:0:0:
200,144,28581,1,0,0:0:0:0:
168,144,28771,1,8,0:0:0:0:
200,116,28961,1,8,0:0:0:0:
224,88,29151,1,8,0:0:0:0:
224,88,29340,1,8,0:0:0:0:
224,88,29530,1,0,0:0:0:0:
164,36,29910,1,0,0:0:0:0:
228,88,30290,1,8,0:0:0:0:
164,36,30670,1,0,0:0:0:0:
164,36,30859,1,0,0:0:0:0:
128,104,31239,1,0,0:0:0:0:
128,104,31619,1,0,0:0:0:0:
128,104,31809,1,8,0:0:0:0:
188,76,31999,1,0,0:0:0:0:
204,108,32189,1,0,0:0:0:0:
220,144,32378,1,0,0:0:0:0:
433,104,32568,5,4,0:0:0:0:
433,104,32948,1,0,0:0:0:0:
433,104,33328,1,0,0:0:0:0:
433,104,33707,1,0,0:0:0:0:
433,104,33897,1,8,0:0:0:0:
433,104,34087,1,0,0:0:0:0:
433,104,34277,1,8,0:0:0:0:
433,104,34467,1,0,0:0:0:0:
433,104,34657,1,8,0:0:0:0:
433,104,34847,1,0,0:0:0:0:
433,104,35226,1,0,0:0:0:0:
433,104,35416,1,8,0:0:0:0:
433,104,35606,1,0,0:0:0:0:
433,104,35986,1,0,0:0:0:0:
433,104,36176,1,8,0:0:0:0:
433,104,36366,1,0,0:0:0:0:
433,104,36745,1,0,0:0:0:0:
433,104,36935,1,8,0:0:0:0:
433,104,37125,1,0,0:0:0:0:
433,104,37505,1,0,0:0:0:0:
433,104,37695,1,8,0:0:0:0:
433,104,37885,1,0,0:0:0:0:
433,104,38075,1,8,0:0:0:0:
433,104,38264,1,0,0:0:0:0:
433,104,38644,1,8,0:0:0:0:
433,104,38834,1,0,0:0:0:0:
433,104,39214,1,8,0:0:0:0:
433,104,39404,1,0,0:0:0:0:
433,104,39594,1,8,0:0:0:0:
433,104,39783,1,0,0:0:0:0:
433,104,39973,1,8,0:0:0:0:
433,104,40163,1,0,0:0:0:0:
433,104,40543,1,0,0:0:0:0:
433,104,40923,1,0,0:0:0:0:
433,104,41302,1,0,0:0:0:0:
433,104,41492,1,8,0:0:0:0:
433,104,41682,1,0,0:0:0:0:
433,104,42062,1,0,0:0:0:0:
433,104,42252,1,8,0:0:0:0:
433,104,42442,1,0,0:0:0:0:
433,104,42632,1,8,0:0:0:0:
433,104,42821,1,0,0:0:0:0:
433,104,43011,1,12,0:0:0:0:
68,180,44720,1,4,0:0:0:0:
152,164,45100,1,8,0:0:0:0:
236,140,45480,1,0,0:0:0:0:
196,152,45670,1,0,0:0:0:0:
196,152,45859,1,8,0:0:0:0:
196,152,46049,1,0,0:0:0:0:
144,92,46429,1,0,0:0:0:0:
172,124,46619,1,8,0:0:0:0:
196,152,46999,1,0,0:0:0:0:
196,152,47189,1,0,0:0:0:0:
196,152,47378,1,8,0:0:0:0:
200,228,47758,1,0,0:0:0:0:
196,148,48138,1,8,0:0:0:0:
200,228,48518,1,0,0:0:0:0:
200,192,48707,1,0,0:0:0:0:
192,148,48897,1,8,0:0:0:0:
200,188,49087,1,0,0:0:0:0:
272,168,49467,1,0,0:0:0:0:
300,152,49657,1,8,0:0:0:0:
320,140,49752,1,8,0:0:0:0:
320,140,49847,1,8,0:0:0:0:
276,140,50037,1,0,0:0:0:0:
240,140,50226,1,0,0:0:0:0:
208,140,50416,1,8,0:0:0:0:
208,140,50796,1,0,0:0:0:0:
240,140,51176,1,8,0:0:0:0:
164,140,51556,1,0,0:0:0:0:
132,140,51745,1,0,0:0:0:0:
132,140,51935,1,8,0:0:0:0:
132,140,52125,1,0,0:0:0:0:
196,120,52505,1,0,0:0:0:0:
244,108,52695,1,8,0:0:0:0:
176,144,53075,1,0,0:0:0:0:
200,132,53264,1,0,0:0:0:0:
244,108,53454,1,8,0:0:0:0:
168,116,53644,1,0,0:0:0:0:
168,116,53834,1,0,0:0:0:0:
216,56,54214,1,8,0:0:0:0:
176,144,54594,1,0,0:0:0:0:
200,132,54783,1,0,0:0:0:0:
176,124,54878,1,0,0:0:0:0:
176,144,54973,1,8,0:0:0:0:
176,144,55163,1,0,0:0:0:0:
112,104,55543,1,0,0:0:0:0:
84,84,55733,1,8,0:0:0:0:
84,84,56113,1,8,0:0:0:0:
84,84,56302,1,0,0:0:0:0:
84,84,56492,1,8,0:0:0:0:
424,117,56872,5,4,0:0:0:0:
424,117,57252,1,0,0:0:0:0:
424,117,57632,1,8,0:0:0:0:
424,117,58011,1,0,0:0:0:0:
424,117,58201,1,0,0:0:0:0:
424,117,58581,1,0,0:0:0:0:
424,117,58771,1,0,0:0:0:0:
424,117,58961,1,0,0:0:0:0:
424,117,59151,1,8,0:0:0:0:
424,117,59340,1,8,0:0:0:0:
424,117,59435,1,8,0:0:0:0:
424,117,59530,1,0,0:0:0:0:
424,117,59910,1,0,0:0:0:0:
424,117,60290,1,0,0:0:0:0:
424,117,60670,1,8,0:0:0:0:
424,117,61049,1,0,0:0:0:0:
424,117,61239,1,0,0:0:0:0:
424,117,61619,1,0,0:0:0:0:
424,117,61809,1,0,0:0:0:0:
424,117,61999,1,0,0:0:0:0:
424,117,62189,1,8,0:0:0:0:
424,117,62378,1,0,0:0:0:0:
424,117,62568,1,8,0:0:0:0:
424,117,62758,1,0,0:0:0:0:
424,117,62853,1,0,0:0:0:0:
424,117,62948,1,0,0:0:0:0:
424,117,63328,1,0,0:0:0:0:
424,117,63707,1,8,0:0:0:0:
424,117,64087,1,0,0:0:0:0:
424,117,64277,1,0,0:0:0:0:
424,117,64657,1,0,0:0:0:0:
424,117,65037,1,0,0:0:0:0:
424,117,65226,1,8,0:0:0:0:
424,117,65416,1,0,0:0:0:0:
424,117,65606,1,0,0:0:0:0:
424,117,65986,1,0,0:0:0:0:
424,117,66366,1,0,0:0:0:0:
424,117,66556,1,0,0:0:0:0:
424,117,66745,1,8,0:0:0:0:
424,117,67125,1,0,0:0:0:0:
424,117,67315,1,0,0:0:0:0:
424,117,67695,1,0,0:0:0:0:
424,117,68075,1,0,0:0:0:0:
424,117,68264,1,8,0:0:0:0:
424,117,68454,1,0,0:0:0:0:
424,117,68644,1,0,0:0:0:0:
424,117,68834,1,0,0:0:0:0:
380,120,69024,1,4,0:0:0:0:
308,128,69404,1,0,0:0:0:0:
208,140,69783,1,0,0:0:0:0:
212,92,69973,1,8,0:0:0:0:
212,92,70163,1,0,0:0:0:0:
252,92,70353,1,8,0:0:0:0:
292,88,70543,1,0,0:0:0:0:
212,92,70733,1,8,0:0:0:0:
220,112,70923,1,0,0:0:0:0:
196,84,71113,1,8,0:0:0:0:
212,92,71302,1,0,0:0:0:0:
280,140,71682,1,8,0:0:0:0:
280,140,71777,1,8,0:0:0:0:
180,116,71872,1,8,0:0:0:0:
148,144,72062,1,0,0:0:0:0:
148,144,72442,1,0,0:0:0:0:
148,144,72632,1,8,0:0:0:0:
148,144,72821,1,0,0:0:0:0:
148,144,73011,1,8,0:0:0:0:
148,144,73201,1,0,0:0:0:0:
148,144,73391,1,8,0:0:0:0:
172,108,73581,1,0,0:0:0:0:
252,100,73961,1,0,0:0:0:0:
252,100,74340,1,0,0:0:0:0:
180,120,74720,1,8,0:0:0:0:
128,132,74910,1,8,0:0:0:0:
128,132,75100,1,4,0:0:0:0:
252,100,75480,1,0,0:0:0:0:
252,100,75859,1,0,0:0:0:0:
252,100,76049,1,0,0:0:0:0:
252,100,76239,1,8,0:0:0:0:
252,100,76619,1,0,0:0:0:0:
252,100,76999,1,0,0:0:0:0:
252,100,77189,1,8,0:0:0:0:
212,112,77378,1,0,0:0:0:0:
172,128,77568,1,8,0:0:0:0:
172,128,77758,1,8,0:0:0:0:
100,100,78138,1,8,0:0:0:0:
140,88,78328,1,0,0:0:0:0:
184,72,78518,1,0,0:0:0:0:
148,84,78707,1,8,0:0:0:0:
148,84,78897,1,0,0:0:0:0:
164,92,78992,1,0,0:0:0:0:
148,84,79087,1,0,0:0:0:0:
148,84,79277,1,8,0:0:0:0:
148,84,79467,1,8,0:0:0:0:
136,164,79847,1,0,0:0:0:0:
144,124,80037,1,0,0:0:0:0:
437,123,81176,5,4,0:0:0:0:
437,123,81556,1,8,0:0:0:0:
437,123,81935,1,0,0:0:0:0:
437,123,82125,1,0,0:0:0:0:
437,123,82220,1,0,0:0:0:0:
437,123,82315,1,8,0:0:0:0:
437,123,82505,1,8,0:0:0:0:
437,123,82695,1,0,0:0:0:0:
437,123,83075,1,8,0:0:0:0:
437,123,83454,1,0,0:0:0:0:
437,123,83644,1,0,0:0:0:0:
437,123,83834,1,8,0:0:0:0:
437,123,84024,1,8,0:0:0:0:
437,123,84214,1,0,0:0:0:0:
437,123,84594,1,8,0:0:0:0:
437,123,84783,1,0,0:0:0:0:
437,123,85163,1,0,0:0:0:0:
437,123,85353,1,8,0:0:0:0:
437,123,85543,1,8,0:0:0:0:
437,123,85638,1,8,0:0:0:0:
437,123,85733,1,8,0:0:0:0:
437,123,85923,1,0,0:0:0:0:
437,123,86113,1,8,0:0:0:0:
437,123,86492,1,0,0:0:0:0:
437,123,86872,1,8,0:0:0:0:
437,123,87062,1,8,0:0:0:0:
437,123,87252,1,0,0:0:0:0:
437,123,87632,1,8,0:0:0:0:
437,123,88011,1,0,0:0:0:0:
437,123,88201,1,0,0:0:0:0:
437,123,88391,1,8,0:0:0:0:
437,123,88581,1,0,0:0:0:0:
437,123,88961,1,0,0:0:0:0:
437,123,89151,1,8,0:0:0:0:
437,123,89340,1,0,0:0:0:0:
437,123,89530,1,0,0:0:0:0:
437,123,89720,1,8,0:0:0:0:
437,123,89910,1,8,0:0:0:0:
437,123,90100,1,0,0:0:0:0:
437,123,90195,1,0,0:0:0:0:
437,123,90290,1,8,0:0:0:0:
437,123,90670,1,8,0:0:0:0:
437,123,90859,1,0,0:0:0:0:
437,123,91239,1,0,0:0:0:0:
437,123,91429,1,8,0:0:0:0:
437,123,91619,1,0,0:0:0:0:
437,123,91999,1,0,0:0:0:0:
437,123,92189,1,8,0:0:0:0:
437,123,92568,1,8,0:0:0:0:
437,123,92663,1,8,0:0:0:0:
437,123,92758,1,8,0:0:0:0:
437,123,92948,1,0,0:0:0:0:
437,123,93043,1,0,0:0:0:0:
437,123,93138,1,0,0:0:0:0:
408,140,93328,1,4,0:0:0:0:
344,180,93707,1,8,0:0:0:0:
312,188,93897,1,0,0:0:0:0:
296,192,93992,1,0,0:0:0:0:
276,220,94087,1,0,0:0:0:0:
276,220,94277,1,0,0:0:0:0:
276,220,94467,1,8,0:0:0:0:
276,220,94657,1,0,0:0:0:0:
236,152,95037,1,0,0:0:0:0:
216,120,95226,1,8,0:0:0:0:
216,120,95606,1,0,0:0:0:0:
216,120,95796,1,0,0:0:0:0:
216,120,95986,1,8,0:0:0:0:
216,120,96176,1,0,0:0:0:0:
216,120,96366,1,0,0:0:0:0:
152,168,96745,1,8,0:0:0:0:
212,116,97125,1,0,0:0:0:0:
180,140,97315,1,0,0:0:0:0:
152,140,97410,1,0,0:0:0:0:
184,140,97505,1,8,0:0:0:0:
184,140,97695,1,4,0:0:0:0:
264,120,98075,1,0,0:0:0:0:
232,128,98264,1,8,0:0:0:0:
232,128,98644,1,0,0:0:0:0:
248,128,99024,1,8,0:0:0:0:
276,128,99119,1,8,0:0:0:0:
232,128,99214,1,8,0:0:0:0:
232,128,99404,1,4,0:0:0:0:
156,124,99783,1,0,0:0:0:0:
236,128,100163,1,0,0:0:0:0:
196,112,100353,1,8,0:0:0:0:
196,112,100543,1,0,0:0:0:0:
176,44,100923,1,0,0:0:0:0:
220,112,101302,1,0,0:0:0:0:
204,84,101492,1,8,0:0:0:0:
204,84,101682,1,0,0:0:0:0:
192,168,102062,1,0,0:0:0:0:
192,168,102252,1,8,0:0:0:0:
192,168,102442,1,0,0:0:0:0:
192,168,102632,1,0,0:0:0:0:
136,124,103011,1,0,0:0:0:0:
212,184,103391,1,0,0:0:0:0:
188,164,103581,1,0,0:0:0:0:
164,144,103771,1,0,0:0:0:0:
164,176,105480,1,0,0:0:0:0:
164,176,105670,1,0,0:0:0:0:
164,176,105859,1,0,0:0:0:0:
164,176,106049,1,0,0:0:0:0:
164,176,106239,1,8,0:0:0:0:
164,176,106334,1,8,0:0:0:0:
164,176,106429,1,0,0:0:0:0:
164,176,106619,1,12,0:0:0:0:
451,97,106999,5,12,0:0:0:0:
451,97,107189,1,0,0:0:0:0:
451,97,107378,1,8,0:0:0:0:
451,97,107758,1,0,0:0:0:0:
451,97,108138,1,8,0:0:0:0:
451,97,108328,1,0,0:0:0:0:
451,97,108707,1,0,0:0:0:0:
451,97,108897,1,8,0:0:0:0:
451,97,109087,1,0,0:0:0:0:
451,97,109277,1,0,0:0:0:0:
451,97,109467,1,0,0:0:0:0:
451,97,109657,1,8,0:0:0:0:
451,97,110037,1,8,0:0:0:0:
451,97,110226,1,0,0:0:0:0:
451,97,110416,1,8,0:0:0:0:
451,97,110796,1,0,0:0:0:0:
451,97,110986,1,0,0:0:0:0:
451,97,111176,1,8,0:0:0:0:
451,97,111366,1,0,0:0:0:0:
451,97,111745,1,0,0:0:0:0:
451,97,111935,1,8,0:0:0:0:
451,97,112125,1,0,0:0:0:0:
451,97,112220,1,0,0:0:0:0:
451,97,112315,1,0,0:0:0:0:
451,97,112505,1,0,0:0:0:0:
451,97,112695,1,8,0:0:0:0:
451,97,112885,1,0,0:0:0:0:
451,97,113075,1,4,0:0:0:0:
451,97,113454,1,0,0:0:0:0:
451,97,113834,1,8,0:0:0:0:
451,97,114214,1,0,0:0:0:0:
451,97,114404,1,0,0:0:0:0:
451,97,114783,1,0,0:0:0:0:
451,97,115163,1,0,0:0:0:0:
451,97,115353,1,8,0:0:0:0:
451,97,115543,1,0,0:0:0:0:
451,97,115733,1,0,0:0:0:0:
451,97,116113,1,0,0:0:0:0:
451,97,116302,1,8,0:0:0:0:
451,97,116492,1,0,0:0:0:0:
451,97,116872,1,8,0:0:0:0:
451,97,117252,1,0,0:0:0:0:
451,97,117442,1,0,0:0:0:0:
451,97,117821,1,0,0:0:0:0:
451,97,118201,1,0,0:0:0:0:
451,97,118391,1,8,0:0:0:0:
451,97,118486,1,8,0:0:0:0:
451,97,118581,1,8,0:0:0:0:
451,97,118676,1,8,0:0:0:0:
451,97,118771,1,8,0:0:0:0:
451,97,118961,1,0,0:0:0:0:
416,124,119151,1,4,0:0:0:0:
372,128,119340,1,0,0:0:0:0:
364,168,119530,1,12,0:0:0:0:
276,160,119910,1,0,0:0:0:0:
232,156,120100,1,0,0:0:0:0:
188,152,120290,1,8,0:0:0:0:
148,148,120480,1,0,0:0:0:0:
236,128,120859,1,0,0:0:0:0:
272,124,121049,1,8,0:0:0:0:
272,124,121144,1,8,0:0:0:0:
272,124,121239,1,0,0:0:0:0:
188,152,121429,1,0,0:0:0:0:
196,148,121619,1,0,0:0:0:0:
232,136,121809,1,8,0:0:0:0:
160,160,121999,1,0,0:0:0:0:
160,160,122189,1,0,0:0:0:0:
100,116,122568,1,8,0:0:0:0:
168,164,122948,1,0,0:0:0:0:
136,140,123138,1,0,0:0:0:0:
136,140,123233,1,0,0:0:0:0:
136,140,123328,1,8,0:0:0:0:
136,140,123518,1,0,0:0:0:0:
212,136,123897,1,0,0:0:0:0:
176,140,124087,1,8,0:0:0:0:
176,140,124467,1,0,0:0:0:0:
176,140,124657,1,0,0:0:0:0:
176,140,124847,1,8,0:0:0:0:
176,140,125226,1,4,0:0:0:0:
176,140,125416,1,0,0:0:0:0:
176,140,125606,1,0,0:0:0:0:
176,140,125986,1,8,0:0:0:0:
176,140,126366,1,0,0:0:0:0:
176,140,126556,1,0,0:0:0:0:
208,128,126745,1,8,0:0:0:0:
176,140,126935,1,0,0:0:0:0:
200,132,127125,1,8,0:0:0:0:
176,140,127315,1,0,0:0:0:0:
176,140,127505,1,8,0:0:0:0:
184,140,127885,1,8,0:0:0:0:
204,144,127980,1,8,0:0:0:0:
176,140,128075,1,8,0:0:0:0:
176,140,128264,1,0,0:0:0:0:
176,140,128454,1,8,0:0:0:0:
176,140,128644,1,0,0:0:0:0:
176,140,129024,1,8,0:0:0:0:
176,140,129404,1,0,0:0:0:0:
176,140,129594,1,0,0:0:0:0:
124,200,129973,1,0,0:0:0:0:
148,172,130163,1,8,0:0:0:0:
176,136,130353,1,0,0:0:0:0:
148,172,130543,1,8,0:0:0:0:
148,172,130733,1,0,0:0:0:0:
148,172,130923,1,8,0:0:0:0:
176,140,131113,1,8,0:0:0:0:
140,160,131302,1,8,0:0:0:0:
212,120,131682,1,8,0:0:0:0:
140,160,132062,1,8,0:0:0:0:
216,120,132442,1,8,0:0:0:0:
176,140,132632,1,0,0:0:0:0:
140,160,132821,1,8,0:0:0:0:
176,140,133201,1,8,0:0:0:0:
176,140,133581,1,8,0:0:0:0:
216,120,133961,1,8,0:0:0:0:
168,128,134151,1,0,0:0:0:0:
216,120,134340,1,8,0:0:0:0:
216,120,134530,1,8,0:0:0:0:
216,120,134720,1,8,0:0:0:0:
216,120,135100,1,8,0:0:0:0:
216,120,135480,1,8,0:0:0:0:
216,120,135670,1,8,0:0:0:0:
224,156,135859,1,8,0:0:0:0:
216,120,136049,1,8,0:0:0:0:
216,88,136202,1,8,0:0:0:0:
216,88,136391,1,0,0:0:0:0:
