osu file format v12

[General]
AudioFilename: Silent Siren.mp3
AudioLeadIn: 0
PreviewTime: 80226
Countdown: 0
SampleSet: Soft
StackLeniency: 0.5
Mode: 0
LetterboxInBreaks: 1
WidescreenStoryboard: 0

[Editor]
DistanceSpacing: 0.6
BeatDivisor: 4
GridSize: 4
TimelineZoom: 1

[Metadata]
Title:stella*
TitleUnicode:stella☆
Artist:Silent Siren
ArtistUnicode:Silent Siren
Creator:captin1
Version:Insane
Source:
Tags:start raose climbb65588 kanpakyin
BeatmapID:397832
BeatmapSetID:163253

[Difficulty]
HPDrainRate:7
CircleSize:4
OverallDifficulty:7
ApproachRate:8
SliderMultiplier:1.8
SliderTickRate:2

[Events]
//Background and Video events
0,0,"39662910.jpg",0,0
//Break Periods
2,131503,135452
//Storyboard Layer 0 (Background)
//Storyboard Layer 1 (Fail)
//Storyboard Layer 2 (Pass)
//Storyboard Layer 3 (Foreground)
//Storyboard Sound Samples
//Background Colour Transformations
3,100,163,162,255

[TimingPoints]
2189,379.746835443038,4,2,1,70,1,0
2189,-100,4,2,2,70,0,0
8264,-100,4,2,1,70,0,0
13771,-100,4,2,1,60,0,0
14340,-100,4,2,2,70,0,0
20037,-100,4,2,1,70,0,0
26492,-133.333333333333,4,2,1,70,0,0
32568,-111.111111111111,4,2,2,70,0,0
43201,-111.111111111111,4,2,1,5,0,0
44720,-100,4,2,1,70,0,0
56872,-133.333333333333,4,2,1,70,0,0
69024,-100,4,2,1,70,0,0
80226,-100,4,2,0,70,0,0
81176,-100,4,2,1,70,0,1
102442,-100,4,2,1,60,0,1
103771,-100,4,2,1,70,0,0
105480,-100,4,2,1,50,0,0
105670,-100,4,2,1,55,0,0
105859,-100,4,2,1,60,0,0
106049,-100,4,2,1,65,0,0
106239,-100,4,2,1,70,0,0
113075,-133.333333333333,4,2,1,70,0,0
118391,-100,4,2,1,60,0,0
119151,-100,4,2,1,70,0,0
127885,-133.333333333333,4,2,1,70,0,0
128454,-100,4,2,1,70,0,0
130543,-100,4,2,1,60,0,0
131113,-100,4,2,1,70,0,0
136202,379.746835443038,4,2,1,70,1,0
136391,-83.3333333333333,4,2,1,70,0,0

[Colours]
Combo1 : 242,24,57
Combo2 : 255,113,45
Combo3 : 3,101,248

[HitObjects]
132,208,2189,6,0,L|120:300,2,90,2|0|0,0:0|0:0|0:0,0:0:0:0:
316,49,2949,2,0,P|274:125|306:206,1,180,2|0,0:0|0:0,0:0:0:0:
380,132,3518,2,0,P|406:167|412:211,1,90,2|0,0:0|0:0,0:0:0:0:
352,308,3898,2,0,P|400:328|456:316,1,90
300,240,4278,2,0,P|256:248|220:280,1,90,2|0,0:0|0:0,0:0:0:0:
88,224,4658,2,0,P|176:212|216:132,1,180,2|0,0:0|0:0,0:0:0:0:
16,164,5227,6,0,P|-4:212|4:260,1,90
176,296,5607,2,0,L|264:356,1,90
232,172,5987,1,2,0:0:0:0:
484,236,6367,1,0,0:0:0:0:
388,280,6557,2,0,P|376:232|388:188,1,90,2|0,0:0|0:0,0:0:0:0:
512,96,6936,2,0,P|484:144|444:164,1,90
320,112,7316,6,0,B|288:112|268:128|268:128|232:108|232:108|192:144|132:120,1,180,2|0,0:0|0:0,0:0:0:0:
40,32,7886,1,0,0:0:0:0:
56,52,7981,1,0,0:0:0:0:
64,80,8076,1,0,0:0:0:0:
64,108,8170,1,0,0:0:0:0:
56,136,8265,6,0,P|60:184|80:224,1,90,6|0,0:0|0:0,0:0:0:0:
244,312,8645,1,8,0:0:0:0:
204,180,8835,1,0,0:0:0:0:
11,305,9025,2,0,L|100:324,1,90,2|2,0:0|0:0,0:0:0:0:
60,184,9405,1,8,0:0:0:0:
168,276,9595,6,0,L|176:368,1,90,2|0,0:0|0:0,0:0:0:0:
312,352,9974,1,2,0:0:0:0:
344,200,10164,1,8,0:0:0:0:
392,320,10354,1,0,0:0:0:0:
236,188,10544,2,0,P|188:184|140:204,1,90,2|2,0:0|0:0,0:0:0:0:
232,352,10924,2,0,P|280:312|292:280,1,90,8|2,0:0|0:0,0:0:0:0:
272,108,11303,6,0,P|328:124|380:240,1,180,2|8,0:0|0:0,0:0:0:0:
236,256,11873,1,0,0:0:0:0:
452,176,12063,2,0,L|456:292,1,90,2|2,0:0|0:0,0:0:0:0:
288,320,12443,1,8,0:0:0:0:
268,136,12632,6,0,L|368:104,2,90,2|0|2,0:0|0:0|0:0,0:0:0:0:
164,304,13202,2,0,P|120:276|100:236,1,90,8|0,0:0|0:0,0:0:0:0:
192,52,13582,1,2,0:0:0:0:
224,200,13772,1,8,0:3:0:0:
64,128,13962,1,8,0:0:0:0:
36,136,14057,1,8,0:0:0:0:
16,156,14151,1,8,0:3:0:0:
52,284,14341,6,0,L|80:372,2,90,4|0|0,0:0|0:0|0:0,0:0:0:0:
184,116,15101,2,0,P|237:108|318:202,1,180,2|0,0:0|0:0,0:0:0:0:
232,288,15670,2,0,P|275:306|336:312,1,90,2|0,0:0|0:0,0:0:0:0:
472,152,16050,2,0,P|431:134|368:128,1,90
440,360,16430,2,0,P|450:307|435:257,1,90,2|0,0:0|0:0,0:0:0:0:
312,176,16810,2,0,P|256:180|180:84,1,180,2|2,0:0|0:0,0:0:0:0:
92,152,17379,6,0,P|116:200|148:232,1,90
308,100,17759,2,0,L|372:36,1,90
180,48,18138,1,2,0:0:0:0:
296,308,18519,1,0,0:0:0:0:
396,284,18708,2,0,P|377:239|339:214,1,90,2|0,0:0|0:0,0:0:0:0:
208,160,19088,2,0,P|236:208|276:228,1,90
436,152,19468,6,0,B|471:132|471:132|412:80|340:128,1,180,2|0,0:0|0:0,0:0:0:0:
256,264,20038,1,8,0:0:0:0:
228,264,20132,1,0,0:0:0:0:
204,256,20227,1,0,0:0:0:0:
184,240,20322,1,0,0:0:0:0:
168,216,20417,6,0,P|152:156|164:116,1,90,6|0,0:0|0:0,0:0:0:0:
296,68,20797,1,8,0:0:0:0:
108,40,20987,1,0,0:0:0:0:
276,156,21177,2,0,L|328:236,1,90,2|2,0:0|0:0,0:0:0:0:
192,340,21557,1,8,0:0:0:0:
200,188,21746,1,2,0:0:0:0:
348,308,21936,6,0,P|308:336|256:340,1,90,0|2,0:0|0:0,0:0:0:0:
340,228,22316,2,0,P|392:240|420:272,1,90,8|0,0:0|0:0,0:0:0:0:
188,256,22696,1,2,0:0:0:0:
328,124,22886,1,2,0:0:0:0:
212,324,23075,2,2,L|124:360,1,90,8|2,0:0|0:0,0:0:0:0:
56,96,23455,6,0,P|128:84|208:156,1,180,2|8,0:0|0:0,0:0:0:0:
76,296,24025,1,0,0:0:0:0:
120,172,24215,2,0,L|108:64,1,90,2|2,0:0|0:0,0:0:0:0:
52,220,24595,1,8,0:0:0:0:
212,168,24784,6,0,P|244:200|260:248,1,90,2|0,0:0|0:0,0:0:0:0:
176,324,25164,1,2,0:0:0:0:
136,140,25354,1,8,0:0:0:0:
288,312,25544,1,0,0:0:0:0:
104,208,25734,1,2,0:0:0:0:
20,344,25924,1,8,0:3:0:0:
0,164,26114,2,0,L|92:124,1,90,8|0,0:0|0:0,0:0:0:0:
248,168,26493,6,0,P|292:156|320:136,2,67.5000025749208,6|0|2,0:0|0:0|0:0,0:0:0:0:
248,168,27253,1,8,0:0:0:0:
64,136,27632,1,2,0:0:0:0:
64,136,27822,2,0,L|53:69,1,67.5000025749208,2|0,0:0|0:0,0:0:0:0:
144,184,28202,2,0,L|196:232,1,67.5000025749208,2|0,0:0|0:0,0:0:0:0:
340,208,28582,1,2,0:0:0:0:
412,256,28771,2,0,P|356:292|328:292,2,67.5000025749208,8|0|0,0:0|0:0|0:0,0:0:0:0:
312,72,29531,6,0,P|316:116|296:164,2,67.5000025749208,2|0|2,0:0|0:0|0:0,0:0:0:0:
312,72,30291,1,8,0:0:0:0:
448,228,30670,1,2,0:0:0:0:
448,228,30860,2,0,L|492:296,1,67.5000025749208,2|0,0:0|0:0,0:0:0:0:
372,256,31239,2,0,L|335:199,1,67.5000025749208,2|0,0:0|0:0,0:0:0:0:
304,312,31620,5,2,0:0:0:0:
304,312,31809,2,0,P|260:316|224:304,1,67.5000025749208,8|8,0:0|0:3,0:0:0:0:
160,200,32189,1,8,0:3:0:0:
184,360,32379,1,0,0:0:0:0:
360,224,32569,6,0,L|348:136,1,80.9999975280763,4|0,0:0|0:0,0:0:0:0:
204,82,32949,1,0,0:0:0:0:
110,65,33139,1,0,0:0:0:0:
138,157,33329,2,0,P|151:195|180:224,1,80.9999975280763,2|0,0:0|0:0,0:0:0:0:
336,272,33708,2,0,P|292:296|252:296,1,80.9999975280763,0|0,0:0|0:0,0:0:0:0:
128,361,34087,6,0,P|182:302|180:224,1,161.999995056153,2|0,0:0|0:0,0:0:0:0:
28,80,34658,1,0,0:0:0:0:
12,176,34848,2,0,L|44:260,1,80.9999975280763,2|0,0:0|0:0,0:0:0:0:
152,144,35227,2,0,L|123:68,1,80.9999975280763,0|2,0:0|0:0,0:0:0:0:
252,36,35607,6,0,P|254:99|245:122,1,80.9999975280763,2|0,0:0|0:0,0:0:0:0:
144,240,35986,2,0,P|180:268|220:272,1,80.9999975280763,0|0,0:0|0:0,0:0:0:0:
328,144,36367,1,2,0:0:0:0:
400,208,36557,2,0,P|404:256|388:296,2,80.9999975280763
308,56,37126,5,2,0:0:0:0:
192,128,37316,1,0,0:0:0:0:
328,144,37506,2,0,L|408:108,1,80.9999975280763,0|0,0:0|0:0,0:0:0:0:
292,240,37886,2,0,P|244:212|236:104,1,161.999995056153,2|0,0:0|0:0,0:0:0:0:
140,40,38455,1,0,0:0:0:0:
140,40,38550,1,0,0:0:0:0:
140,40,38645,6,0,L|136:128,1,80.9999975280763,2|0,0:0|0:0,0:0:0:0:
48,184,39025,1,0,0:0:0:0:
236,176,39214,2,0,L|324:212,1,80.9999975280763,2|0,0:0|0:0,0:0:0:0:
264,340,39595,2,0,P|244:292|248:248,1,80.9999975280763
344,124,39974,1,2,0:0:0:0:
380,260,40164,5,0,0:0:0:0:
272,104,40354,2,0,L|192:72,1,80.9999975280763
120,212,40734,2,0,P|168:184|184:148,1,80.9999975280763,2|0,0:0|0:0,0:0:0:0:
56,32,41114,1,0,0:0:0:0:
8,120,41303,1,0,0:0:0:0:
64,40,41493,1,0,0:0:0:0:
64,40,41588,1,0,0:0:0:0:
64,40,41683,6,0,P|116:36|148:16,1,80.9999975280763,2|0,0:0|0:0,0:0:0:0:
272,84,42063,1,0,0:0:0:0:
128,128,42253,1,0,0:0:0:0:
304,12,42443,2,0,L|384:56,2,80.9999975280763,2|0|0,0:0|0:0|0:0,0:0:0:0:
224,172,43011,2,0,L|132:220,1,80.9999975280763,2|0,0:0|0:0,0:0:0:0:
256,192,43391,12,0,44529,0:0:0:0:
224,172,44721,5,6,0:0:0:0:
192,280,44911,1,0,0:0:0:0:
292,104,45100,2,0,P|344:96|384:104,1,90,8|0,0:0|0:0,0:0:0:0:
284,244,45481,1,2,0:0:0:0:
208,92,45670,1,2,0:0:0:0:
88,216,45860,2,0,L|96:308,1,90,8|2,0:0|0:0,0:0:0:0:
176,176,46240,6,0,P|140:132|80:120,1,90,0|2,0:0|0:0,0:0:0:0:
0,200,46620,1,8,0:0:0:0:
15,340,46810,1,0,0:0:0:0:
15,340,46905,1,0,0:0:0:0:
15,340,47000,2,0,L|101:315,1,90,2|2,0:0|0:0,0:0:0:0:
264,376,47379,1,8,0:0:0:0:
200,216,47569,1,0,0:0:0:0:
336,320,47759,6,0,P|392:323|432:304,1,90,2|0,0:0|0:0,0:0:0:0:
356,144,48139,1,8,0:0:0:0:
288,232,48329,1,0,0:0:0:0:
452,188,48519,2,0,P|464:136|452:96,1,90,2|2,0:0|0:0,0:0:0:0:
280,64,48898,1,8,0:0:0:0:
372,220,49088,1,2,0:0:0:0:
184,216,49278,6,0,P|156:156|168:108,1,90,0|2,0:0|0:0,0:0:0:0:
276,240,49658,2,0,P|304:300|292:348,1,90,8|0,0:0|0:0,0:0:0:0:
116,284,50037,2,0,L|20:248,1,90,2|2,0:0|0:0,0:0:0:0:
196,356,50416,1,8,0:0:0:0:
196,356,50511,1,0,0:0:0:0:
196,356,50607,1,0,0:0:0:0:
196,356,50702,1,0,0:0:0:0:
196,356,50797,6,0,P|248:348|284:320,1,90,2|0,0:0|0:0,0:0:0:0:
212,132,51177,1,8,0:0:0:0:
132,208,51367,2,0,L|208:256,1,90,0|2,0:0|0:0,0:0:0:0:
388,228,51746,1,2,0:0:0:0:
344,352,51936,1,8,0:0:0:0:
292,196,52126,6,0,L|284:96,2,90,2|0|2,0:0|0:0|0:0,0:0:0:0:
176,320,52696,2,0,P|112:328|80:312,1,90,8|0,0:0|0:0,0:0:0:0:
72,112,53076,1,2,0:0:0:0:
228,232,53265,1,2,0:0:0:0:
60,220,53455,1,8,0:0:0:0:
184,144,53645,1,2,0:0:0:0:
304,244,53835,6,0,P|356:252|400:240,1,90,2|0,0:0|0:0,0:0:0:0:
476,84,54215,2,0,P|420:88|364:132,1,90,8|0,0:0|0:0,0:0:0:0:
256,172,54594,2,0,L|180:228,1,90,2|2,0:0|0:0,0:0:0:0:
212,96,54974,1,8,0:0:0:0:
360,188,55164,6,0,P|408:192|452:172,1,90,2|0,0:0|0:0,0:0:0:0:
496,308,55544,1,2,0:0:0:0:
496,308,55639,1,0,0:0:0:0:
496,308,55734,1,8,0:0:0:0:
360,188,55924,1,0,0:0:0:0:
268,340,56113,2,0,P|216:348|176:332,1,90,2|8,0:0|0:3,0:0:0:0:
132,148,56493,1,8,0:0:0:0:
132,148,56873,6,0,P|124:200|100:232,1,67.5000025749208,4|0,0:0|0:0,0:0:0:0:
36,280,57253,2,0,P|32:324|52:368,1,67.5000025749208,0|2,0:0|0:0,0:0:0:0:
184,272,57632,2,0,P|216:236|244:228,1,67.5000025749208,8|0,0:0|0:0,0:0:0:0:
312,324,58012,1,2,0:0:0:0:
432,304,58202,1,2,0:0:0:0:
308,224,58392,2,0,P|300:160|344:104,2,135.000005149842,0|0|8,0:0|0:0|0:0,0:0:0:0:
224,344,59531,2,0,L|144:336,1,67.5000025749208,0|2,0:0|0:0,0:0:0:0:
100,236,59910,6,0,P|152:264|180:264,1,67.5000025749208,2|0,0:0|0:0,0:0:0:0:
248,204,60291,2,0,P|280:216|308:240,1,67.5000025749208,0|2,0:0|0:0,0:0:0:0:
172,164,60670,2,0,P|208:128|236:120,1,67.5000025749208,8|0,0:0|0:0,0:0:0:0:
300,264,61050,1,2,0:0:0:0:
152,296,61239,1,2,0:0:0:0:
296,360,61430,2,0,P|352:344|428:368,2,135.000005149842,0|0|8,0:0|0:0|0:0,0:0:0:0:
84,328,62569,2,0,P|48:304|36:268,1,67.5000025749208,0|2,0:0|0:0,0:0:0:0:
72,184,62949,6,0,P|120:208|160:200,1,67.5000025749208,2|0,0:0|0:0,0:0:0:0:
228,156,63329,2,0,P|260:176|280:208,1,67.5000025749208,0|2,0:0|0:0,0:0:0:0:
196,364,63707,2,0,P|156:356|112:268,1,135.000005149842,8|0,0:0|0:0,0:0:0:0:
136,96,64278,1,2,0:0:0:0:
188,248,64468,1,0,0:0:0:0:
228,156,64658,2,0,L|272:88,1,67.5000025749208,2|0,0:0|0:0,0:0:0:0:
272,260,65038,2,0,L|235:316,1,67.5000025749208,2|8,0:0|0:0,0:0:0:0:
72,360,65417,1,0,0:0:0:0:
8,256,65606,1,0,0:0:0:0:
28,136,65796,1,2,0:0:0:0:
28,136,65987,6,0,P|76:144|108:136,2,67.5000025749208,2|0|0,0:0|0:0|0:0,0:0:0:0:
40,28,66557,1,2,0:0:0:0:
176,112,66746,2,0,P|180:148|156:196,1,67.5000025749208,8|0,0:0|0:0,0:0:0:0:
76,264,67125,2,0,P|96:308|112:324,1,67.5000025749208,0|2,0:0|0:0,0:0:0:0:
208,288,67506,2,0,B|256:284|256:284|284:332|344:320,2,135.000005149842,2|0|8,0:0|0:0|0:0,0:0:0:0:
160,184,68455,1,8,0:3:0:0:
316,164,68645,1,8,0:3:0:0:
224,80,68835,1,0,0:0:0:0:
256,284,69025,6,0,L|240:376,1,90,6|0,0:0|0:0,0:0:0:0:
72,232,69404,2,0,P|60:172|76:140,1,90,2|0,0:0|0:0,0:0:0:0:
240,196,69784,2,0,P|312:224|396:168,1,180,2|0,0:0|0:0,0:0:0:0:
248,116,70354,1,0,0:0:0:0:
324,296,70544,6,0,P|364:326|421:326,1,90,2|0,0:0|0:0,0:0:0:0:
432,108,70924,1,2,0:0:0:0:
292,184,71114,1,0,0:0:0:0:
130,136,71303,2,0,P|89:117|61:82,1,90,2|0,0:0|0:0,0:0:0:0:
168,292,71683,1,8,0:0:0:0:
24,232,71873,1,0,0:0:0:0:
204,204,72063,6,0,L|260:280,1,90,2|0,0:0|0:0,0:0:0:0:
352,132,72443,2,0,L|296:56,1,90,2|0,0:0|0:0,0:0:0:0:
140,128,72822,2,0,P|108:188|176:300,1,180,2|0,0:0|0:0,0:0:0:0:
304,224,73392,6,0,L|352:212,2,45,0|0|2,0:0|0:0|0:0,0:0:0:0:
204,340,73772,1,0,0:0:0:0:
56,296,73962,2,0,P|32:232|32:200,1,90,2|0,0:0|0:0,0:0:0:0:
224,112,74341,2,0,P|216:164|192:200,1,90,2|0,0:0|0:0,0:0:0:0:
64,104,74721,1,8,0:0:0:0:
196,32,74911,1,0,0:0:0:0:
292,148,75101,6,0,L|356:224,1,90,6|0,0:0|0:0,0:0:0:0:
224,288,75481,1,8,0:0:0:0:
252,116,75670,1,0,0:0:0:0:
368,132,75860,1,2,0:0:0:0:
352,308,76050,1,0,0:0:0:0:
184,188,76240,1,8,0:0:0:0:
292,148,76430,1,0,0:0:0:0:
244,356,76619,6,0,L|152:380,1,90,2|0,0:0|0:0,0:0:0:0:
32,228,76999,1,8,0:0:0:0:
176,276,77189,2,0,P|248:248|264:228,1,90,0|2,0:0|0:0,0:0:0:0:
184,80,77569,2,0,P|168:124|180:180,1,90,0|8,0:0|0:0,0:0:0:0:
312,288,77949,1,0,0:0:0:0:
364,88,78139,5,8,0:0:0:0:
204,212,78329,1,2,0:0:0:0:
128,104,78518,1,2,0:0:0:0:
335,23,78708,5,8,0:0:0:0:
272,216,78898,1,2,0:0:0:0:
148,168,79087,1,2,0:0:0:0:
360,160,79278,5,12,0:0:0:0:
164,280,79468,1,12,0:0:0:0:
268,144,79657,1,0,0:0:0:0:
268,144,79752,1,0,0:0:0:0:
268,144,79847,2,0,L|252:48,1,90,8|8,0:3|0:3,0:0:0:0:
292,258,80227,5,0,0:0:0:0:
292,258,80417,1,0,0:0:0:0:
228,312,80607,1,2,0:0:0:0:
276,176,80797,1,2,0:0:0:0:
372,284,80987,1,0,0:0:0:0:
196,228,81177,6,0,L|100:248,1,90,4|0,0:0|0:0,0:0:0:0:
28,68,81557,1,8,0:0:0:0:
136,88,81746,2,0,P|168:48|180:4,1,90,0|2,0:0|0:0,0:0:0:0:
40,172,82126,1,2,0:0:0:0:
224,128,82316,1,8,0:0:0:0:
188,308,82506,6,0,P|140:288|144:164,1,180,2|2,0:0|0:0,0:0:0:0:
312,188,83076,1,8,0:0:0:0:
412,320,83265,1,0,0:0:0:0:
412,320,83360,1,0,0:0:0:0:
412,320,83455,2,0,L|424:228,1,90,2|2,0:0|0:0,0:0:0:0:
296,88,83835,1,8,0:0:0:0:
352,248,84025,1,2,0:0:0:0:
448,100,84215,6,0,L|408:12,1,90,2|0,0:0|0:0,0:0:0:0:
276,176,84595,1,8,0:0:0:0:
272,324,84783,2,0,P|224:296|200:252,1,90,0|2,0:0|0:0,0:0:0:0:
372,172,85164,2,0,P|416:168|472:188,1,90,2|8,0:0|0:0,0:0:0:0:
148,312,85544,6,0,B|116:299|109:263|109:263|169:220|156:147,1,180,6|0,0:0|0:0,0:0:0:0:
32,96,86114,2,0,P|44:152|76:184,1,90,8|0,0:0|0:0,0:0:0:0:
220,268,86493,2,0,P|276:280|312:272,1,90,2|2,0:0|0:0,0:0:0:0:
400,128,86873,1,8,0:0:0:0:
272,180,87063,1,2,0:0:0:0:
412,240,87253,6,0,L|516:232,1,90,0|0,0:0|0:0,0:0:0:0:
428,48,87632,2,0,P|368:48|332:76,1,90,8|0,0:0|0:0,0:0:0:0:
272,180,88012,2,0,P|280:220|264:280,1,90,2|2,0:0|0:0,0:0:0:0:
188,384,88392,1,8,0:0:0:0:
64,296,88582,6,0,L|156:320,1,90,2|0,0:0|0:0,0:0:0:0:
144,176,88961,2,0,L|56:152,1,90,2|8,0:0|0:0,0:0:0:0:
248,84,89340,2,0,P|324:80|352:64,2,90,0|2|2,0:0|0:0|0:0,0:0:0:0:
108,24,89911,1,8,0:0:0:0:
268,168,90101,1,0,0:0:0:0:
55,120,90291,6,0,P|53:164|70:205,1,90,2|0,0:0|0:0,0:0:0:0:
232,280,90670,1,8,0:0:0:0:
268,168,90860,2,0,P|216:152|168:160,1,90,0|2,0:0|0:0,0:0:0:0:
336,336,91239,2,0,P|388:352|436:344,1,90,2|8,0:0|0:0,0:0:0:0:
264,64,91620,6,0,P|280:144|368:176,1,180,6|2,0:0|0:0,0:0:0:0:
488,44,92189,2,0,L|388:52,1,90,8|0,0:0|0:0,0:0:0:0:
300,192,92569,1,8,0:0:0:0:
280,212,92663,1,8,0:0:0:0:
256,220,92759,1,0,0:0:0:0:
228,224,92853,1,0,0:0:0:0:
200,220,92949,2,0,L|180:172,1,45,8|8,0:3|0:3,0:0:0:0:
116,248,93139,2,0,L|133:289,1,45,2|2,0:0|0:0,0:0:0:0:
24,252,93329,6,0,B|32:236|16:208|16:208|28:188|28:188|12:124|76:84,1,180,6|8,0:0|0:0,0:0:0:0:
196,108,93898,2,0,P|172:152|136:172,1,90,0|2,0:0|0:0,0:0:0:0:
24,32,94278,1,2,0:0:0:0:
160,24,94467,1,8,0:0:0:0:
92,188,94658,6,0,L|4:216,1,90,2|0,0:0|0:0,0:0:0:0:
136,316,95038,1,2,0:0:0:0:
232,268,95227,2,0,P|220:220|188:192,1,90,8|0,0:0|0:0,0:0:0:0:
84,104,95607,1,2,0:0:0:0:
88,252,95797,1,2,0:0:0:0:
240,152,95987,1,8,0:0:0:0:
28,168,96177,1,2,0:0:0:0:
232,268,96366,6,0,P|292:256|324:220,1,90,2|0,0:0|0:0,0:0:0:0:
388,84,96745,1,8,0:0:0:0:
452,168,96936,2,0,L|408:272,1,90,0|2,0:0|0:0,0:0:0:0:
248,188,97316,2,0,L|283:105,1,90,2|8,0:0|0:0,0:0:0:0:
328,264,97696,6,0,B|328:312|360:348|360:348|412:344|456:388,1,180,6|2,0:0|0:0,0:0:0:0:
448,264,98265,1,8,0:0:0:0:
248,268,98455,1,0,0:0:0:0:
383,171,98645,2,0,P|395:127|388:84,1,90,2|2,0:0|0:0,0:0:0:0:
224,44,99025,1,8,0:0:0:0:
140,212,99215,1,0,0:0:0:0:
316,144,99405,6,0,L|364:52,1,90,6|0,0:0|0:0,0:0:0:0:
140,48,99784,2,0,L|98:127,1,90,8|2,0:0|0:0,0:0:0:0:
136,336,100164,1,8,0:0:0:0:
200,192,100354,1,2,0:0:0:0:
224,344,100544,1,8,0:0:0:0:
148,144,100734,1,2,0:0:0:0:
60,292,100923,6,0,L|4:364,1,90,2|0,0:0|0:0,0:0:0:0:
208,268,101303,2,0,P|264:252|292:220,1,90,8|2,0:0|0:0,0:0:0:0:
104,132,101683,2,0,P|96:184|112:224,1,90,8|2,0:0|0:0,0:0:0:0:
276,140,102063,1,8,0:0:0:0:
392,280,102253,1,2,0:0:0:0:
216,352,102442,5,12,0:3:0:0:
392,280,102632,1,12,0:3:0:0:
140,300,103012,1,12,0:3:0:0:
436,244,103392,5,12,0:3:0:0:
248,56,103582,1,12,0:3:0:0:
140,300,103772,1,12,0:3:0:0:
288,256,105481,5,8,0:3:0:0:
224,128,105670,1,8,0:3:0:0:
320,160,105860,1,8,0:3:0:0:
192,224,106050,1,8,0:3:0:0:
384,204,106240,6,0,L|428:168,1,45,8|0,0:0|0:0,0:0:0:0:
324,64,106430,2,0,L|289:92,1,45,8|0,0:3|0:0,0:0:0:0:
288,256,106620,1,12,0:0:0:0:
276,280,106715,1,0,0:0:0:0:
256,296,106810,1,0,0:0:0:0:
232,304,106905,1,0,0:0:0:0:
204,304,107000,6,0,P|144:316|116:336,1,90,6|0,0:0|0:0,0:0:0:0:
348,332,107379,1,8,0:0:0:0:
412,232,107569,2,0,P|380:192|332:176,1,90,0|2,0:0|0:0,0:0:0:0:
216,224,107949,2,0,L|128:196,1,90,2|8,0:0|0:0,0:0:0:0:
144,44,108329,6,0,P|168:96|168:136,2,90,2|0|2,0:0|0:0|0:0,0:0:0:0:
40,124,108898,1,8,0:0:0:0:
100,272,109088,1,0,0:0:0:0:
260,240,109278,2,0,L|320:320,1,90,2|2,0:0|0:0,0:0:0:0:
496,252,109658,2,0,L|400:228,1,90,8|2,0:0|0:0,0:0:0:0:
316,64,110038,5,2,0:0:0:0:
320,172,110227,2,0,P|248:208|212:208,1,90,0|8,0:0|0:0,0:0:0:0:
264,16,110607,1,0,0:0:0:0:
408,36,110797,1,2,0:0:0:0:
348,192,110987,1,2,0:0:0:0:
216,68,111177,1,8,0:0:0:0:
200,176,111367,6,0,P|212:228|240:256,1,90,2|0,0:0|0:0,0:0:0:0:
392,128,111746,1,2,0:0:0:0:
152,112,111936,1,8,0:0:0:0:
364,24,112126,1,0,0:0:0:0:
304,256,112316,2,0,L|248:328,1,90,2|8,0:0|0:3,0:0:0:0:
84,252,112696,2,0,P|140:240|176:252,1,90,8|0,0:0|0:0,0:0:0:0:
372,304,113076,6,0,P|404:288|424:256,2,67.5000025749208,6|0|2,0:0|0:0|0:0,0:0:0:0:
372,304,113835,1,8,0:0:0:0:
296,128,114215,1,2,0:0:0:0:
296,128,114405,2,0,L|364:96,1,67.5000025749208,2|0,0:0|0:0,0:0:0:0:
248,188,114784,2,0,L|220:256,1,67.5000025749208,2|0,0:0|0:0,0:0:0:0:
96,320,115164,1,2,0:0:0:0:
24,272,115353,2,0,P|56:240|96:232,2,67.5000025749208,8|0|0,0:0|0:0|0:0,0:0:0:0:
224,340,116114,6,0,P|264:340|292:328,2,67.5000025749208,2|0|2,0:0|0:0|0:0,0:0:0:0:
224,340,116873,1,8,0:0:0:0:
188,132,117253,1,2,0:0:0:0:
188,132,117443,2,0,L|208:64,1,67.5000025749208,2|0,0:0|0:0,0:0:0:0:
256,192,117822,2,0,L|236:260,1,67.5000025749208,2|0,0:0|0:0,0:0:0:0:
344,168,118202,1,0,0:0:0:0:
396,280,118392,5,8,0:0:0:0:
388,304,118487,1,8,0:0:0:0:
372,324,118582,1,8,0:0:0:0:
348,336,118677,1,8,0:0:0:0:
320,340,118772,2,0,L|268:320,1,45,8|8,0:3|0:3,0:0:0:0:
168,352,118962,2,0,L|136:306,1,45,2|2,0:0|0:0,0:0:0:0:
32,288,119151,6,0,P|36:244|76:188,1,90,6|0,0:0|0:0,0:0:0:0:
328,168,119531,1,12,0:0:0:0:
236,280,119721,1,0,0:0:0:0:
172,148,119911,2,0,L|176:44,1,90,2|2,0:0|0:0,0:0:0:0:
40,120,120291,1,8,0:0:0:0:
180,232,120481,6,0,P|224:212|256:156,1,90,2|0,0:0|0:0,0:0:0:0:
196,28,120860,1,2,0:0:0:0:
128,168,121050,1,8,0:0:0:0:
296,56,121240,1,0,0:0:0:0:
256,256,121430,2,0,P|224:304|188:316,1,90,2|2,0:0|0:0,0:0:0:0:
28,264,121810,2,0,P|80:260|120:276,1,90,8|2,0:0|0:0,0:0:0:0:
340,248,122189,6,0,P|320:200|284:176,1,90,2|0,0:0|0:0,0:0:0:0:
56,152,122568,1,8,0:0:0:0:
240,232,122759,1,0,0:0:0:0:
132,116,122949,2,0,L|68:48,1,90,2|2,0:0|0:0,0:0:0:0:
88,224,123329,1,8,0:0:0:0:
88,224,123518,6,0,L|108:328,1,90,2|0,0:0|0:0,0:0:0:0:
264,264,123897,1,2,0:0:0:0:
160,188,124087,1,8,0:0:0:0:
256,32,124278,1,0,0:0:0:0:
360,96,124468,2,0,L|372:200,1,90,2|8,0:0|0:3,0:0:0:0:
264,340,124848,1,8,0:0:0:0:
472,264,125227,6,0,P|496:224|496:168,1,90,6|0,0:0|0:0,0:0:0:0:
344,128,125607,2,0,P|356:196|392:240,1,90,2|0,0:0|0:0,0:0:0:0:
484,344,125987,1,8,0:0:0:0:
484,344,126367,1,2,0:0:0:0:
368,256,126557,6,0,P|328:256|272:292,1,90,2|0,0:0|0:0,0:0:0:0:
176,376,126936,2,0,P|144:328|144:284,1,90,2|0,0:0|0:0,0:0:0:0:
192,128,127316,1,2,0:0:0:0:
80,212,127506,1,8,0:0:0:0:
236,288,127696,1,0,0:0:0:0:
276,112,127886,2,0,P|256:72|172:44,1,135.000005149842,0|2,0:0|0:0,0:0:0:0:
48,136,128455,5,0,0:0:0:0:
164,236,128645,2,0,P|200:184|200:144,1,90,2|0,0:0|0:0,0:0:0:0:
88,32,129025,1,8,0:0:0:0:
88,32,129405,1,2,0:0:0:0:
192,72,129595,6,0,L|288:32,1,90,2|0,0:0|0:0,0:0:0:0:
460,48,129974,2,0,L|416:132,1,90,2|0,0:0|0:0,0:0:0:0:
240,320,130354,1,2,0:0:0:0:
360,80,130544,1,12,0:3:0:0:
420,268,130734,1,12,0:3:0:0:
184,144,130924,1,12,0:3:0:0:
440,160,131114,2,0,L|484:148,2,45,8|0|0,0:0|0:0|0:0,0:0:0:0:
256,192,136202,5,8,0:0:0:0:
256,192,136391,2,0,B|232:208|220:236|220:236|192:216|192:216|168:248|104:264|56:216,1,215.999993408203,6|0,0:0|0:0,0:0:0:0:
20,132,136961,1,0,0:0:0:0:
