osu file format v12

[General]
AudioFilename: Silent Siren.mp3
AudioLeadIn: 0
PreviewTime: 80226
Countdown: 0
SampleSet: Soft
StackLeniency: 0.5
Mode: 0
LetterboxInBreaks: 1
WidescreenStoryboard: 0

[Editor]
DistanceSpacing: 1
BeatDivisor: 4
GridSize: 4
TimelineZoom: 4.150002

[Metadata]
Title:stella*
TitleUnicode:stella☆
Artist:Silent Siren
ArtistUnicode:Silent Siren
Creator:captin1
Version:Easy
Source:
Tags:start raose climbb65588 kanpakyin
BeatmapID:404085
BeatmapSetID:163253

[Difficulty]
HPDrainRate:2
CircleSize:3
OverallDifficulty:2
ApproachRate:3
SliderMultiplier:0.9
SliderTickRate:2

[Events]
//Background and Video events
0,0,"39662910.jpg",0,0
//Break Periods
2,131312,134951
//Storyboard Layer 0 (Background)
//Storyboard Layer 1 (Fail)
//Storyboard Layer 2 (Pass)
//Storyboard Layer 3 (Foreground)
//Storyboard Sound Samples
//Background Colour Transformations
3,100,163,162,255

[TimingPoints]
2189,379.746835443038,4,2,2,70,1,0
8264,-100,4,2,1,70,0,0
13961,-100,4,2,1,60,0,0
14340,-100,4,2,2,70,0,0
20037,-100,4,2,1,70,0,0
32568,-100,4,2,2,70,0,0
43201,-100,4,2,1,5,0,0
44720,-100,4,2,1,70,0,0
81176,-100,4,2,1,70,0,1
102442,-100,4,2,1,60,0,1
103771,-100,4,2,1,70,0,0
105480,-100,4,2,1,50,0,0
105859,-100,4,2,1,60,0,0
106239,-100,4,2,1,70,0,0
118391,-100,4,2,1,60,0,0
119151,-100,4,2,1,70,0,0
130543,-100,4,2,1,60,0,0
131113,-100,4,2,1,70,0,0
136202,379.746835443038,4,2,1,70,1,0

[Colours]
Combo1 : 242,24,57
Combo2 : 255,113,45
Combo3 : 3,101,248

[HitObjects]
132,152,2189,6,0,L|140:256,2,90,2|0|2,0:0|0:0|0:0,0:0:0:0:
216,44,3518,2,0,P|257:27|320:36,1,90,2|0,0:0|0:0,0:0:0:0:
368,92,4277,2,0,B|352:144|352:144|368:188|352:228,1,135,2|0,0:0|0:0,0:0:0:0:
264,236,5226,6,0,L|168:216,2,90,0|0|2,0:0|0:0|0:0,0:0:0:0:
356,336,6556,2,0,P|408:324|436:296,1,90,2|0,0:0|0:0,0:0:0:0:
428,208,7315,1,2,0:0:0:0:
256,64,8264,6,0,L|236:168,1,90,6|8,0:0|0:0,0:0:0:0:
152,180,9024,2,0,P|152:232|208:304,2,135,2|2|8,0:0|0:0|0:0,0:0:0:0:
172,92,10543,1,2,0:0:0:0:
336,164,11302,6,0,L|352:260,1,90,2|8,0:0|0:0,0:0:0:0:
384,336,12062,2,0,P|452:340|508:292,2,135,2|2|8,0:0|0:0|0:0,0:0:0:0:
304,292,13581,2,0,L|216:312,1,90,2|8,0:0|0:0,0:0:0:0:
136,268,14340,6,0,L|40:212,2,90,0|0|2,0:0|0:0|0:0,0:0:0:0:
248,192,15670,2,0,P|260:152|248:96,1,90,2|0,0:0|0:0,0:0:0:0:
172,60,16429,2,0,B|124:76|124:76|88:164,1,135,2|0,0:0|0:0,0:0:0:0:
88,244,17378,6,0,L|48:340,2,90,0|0|2,0:0|0:0|0:0,0:0:0:0:
216,284,18707,2,0,P|272:288|316:264,1,90,2|0,0:0|0:0,0:0:0:0:
356,204,19467,2,0,B|372:176|372:176|364:152|364:152|396:124|396:76,1,135,2|8,0:0|0:0,0:0:0:0:
328,24,20416,6,0,P|285:37|247:69,1,90,6|8,0:0|0:0,0:0:0:0:
236,156,21176,2,0,B|148:168|148:168|104:136,2,135,2|2|8,0:0|0:0|0:0,0:0:0:0:
312,204,22695,1,2,0:0:0:0:
480,144,23454,6,0,L|444:52,1,90,2|8,0:0|0:0,0:0:0:0:
360,88,24214,2,0,P|300:104|224:72,2,135,2|2|8,0:0|0:0|0:0,0:0:0:0:
392,172,25733,2,0,L|372:272,1,90,2|8,0:0|0:0,0:0:0:0:
284,276,26492,6,0,B|196:292|196:292|120:236,2,180,6|8|0,0:0|0:0|0:0,0:0:0:0:
256,96,28771,1,8,0:0:0:0:
112,200,29530,6,0,P|124:256|60:352,2,180,2|8|0,0:0|0:0|0:0,0:0:0:0:
16,48,31809,2,0,L|104:20,1,90,8|8,0:0|0:3,0:0:0:0:
192,36,32568,6,0,P|228:56|256:192,1,180,4|2,0:0|0:0,0:0:0:0:
220,356,34087,2,0,P|184:336|156:200,1,180,2|2,0:0|0:0,0:0:0:0:
204,136,35226,1,0,0:0:0:0:
292,160,35606,6,0,B|380:152|380:152|428:172|472:156,1,180,2|2,0:0|0:0,0:0:0:0:
344,28,37125,2,0,B|256:36|256:36|208:16|164:32,1,180,2|2,0:0|0:0,0:0:0:0:
204,112,38264,1,0,0:0:0:0:
260,184,38644,6,0,P|264:232|188:340,2,180,2|2|0,0:0|0:0|0:0,0:0:0:0:
104,92,40923,1,0,0:0:0:0:
12,244,41682,6,0,L|36:344,1,90,2|0,0:0|0:0,0:0:0:0:
112,292,42442,2,0,P|188:272|256:296,1,135,2|2,0:0|0:0,0:0:0:0:
256,192,43391,12,6,44720,0:0:0:0:
184,224,45859,5,8,0:0:0:0:
272,236,46239,2,0,P|320:228|380:116,1,180,0|2,0:0|0:0,0:0:0:0:
200,124,47758,6,0,P|149:112|112:75,1,90,2|8,0:0|0:0,0:0:0:0:
196,36,48518,1,2,0:0:0:0:
360,112,49277,2,0,B|388:172|364:232|364:232|392:288,1,180,0|2,0:0|0:0,0:0:0:0:
324,344,50416,1,8,0:0:0:0:
236,352,50796,6,0,B|153:326|153:326|124:288,2,135,2|0|8,0:0|0:0|0:0,0:0:0:0:
324,344,52315,1,0,0:0:0:0:
308,256,52695,2,0,L|276:160,2,90,8|2|8,0:0|0:0|0:0,0:0:0:0:
392,288,53834,6,0,P|448:268|468:152,1,180,2|2,0:0|0:0,0:0:0:0:
312,80,55353,1,0,0:0:0:0:
144,148,56113,2,0,L|52:124,1,90,2|8,0:0|0:0,0:0:0:0:
12,48,56872,5,4,0:0:0:0:
28,228,57632,2,0,P|36:292|128:368,1,180,8|0,0:0|0:0,0:0:0:0:
256,248,59151,1,8,0:0:0:0:
393,365,59910,6,0,P|464:313|484:228,1,180,2|8,0:0|0:0,0:0:0:0:
352,104,61429,2,0,B|308:120|264:100|264:100|216:104|180:156,2,180,0|8|2,0:0|0:0|0:0,0:0:0:0:
196,12,63707,5,8,0:0:0:0:
64,136,64467,2,0,P|80:228|160:276,1,180,0|8,0:0|0:0,0:0:0:0:
232,236,65606,1,0,0:0:0:0:
296,300,65986,5,6,0:0:0:0:
456,216,66745,2,0,B|456:164|428:132|428:132|456:100|452:44,1,180,8|2,0:0|0:0,0:0:0:0:
272,32,68264,2,0,P|232:64|172:72,1,90,8|8,0:0|0:3,0:0:0:0:
108,48,69024,5,6,0:0:0:0:
72,224,69783,1,2,0:0:0:0:
91,312,70164,2,0,P|131:292|155:255,1,90,2|0,0:0|0:0,0:0:0:0:
280,128,71302,2,0,L|368:112,1,90,2|8,0:0|0:0,0:0:0:0:
440,164,72062,5,2,0:0:0:0:
320,296,72821,2,0,P|283:306|223:288,2,90,2|0|2,0:0|0:0|0:0,0:0:0:0:
492,244,74340,2,0,L|508:340,1,90,2|8,0:0|0:0,0:0:0:0:
420,352,75100,6,0,L|389:167,2,180,6|2|2,0:0|0:0|0:0,0:0:0:0:
240,344,77378,2,0,P|204:312|188:260,1,90,2|8,0:0|0:0,0:0:0:0:
196,184,78138,6,0,P|232:148|244:68,2,135,8|8|12,0:0|0:0|0:0,0:0:0:0:
60,192,79847,2,0,L|0:192,1,45,8|8,0:3|0:3,0:0:0:0:
256,316,81176,5,4,0:0:0:0:
416,236,81935,2,0,B|444:200|444:200|448:104,2,135,2|2|8,0:0|0:0|0:0,0:0:0:0:
328,248,83454,2,0,P|292:219|276:176,1,90,2|8,0:0|0:0,0:0:0:0:
352,128,84214,6,0,B|328:92|284:76|232:96|232:96|184:64,1,180,2|2,0:0|0:0,0:0:0:0:
64,104,85543,2,0,L|176:185,1,135,6|8,0:0|0:0,0:0:0:0:
232,252,86492,2,0,P|240:288|272:332,1,90,2|8,0:0|0:0,0:0:0:0:
360,336,87252,5,0,0:0:0:0:
464,188,88011,2,0,B|456:116|456:116|404:64,2,135,2|2|8,0:0|0:0|0:0,0:0:0:0:
396,248,89530,2,0,P|351:250|310:233,1,90,2|8,0:0|0:0,0:0:0:0:
296,144,90290,6,0,P|264:104|108:128,1,225,2|2,0:0|0:0,0:0:0:0:
128,212,91619,2,0,L|104:348,1,135,6|8,0:0|0:0,0:0:0:0:
196,348,92568,1,8,0:0:0:0:
268,292,92948,1,8,0:3:0:0:
268,200,93328,6,0,P|288:128|344:96,2,135,6|0|8,0:0|0:0|0:0,0:0:0:0:
332,264,94847,2,0,P|388:260|416:236,1,90,0|8,0:0|0:0,0:0:0:0:
432,152,95606,1,2,0:0:0:0:
440,332,96366,6,0,B|392:364|392:364|308:324|220:372,1,225,2|2,0:0|0:0,0:0:0:0:
140,376,97695,2,0,B|84:334|84:334|64:260,1,135,6|8,0:0|0:0,0:0:0:0:
104,188,98644,2,0,L|204:159,1,90,2|8,0:0|0:0,0:0:0:0:
256,100,99404,5,6,0:0:0:0:
344,256,100163,2,0,L|408:324,2,90,8|8|2,0:0|0:0|0:0,0:0:0:0:
256,232,101302,1,8,0:0:0:0:
172,264,101682,2,0,P|124:272|80:260,1,90,8|8,0:0|0:0,0:0:0:0:
28,192,102442,5,12,0:3:0:0:
100,80,103011,2,0,P|184:104|280:64,1,180,12|12,0:3|0:3,0:0:0:0:
408,236,105480,6,0,L|432:328,2,90,8|8|8,0:3|0:3|0:0,0:0:0:0:
320,212,106619,1,12,0:0:0:0:
264,284,106999,6,0,L|160:300,1,90,6|8,0:0|0:0,0:0:0:0:
100,244,107758,2,0,P|76:176|108:104,2,135,2|2|8,0:0|0:0|0:0,0:0:0:0:
184,208,109277,1,2,0:0:0:0:
352,140,110037,6,0,P|356:80|340:40,1,90,2|8,0:0|0:0,0:0:0:0:
268,100,110796,2,0,B|220:108|220:108|136:72,2,135,2|2|8,0:0|0:0|0:0,0:0:0:0:
272,188,112315,2,0,L|276:280,1,90,2|8,0:0|0:0,0:0:0:0:
360,316,113075,6,0,B|411:334|444:297|444:297|408:256|424:200,2,180,6|8|0,0:0|0:0|0:0,0:0:0:0:
256,168,115353,1,8,0:0:0:0:
76,180,116113,6,0,B|56:268|56:268|88:356,2,180,2|8|0,0:0|0:0|0:0,0:0:0:0:
248,232,118391,2,0,P|305:233|345:216,1,90,8|8,0:0|0:3,0:0:0:0:
384,148,119151,5,6,0:0:0:0:
452,208,119530,1,12,0:0:0:0:
432,296,119910,2,0,P|388:352|320:360,2,135,2|2|8,0:0|0:0|0:0,0:0:0:0:
344,272,121429,2,0,L|252:268,1,90,2|8,0:0|0:0,0:0:0:0:
180,320,122189,6,0,L|96:280,1,90,2|8,0:0|0:0,0:0:0:0:
60,200,122948,2,0,P|60:148|128:80,2,135,2|2|8,0:0|0:0|0:0,0:0:0:0:
148,172,124467,2,0,P|192:176|236:200,1,90,2|8,0:0|0:0,0:0:0:0:
256,284,125226,6,0,B|336:328|336:328|424:280,2,180,6|8|0,0:0|0:0|0:0,0:0:0:0:
336,120,127505,1,8,0:0:0:0:
176,40,128264,6,0,P|96:88|88:172,2,180,2|8|0,0:0|0:0|0:0,0:0:0:0:
268,196,130543,2,0,B|336:212|336:212|412:184,1,135,12|8,0:3|0:0,0:0:0:0:
256,228,136391,6,0,B|244:196|244:196|264:168|264:168|240:128|260:92,1,135,6|0,0:0|0:0,0:0:0:0:
