osu file format v14

[General]
AudioFilename: optc.mp3
AudioLeadIn: 0
PreviewTime: 1310
Countdown: 0
SampleSet: Normal
StackLeniency: 0.9
Mode: 0
LetterboxInBreaks: 0
WidescreenStoryboard: 0

[Editor]
Bookmarks: 2060,11660,21260,35660,54860,64460,83660,93260,102860
DistanceSpacing: 0.9
BeatDivisor: 2
GridSize: 32
TimelineZoom: 2

[Metadata]
Title:Soukai Rock
TitleUnicode:爽快ロック
Artist:Silent Siren
ArtistUnicode:Silent Siren
Creator:Shad0w1and
Version:sahuang's Normal
Source:
Tags:恋い雪 Koi Yuki Lami intoon VINXIS Misure Pata-Mon ZZHBOY sahuang A_r_M_i_N
BeatmapID:981666
BeatmapSetID:437797

[Difficulty]
HPDrainRate:3.5
CircleSize:3.5
OverallDifficulty:4
ApproachRate:5.5
SliderMultiplier:0.899999999999999
SliderTickRate:1

[Events]
//Background and Video events
0,0,"BG.jpg",0,0
Video,0,"optc.flv"
//Break Periods
2,55060,60380
//Storyboard Layer 0 (Background)
//Storyboard Layer 1 (Fail)
//Storyboard Layer 2 (Pass)
//Storyboard Layer 3 (Foreground)
//Storyboard Sound Samples

[TimingPoints]
860,300,4,3,1,80,1,0
2060,-100,4,2,1,80,0,0
6860,-100,4,1,1,80,0,0
11660,-100,4,1,1,100,0,1
21260,-100,4,1,1,100,0,0
35660,-100,4,2,1,70,0,0
54860,-100,4,2,1,80,0,0
62060,-100,4,1,1,100,0,0
64460,-100,4,1,1,100,0,1
73460,-100,4,1,1,100,0,0
74060,-100,4,1,1,100,0,1
83060,-100,4,1,1,100,0,0
83660,-100,4,1,1,100,0,1
93260,-100,4,1,1,100,0,0

[Colours]
Combo1 : 255,255,91
Combo2 : 50,241,151
Combo3 : 113,176,255
Combo4 : 245,92,116

[HitObjects]
126,89,1460,5,0,0:0:0:0:
55,129,1760,1,0,0:0:0:0:
124,171,2060,6,0,L|220:166,1,89.9999999999999,4|0,0:1|0:0,0:0:0:0:
241,242,2660,2,0,L|338:252,1,89.9999999999999,0|0,0:0|0:0,0:0:0:0:
370,255,3110,1,2,0:0:0:0:
370,255,3260,2,0,P|391:208|385:165,1,89.9999999999999,4|0,0:1|0:0,0:0:0:0:
355,97,3860,2,0,P|308:76|265:82,1,89.9999999999999,0|0,0:0|0:0,0:0:0:0:
245,111,4310,1,2,0:0:0:0:
245,111,4460,6,0,L|144:104,1,89.9999999999999,4|0,0:1|0:0,0:0:0:0:
75,118,5060,1,0,0:0:0:0:
49,277,5660,2,0,P|41:323|53:372,2,89.9999999999999,4|0|0,0:1|0:0|0:0,0:0:0:0:
91,207,6560,1,0,0:0:0:0:
144,267,6860,6,0,P|186:280|229:268,1,89.9999999999999,6|2,0:0|0:0,0:0:0:0:
285,209,7460,2,0,P|327:197|370:210,1,89.9999999999999,2|2,0:0|0:0,0:0:0:0:
437,255,8060,2,0,P|450:212|438:169,1,89.9999999999999,2|2,0:0|0:0,0:0:0:0:
381,111,8660,2,0,P|369:68|382:25,1,89.9999999999999,2|2,0:0|0:0,0:0:0:0:
451,67,9260,6,0,L|258:71,1,180,2|2,0:0|0:0,0:0:0:0:
195,100,10160,1,2,0:0:0:0:
123,61,10460,2,0,L|132:10,2,45,2|8|8,0:0|0:0|0:0,0:0:0:0:
23,284,11660,6,0,L|12:386,1,89.9999999999999,6|2,0:0|0:0,0:0:0:0:
93,361,12260,2,0,L|102:271,1,89.9999999999999,2|2,0:0|0:0,0:0:0:0:
108,231,12710,1,8,0:0:0:0:
121,192,12860,2,0,P|169:185|215:198,1,89.9999999999999,6|2,0:0|0:0,0:0:0:0:
258,259,13460,2,0,P|306:266|352:253,1,89.9999999999999,2|2,0:0|0:0,0:0:0:0:
384,244,13910,1,8,0:0:0:0:
415,218,14060,6,0,L|428:126,1,89.9999999999999,6|2,0:0|0:0,0:0:0:0:
405,50,14660,1,2,0:0:0:0:
287,79,15110,2,0,P|243:83|200:75,1,89.9999999999999,8|8,0:0|0:0,0:0:0:0:
159,61,15560,2,0,L|168:181,1,89.9999999999999,2|2,0:0|0:0,0:0:0:0:
110,210,16160,1,2,0:0:0:0:
140,286,16460,6,0,P|173:316|223:333,1,89.9999999999999,6|2,0:0|0:0,0:0:0:0:
296,333,17060,2,0,P|337:317|370:287,1,89.9999999999999,2|2,0:0|0:0,0:0:0:0:
397,255,17510,1,8,0:0:0:0:
411,217,17660,2,0,P|416:161|406:110,1,89.9999999999999,0|2,0:0|0:0,0:0:0:0:
399,47,18260,2,0,B|481:44,2,67.4999999999999,2|0|8,0:0|0:0|0:0,0:0:0:0:
360,59,18860,6,0,B|323:82|274:71|274:71|225:60|185:78,1,180,6|2,0:0|0:0,0:0:0:0:
113,115,19760,1,2,0:0:0:0:
63,179,20060,2,0,P|39:216|42:260,1,89.9999999999999,2|2,0:0|0:0,0:0:0:0:
100,316,20660,1,2,0:0:0:0:
119,236,20960,1,2,0:0:0:0:
188,189,21260,6,0,L|289:162,1,89.9999999999999,6|2,0:0|0:0,0:0:0:0:
341,119,21860,1,8,0:0:0:0:
412,157,22160,1,2,0:0:0:0:
389,234,22460,2,0,L|288:261,1,89.9999999999999,8|0,0:3|0:0,0:0:0:0:
236,304,23060,1,12,0:1:0:0:
165,266,23360,1,12,0:0:0:0:
88,235,23660,6,0,P|84:279|103:318,2,89.9999999999999,6|2|8,0:0|0:0|0:0,0:0:0:0:
129,164,24560,2,0,L|174:148,1,45,4|8,0:3|0:3,0:0:0:0:
162,68,25010,2,0,L|119:83,2,45,8|4|8,0:3|0:3|0:0,0:0:0:0:
200,55,25460,2,0,B|244:42|244:42|292:41,1,89.9999999999999,8|2,0:0|0:0,0:0:0:0:
368,49,26060,5,6,0:0:0:0:
434,95,26360,1,2,0:0:0:0:
459,171,26660,2,0,L|455:267,1,89.9999999999999,8|8,0:0|0:0,0:0:0:0:
442,299,27110,1,2,0:0:0:0:
420,333,27260,2,0,P|372:319|322:331,1,89.9999999999999,0|2,0:0|0:0,0:0:0:0:
265,370,27860,2,0,P|220:376|178:362,1,89.9999999999999,8|2,0:0|0:0,0:0:0:0:
109,319,28460,5,12,0:0:0:0:
97,238,28760,1,2,0:0:0:0:
135,166,29060,2,0,P|178:151|211:117,1,89.9999999999999,8|2,0:0|0:0,0:0:0:0:
234,88,29510,1,2,0:0:0:0:
247,49,29660,2,0,L|350:27,1,89.9999999999999,8|2,0:0|0:0,0:0:0:0:
380,97,30260,2,0,L|468:78,1,89.9999999999999,8|8,0:0|0:0,0:0:0:0:
508,148,30860,5,12,0:0:0:0:
449,203,31160,1,2,0:0:0:0:
449,283,31460,1,8,0:0:0:0:
499,346,31760,2,0,P|480:360|460:368,1,45,8|2,0:0|0:0,0:0:0:0:
419,374,32060,2,0,P|378:361|330:371,1,89.9999999999999,0|2,0:0|0:0,0:0:0:0:
282,306,32660,2,0,P|239:318|193:303,1,89.9999999999999,8|8,0:0|0:0,0:0:0:0:
241,237,33260,5,2,0:0:0:0:
241,237,33410,2,0,L|240:145,1,89.9999999999999,12|2,0:0|0:0,0:0:0:0:
211,118,33860,2,0,L|131:164,1,89.9999999999999,12|2,0:0|0:0,0:0:0:0:
99,140,34310,2,0,L|98:48,1,89.9999999999999,12|8,0:0|0:0,0:0:0:0:
58,40,34760,2,0,L|4:73,2,45,8|8|6,0:0|0:0|0:0,0:0:0:0:
219,54,35660,6,0,P|262:68|307:64,1,89.9999999999999,6|0,0:0|0:0,0:0:0:0:
336,37,36110,2,0,L|365:172,1,135,4|4,0:0|0:0,0:0:0:0:
316,234,36860,2,0,L|212:249,1,89.9999999999999,4|4,0:0|0:0,0:0:0:0:
187,255,37310,1,0,0:0:0:0:
187,255,37460,2,0,P|166:297|172:346,1,89.9999999999999,8|0,0:0|0:0,0:0:0:0:
249,348,38060,6,0,L|343:352,1,89.9999999999999,6|0,0:0|0:0,0:0:0:0:
379,347,38510,2,0,P|419:290|405:222,1,135,4|4,0:0|0:0,0:0:0:0:
387,149,39260,2,0,P|342:156|297:151,1,89.9999999999999,4|4,0:0|0:0,0:0:0:0:
258,143,39710,1,0,0:0:0:0:
258,143,39860,2,0,P|208:136|161:142,1,89.9999999999999,8|0,0:0|0:0,0:0:0:0:
110,196,40460,6,0,L|123:291,1,89.9999999999999,6|0,0:0|0:0,0:0:0:0:
111,324,40910,2,0,P|185:320|254:342,1,135,4|4,0:0|0:0,0:0:0:0:
321,358,41660,2,0,P|372:364|411:352,1,89.9999999999999,4|4,0:0|0:0,0:0:0:0:
444,333,42110,1,0,0:0:0:0:
444,333,42260,2,0,L|464:226,1,89.9999999999999,8|0,0:0|0:0,0:0:0:0:
448,164,42860,6,0,L|435:107,2,45,6|0|4,0:0|0:0|0:0,0:0:0:0:
412,183,43310,2,0,P|347:201|281:191,1,135,4|4,0:0|0:0,0:0:0:0:
251,115,44060,2,0,P|209:98|164:101,1,89.9999999999999,4|4,0:0|0:0,0:0:0:0:
127,117,44510,1,0,0:0:0:0:
127,117,44660,2,0,L|115:212,1,89.9999999999999,8|4,0:0|0:0,0:0:0:0:
177,259,45260,6,0,P|119:290|59:266,2,135,6|4|4,0:0|0:0|0:0,0:0:0:0:
220,190,46460,2,0,B|242:145|242:145|236:46,2,135,4|0|0,0:0|0:0|0:0,0:0:0:0:
263,259,47660,6,0,P|320:290|380:266,2,135,6|4|4,0:0|0:0|0:0,0:0:0:0:
220,190,48860,2,0,B|198:145|198:145|204:46,2,135,4|0|0,0:0|0:0|0:0,0:0:0:0:
276,131,50060,6,0,L|369:98,1,89.9999999999999,6|0,0:0|0:0,0:0:0:0:
399,89,50510,1,4,0:0:0:0:
399,89,50660,2,0,P|420:133|412:197,2,89.9999999999999,8|4|4,0:0|0:0|0:0,0:0:0:0:
345,28,51560,1,4,0:0:0:0:
264,17,51860,2,0,L|186:63,1,89.9999999999999,8|0,0:0|0:0,0:0:0:0:
171,142,52460,6,0,P|131:165|78:175,1,89.9999999999999,6|4,0:0|0:0,0:0:0:0:
47,175,52910,1,4,0:0:0:0:
47,175,53060,2,0,P|26:131|34:67,2,89.9999999999999,8|4|4,0:0|0:0|0:0,0:0:0:0:
66,253,53960,2,0,P|46:292|8:315,2,89.9999999999999,4|8|4,0:0|0:0|0:3,0:0:0:0:
135,195,54860,5,6,0:0:0:0:
256,192,62060,12,2,63860,3:2:0:0:
415,356,64460,6,0,L|517:367,1,89.9999999999999,6|2,0:0|0:0,0:0:0:0:
492,286,65060,2,0,L|402:277,1,89.9999999999999,2|2,0:0|0:0,0:0:0:0:
362,268,65510,1,8,0:0:0:0:
334,237,65660,2,0,P|327:189|340:143,1,89.9999999999999,6|2,0:0|0:0,0:0:0:0:
415,131,66260,2,0,P|422:83|409:37,1,89.9999999999999,2|2,0:0|0:0,0:0:0:0:
379,18,66710,1,8,0:0:0:0:
339,26,66860,6,0,L|247:13,1,89.9999999999999,6|2,0:0|0:0,0:0:0:0:
198,76,67460,2,0,L|106:89,1,89.9999999999999,2|2,0:0|0:0,0:0:0:0:
82,119,67910,2,0,P|78:163|86:206,1,89.9999999999999,8|8,0:0|0:0,0:0:0:0:
102,244,68360,2,0,P|111:265|109:287,2,45,2|8|2,0:0|0:0|0:0,0:0:0:0:
28,277,68960,1,2,0:0:0:0:
61,350,69260,6,0,P|101:367|145:358,1,89.9999999999999,6|2,0:0|0:0,0:0:0:0:
204,301,69860,2,0,P|244:284|288:293,1,89.9999999999999,2|2,0:0|0:0,0:0:0:0:
328,302,70310,1,8,0:0:0:0:
328,302,70460,2,0,P|333:255|328:212,1,89.9999999999999,2|2,0:0|0:0,0:0:0:0:
291,140,71060,2,0,B|283:105|283:105|289:74,2,67.4999999999999,2|0|8,0:0|0:0|0:0,0:0:0:0:
331,137,71660,6,0,B|376:127|376:127|463:140|463:140|507:128,1,180,6|2,0:0|0:0,0:0:0:0:
500,47,72560,1,2,0:0:0:0:
420,29,72860,2,0,L|332:11,2,89.9999999999999,2|2|2,0:0|0:0|0:0,0:0:0:0:
443,108,73760,1,2,0:0:0:0:
376,155,74060,6,0,L|288:137,1,89.9999999999999,6|0,0:0|0:0,0:0:0:0:
239,72,74660,2,0,P|210:106|207:150,1,89.9999999999999,8|2,0:0|0:0,0:0:0:0:
220,187,75110,1,2,0:0:0:0:
220,187,75260,2,0,P|216:231|187:264,1,89.9999999999999,0|0,0:0|0:0,0:0:0:0:
110,287,75860,2,0,L|22:269,1,89.9999999999999,8|2,0:0|0:0,0:0:0:0:
12,229,76310,1,8,0:0:0:0:
12,229,76460,6,0,P|20:174|42:143,1,89.9999999999999,8|0,0:0|0:0,0:0:0:0:
119,137,77060,2,0,P|141:98|145:54,1,89.9999999999999,8|2,0:0|0:0,0:0:0:0:
133,14,77510,1,8,0:0:0:0:
133,14,77660,2,0,L|230:23,1,89.9999999999999,2|2,0:0|0:0,0:0:0:0:
266,90,78260,2,0,L|363:81,1,89.9999999999999,2|2,0:0|0:0,0:0:0:0:
431,51,78860,6,0,P|465:92|468:132,1,89.9999999999999,6|2,0:0|0:0,0:0:0:0:
448,205,79460,1,2,0:0:0:0:
380,249,79760,1,2,0:0:0:0:
380,249,79910,2,0,B|331:270|284:253|284:253|250:266,1,135,8|2,0:0|0:0,0:0:0:0:
178,305,80660,2,0,B|170:270|170:270|176:239,2,67.4999999999999,2|0|8,0:0|0:0|0:0,0:0:0:0:
188,344,81260,6,0,B|99:362|99:362|8:350,1,180,6|2,0:0|0:0,0:0:0:0:
14,269,82160,2,0,L|4:214,1,45,2|8,0:0|0:0,0:0:0:0:
75,182,82610,2,0,L|65:127,2,45,8|2|8,0:0|0:0|0:0,0:0:0:0:
84,221,83060,1,2,0:0:0:0:
161,244,83360,1,2,0:0:0:0:
217,185,83660,6,0,B|263:169|263:169|306:169,1,89.9999999999999,6|2,0:0|0:0,0:0:0:0:
364,223,84260,2,0,B|405:223|405:223|451:207,1,89.9999999999999,2|2,0:0|0:0,0:0:0:0:
489,192,84710,1,8,0:0:0:0:
489,192,84860,2,0,L|508:88,1,89.9999999999999,6|2,0:0|0:0,0:0:0:0:
464,33,85460,2,0,P|411:27|363:42,1,89.9999999999999,2|2,0:0|0:0,0:0:0:0:
341,56,85910,1,8,0:0:0:0:
309,81,86060,6,0,B|280:84|280:84|213:68,1,89.9999999999999,6|2,0:0|0:0,0:0:0:0:
140,77,86660,2,0,P|118:116|114:160,1,89.9999999999999,2|2,0:0|0:0,0:0:0:0:
125,199,87110,1,8,0:0:0:0:
125,199,87260,2,0,L|222:190,1,89.9999999999999,2|2,0:0|0:0,0:0:0:0:
253,262,87860,2,0,L|350:271,1,89.9999999999999,2|2,0:0|0:0,0:0:0:0:
383,340,88460,6,0,P|417:299|420:259,1,89.9999999999999,6|2,0:0|0:0,0:0:0:0:
429,183,89060,1,2,0:0:0:0:
375,122,89360,1,2,0:0:0:0:
375,122,89510,2,0,B|352:97|352:97|310:124|254:123,1,135,8|2,0:0|0:0,0:0:0:0:
184,85,90260,2,0,B|176:120|176:120|182:151,2,67.4999999999999,2|0|8,0:0|0:0|0:0,0:0:0:0:
194,45,90860,6,0,B|138:45|105:27|105:27|52:12|14:39,1,180,6|2,0:0|0:0,0:0:0:0:
7,115,91760,2,0,L|-3:170,1,45,2|8,0:0|0:0,0:0:0:0:
65,205,92210,2,0,L|55:260,2,45,8|2|8,0:0|0:0|0:0,0:0:0:0:
77,166,92660,1,2,0:0:0:0:
155,144,92960,1,2,0:0:0:0:
228,177,93260,6,0,L|282:166,1,45,6|0,0:0|0:0,0:0:0:0:
367,92,93860,1,8,0:0:0:0:
414,246,94460,6,0,L|360:257,1,45,0|8,0:0|0:0,0:0:0:0:
275,331,95060,1,8,0:0:0:0:
133,253,95660,6,0,L|187:242,1,45,8|0,0:0|0:0,0:0:0:0:
272,168,96260,1,8,0:0:0:0:
351,184,96560,1,2,0:0:0:0:
351,184,96710,6,0,L|445:163,1,89.9999999999999,8|8,0:0|0:0,0:0:0:0:
472,142,97160,2,0,P|485:98|470:47,2,89.9999999999999,2|2|2,0:0|0:0|0:0,0:0:0:0:
406,94,98060,5,6,0:0:0:0:
327,114,98360,1,2,0:0:0:0:
253,80,98660,2,0,L|198:66,1,45,2|8,0:0|0:0,0:0:0:0:
170,58,98960,1,2,0:0:0:0:
130,66,99110,2,0,P|108:119|132:195,1,135,8|2,0:0|0:0,0:0:0:0:
174,261,99860,2,0,L|178:339,2,67.4999999999999,2|0|8,0:0|0:0|0:0,0:0:0:0:
214,259,100460,6,0,P|298:257|357:204,1,135,6|8,0:0|0:0,0:0:0:0:
358,194,101060,2,0,L|364:98,1,89.9999999999999,2|2,0:0|0:0,0:0:0:0:
364,63,101510,1,8,0:0:0:0:
20,185,102860,6,0,L|75:197,1,45,6|8,0:0|0:0,0:0:0:0:
99,214,103160,2,0,L|154:202,1,45,2|8,0:0|0:0,0:0:0:0:
178,185,103460,2,0,P|225:179|276:235,1,89.9999999999999,8|2,0:0|0:0,0:0:0:0:
297,272,104060,1,8,0:3:0:0:
367,315,104360,1,0,0:0:0:0:
445,296,104660,2,0,L|434:200,1,89.9999999999999,12|12,0:1|0:0,0:0:0:0:
433,125,105260,6,0,L|447:77,1,45,6|8,0:0|0:0,0:0:0:0:
424,47,105560,2,0,L|410:-1,1,45,2|8,0:0|0:0,0:0:0:0:
370,5,105860,2,0,P|315:28|260:26,1,89.9999999999999,8|4,0:0|0:3,0:0:0:0:
205,17,106460,1,0,0:0:0:0:
128,44,106760,1,4,0:3:0:0:
90,115,107060,2,0,L|79:218,1,89.9999999999999,8|2,0:0|0:0,0:0:0:0:
141,258,107660,5,6,0:0:0:0:
207,212,107960,1,2,0:0:0:0:
277,252,108260,2,0,L|373:248,1,89.9999999999999,8|8,0:0|0:0,0:0:0:0:
407,248,108710,1,2,0:0:0:0:
434,217,108860,2,0,P|440:172|426:130,1,89.9999999999999,0|2,0:0|0:0,0:0:0:0:
369,72,109460,2,0,P|324:66|282:80,1,89.9999999999999,8|2,0:0|0:0,0:0:0:0:
223,135,110060,5,12,0:0:0:0:
142,127,110360,1,2,0:0:0:0:
100,196,110660,2,0,P|103:245|123:287,1,89.9999999999999,8|2,0:0|0:0,0:0:0:0:
153,304,111110,1,8,0:0:0:0:
191,316,111260,2,0,P|237:315|294:336,1,89.9999999999999,8|2,0:0|0:0,0:0:0:0:
339,273,111860,2,0,P|381:285|426:284,1,89.9999999999999,8|8,0:0|0:0,0:0:0:0:
474,218,112460,5,12,0:0:0:0:
426,152,112760,1,2,0:0:0:0:
462,79,113060,2,0,B|427:46|427:46|382:38,1,89.9999999999999,8|8,0:0|0:0,0:0:0:0:
345,37,113510,1,2,0:0:0:0:
312,61,113660,2,0,P|267:67|221:59,1,89.9999999999999,0|2,0:0|0:0,0:0:0:0:
151,96,114260,2,0,P|157:140|149:187,1,89.9999999999999,8|8,0:0|0:0,0:0:0:0:
83,231,114860,6,0,L|34:249,1,45,2|12,0:0|0:0,0:0:0:0:
34,327,115310,2,0,L|74:360,1,45,2|12,0:0|0:0,0:0:0:0:
144,327,115760,2,0,L|152:275,1,45,2|12,0:0|0:0,0:0:0:0:
227,255,116210,1,8,0:0:0:0:
227,255,116360,2,0,L|261:283,2,45,8|8|6,0:0|0:0|0:0,0:0:0:0:
