osu file format v14

[General]
AudioFilename: optc.mp3
AudioLeadIn: 0
PreviewTime: 1310
Countdown: 0
SampleSet: Normal
StackLeniency: 0.7
Mode: 0
LetterboxInBreaks: 0
WidescreenStoryboard: 1

[Editor]
Bookmarks: 2060,11660,21260,35660,54860,64460,83660,93260,102860
DistanceSpacing: 0.8
BeatDivisor: 4
GridSize: 4
TimelineZoom: 2

[Metadata]
Title:Soukai Rock
TitleUnicode:爽快ロック
Artist:Silent Siren
ArtistUnicode:Silent Siren
Creator:Shad0w1and
Version:ZZH's Advanced
Source:
Tags:恋い雪 Koi Yuki Lami intoon VINXIS Misure Pata-Mon ZZHBOY sahuang A_r_M_i_N
BeatmapID:979433
BeatmapSetID:437797

[Difficulty]
HPDrainRate:4
CircleSize:4
OverallDifficulty:5
ApproachRate:7
SliderMultiplier:1
SliderTickRate:1

[Events]
//Background and Video events
0,0,"BG.jpg",0,0
Video,0,"optc.flv"
//Break Periods
2,21460,25160
//Storyboard Layer 0 (Background)
//Storyboard Layer 1 (Fail)
//Storyboard Layer 2 (Pass)
//Storyboard Layer 3 (Foreground)
//Storyboard Sound Samples

[TimingPoints]
860,300,4,3,1,80,1,0
2060,-100,4,2,1,80,0,0
6860,-100,4,1,1,80,0,0
11660,-100,4,1,1,100,0,1
21260,-100,4,1,1,100,0,0
35660,-100,4,2,1,70,0,0
54860,-100,4,2,1,80,0,0
62060,-100,4,1,1,100,0,0
64460,-100,4,1,1,100,0,1
74060,-100,4,1,1,100,0,0
78860,-100,4,1,1,100,0,1
83060,-100,4,1,1,100,0,0
83660,-100,4,1,1,100,0,1
93260,-100,4,1,1,100,0,0
98060,-100,4,1,1,100,0,1
101510,-100,4,1,1,100,0,0
102860,-100,4,1,1,100,0,0

[Colours]
Combo1 : 255,255,91
Combo2 : 50,241,151
Combo3 : 113,176,255
Combo4 : 245,92,116

[HitObjects]
92,149,1460,6,0,P|135:169|228:150,1,100,0|0,0:0|0:0,0:0:0:0:
250,121,2060,2,0,B|321:114|321:114|358:150|358:150|450:131|450:131|507:203|507:203|409:224,2,400,4|4|4,0:1|0:1|0:1,0:0:0:0:
73,315,5510,2,0,P|145:331|181:312,1,100,2|0,0:0|0:0,0:0:0:0:
197,295,5960,1,0,0:0:0:0:
220,262,6110,1,0,0:0:0:0:
244,230,6260,2,0,L|314:237,1,50,0|0,0:0|0:0,0:0:0:0:
317,267,6560,2,0,L|393:260,1,50,0|2,0:0|0:0,0:0:0:0:
406,258,6860,5,6,0:0:0:0:
456,196,7160,1,2,0:0:0:0:
402,136,7460,1,2,0:0:0:0:
448,70,7760,1,2,0:0:0:0:
417,44,7910,2,0,P|363:27|307:37,1,100,2|0,0:2|0:0,0:0:0:0:
294,62,8360,1,2,0:0:0:0:
249,128,8660,2,0,P|258:172|284:216,2,75,2|0|0,0:0|0:0|0:0,0:0:0:0:
221,99,9260,6,0,P|170:98|115:120,1,100,2|2,0:0|0:0,0:0:0:0:
67,171,9860,1,2,0:0:0:0:
56,250,10160,2,0,L|63:312,1,50,2|2,0:0|0:2,0:0:0:0:
82,333,10460,1,2,0:0:0:0:
120,345,10610,1,8,0:0:0:0:
159,342,10760,1,8,0:0:0:0:
194,323,10910,1,8,0:0:0:0:
216,289,11060,2,0,P|283:275|335:276,1,100,0|0,0:0|0:0,0:0:0:0:
379,321,11660,6,0,P|392:259|352:201,1,100,6|2,0:0|0:0,0:0:0:0:
346,202,12110,1,8,0:0:0:0:
314,177,12260,2,0,P|301:115|341:57,1,100,2|2,0:0|0:0,0:0:0:0:
283,56,12710,1,8,0:0:0:0:
252,30,12860,2,0,P|174:29|123:44,1,100,6|2,0:0|0:0,0:0:0:0:
117,52,13310,1,8,0:0:0:0:
90,81,13460,2,0,L|115:207,1,100,2|2,0:0|0:0,0:0:0:0:
87,213,13910,1,8,0:0:0:0:
63,245,14060,6,0,L|74:309,1,50,6|8,0:0|0:0,0:0:0:0:
85,332,14360,2,0,L|164:352,1,50,2|8,0:0|0:0,0:0:0:0:
171,331,14660,2,0,L|268:316,1,50,2|8,0:0|0:0,0:0:0:0:
259,332,14960,1,2,0:0:0:0:
298,340,15110,2,0,P|385:351|426:338,1,100,8|8,0:0|0:0,0:0:0:0:
419,316,15560,2,0,L|415:258,1,50,2|8,0:0|0:0,0:0:0:0:
389,235,15860,1,2,0:0:0:0:
393,195,16010,1,8,0:0:0:0:
398,155,16160,2,0,L|411:67,1,50,2|8,0:0|0:0,0:0:0:0:
425,70,16460,6,0,P|363:46|299:43,1,100,6|2,0:0|0:0,0:0:0:0:
278,103,17060,2,0,P|216:127|152:130,1,100,2|2,0:0|0:0,0:0:0:0:
144,119,17510,2,0,P|86:106|-2:131,1,150,8|2,0:0|0:0,0:0:0:0:
9,209,18260,2,0,L|0:294,2,66.6666666666667,2|0|0,0:0|0:0|0:0,0:0:0:0:
56,183,18860,5,6,0:0:0:0:
329,245,19910,2,0,P|398:233|467:238,2,100,8|8|8,0:0|0:0|0:0,0:0:0:0:
307,278,20660,2,0,L|246:306,1,50,2|8,0:0|0:0,0:0:0:0:
222,308,20960,2,0,L|130:297,1,50,2|8,0:0|0:0,0:0:0:0:
132,303,21260,5,6,0:0:0:0:
74,109,26060,6,0,P|154:87|205:103,1,100,6|2,0:0|0:0,0:0:0:0:
237,131,26660,2,0,P|317:153|368:137,1,100,8|8,0:0|0:0,0:0:0:0:
394,100,27260,1,0,0:0:0:0:
427,122,27410,2,0,P|441:195|439:243,1,100,8|8,0:0|0:0,0:0:0:0:
422,255,27860,2,0,P|370:282|300:284,1,100,8|2,0:0|0:0,0:0:0:0:
258,251,28460,5,12,0:0:0:0:
197,302,28760,1,2,0:0:0:0:
130,257,29060,1,8,0:0:0:0:
80,320,29360,1,2,0:0:0:0:
11,279,29660,1,8,0:0:0:0:
0,241,29810,2,0,P|-3:162|6:119,1,100,8|2,0:0|0:0,0:0:0:0:
27,112,30260,2,0,L|159:102,1,100,8|8,0:0|0:0,0:0:0:0:
198,68,30860,5,12,0:0:0:0:
272,97,31160,1,2,0:0:0:0:
330,42,31460,1,8,0:0:0:0:
404,71,31760,1,8,0:0:0:0:
404,150,32060,1,0,0:0:0:0:
404,190,32210,2,0,L|409:295,1,100,8|2,0:0|0:0,0:0:0:0:
388,324,32660,2,0,P|319:344|260:328,1,100,8|8,0:0|0:0,0:0:0:0:
218,309,33260,5,2,0:0:0:0:
193,277,33410,2,0,P|190:209|200:155,1,100,12|2,0:0|0:0,0:0:0:0:
221,147,33860,2,0,P|162:121|94:122,1,100,12|2,0:0|0:0,0:0:0:0:
87,126,34310,1,12,0:0:0:0:
45,194,34610,2,0,L|-18:190,2,50,8|8|8,0:0|0:0|0:0,0:0:0:0:
76,218,35060,2,0,P|89:287|81:324,1,100,6|0,0:0|0:0,0:0:0:0:
154,352,35660,6,0,P|252:355|316:318,2,150,6|4|4,0:0|0:0|0:0,0:0:0:0:
148,271,36860,2,0,P|165:211|162:118,1,150,4|0,0:0|0:0,0:0:0:0:
257,49,37760,1,0,0:0:0:0:
326,89,38060,6,0,P|394:93|494:90,2,150,6|4|4,0:0|0:0|0:0,0:0:0:0:
286,158,39260,2,0,P|272:229|312:302,1,150,4|0,0:0|0:0,0:0:0:0:
423,272,40160,1,0,0:0:0:0:
377,337,40460,6,0,P|318:375|227:317,2,150,6|4|4,0:0|0:0|0:0,0:0:0:0:
423,272,41660,2,0,L|414:112,1,150,4|0,0:0|0:0,0:0:0:0:
355,68,42410,2,0,L|299:89,1,50,0|0,0:0|0:0,0:0:0:0:
239,126,42860,6,0,P|188:121|143:77,1,100,6|4,0:0|0:0,0:0:0:0:
144,51,43310,2,0,P|118:107|112:209,1,150,4|4,0:0|0:0,0:0:0:0:
140,267,44060,1,4,0:0:0:0:
379,285,44960,1,4,0:0:0:0:
443,237,45260,6,0,P|454:174|427:68,2,150,6|4|4,0:0|0:0|0:0,0:0:0:0:
367,210,46460,2,0,P|286:213|197:252,1,150,4|0,0:0|0:0,0:0:0:0:
150,333,47360,1,0,0:0:0:0:
145,253,47660,6,0,P|138:175|141:129,1,100,6|0,0:0|0:0,0:0:0:0:
150,114,48110,2,0,P|208:88|297:76,1,150,4|4,0:0|0:0,0:0:0:0:
352,129,48860,2,0,P|437:120|513:85,2,150,4|0|0,0:0|0:0|0:0,0:0:0:0:
326,204,50060,6,0,P|346:282|412:373,2,150,6|4|4,0:0|0:0|0:0,0:0:0:0:
269,147,51260,2,0,L|211:178,1,50,4|8,0:0|0:0,0:0:0:0:
220,250,51710,2,0,P|162:278|65:264,1,150,0|0,0:0|0:0,0:0:0:0:
8,232,52460,6,0,L|-9:110,1,100,6|4,0:0|0:0,0:0:0:0:
17,99,52910,2,0,P|78:78|167:81,1,150,4|4,0:0|0:0,0:0:0:0:
215,139,53660,1,4,0:0:0:0:
383,309,54560,1,4,0:3:0:0:
451,267,54860,6,0,P|454:195|430:139,1,100,6|8,0:0|0:0,0:0:0:0:
384,117,55460,1,4,0:0:0:0:
348,134,55610,2,0,P|263:147|228:140,1,100,0|0,0:0|0:0,0:0:0:0:
145,87,56360,1,8,0:0:0:0:
84,138,56660,1,4,0:0:0:0:
158,166,56960,1,8,0:0:0:0:
94,214,57260,6,0,P|96:293|141:328,1,100,6|8,0:0|0:0,0:0:0:0:
143,322,57710,1,0,0:0:0:0:
180,336,57860,2,0,L|284:322,1,100,4|8,0:0|0:0,0:0:0:0:
353,351,58460,2,0,P|401:335|465:341,1,100,6|8,0:0|0:0,0:0:0:0:
500,274,59060,2,0,P|487:210|452:175,1,100,4|8,0:0|0:0,0:0:0:0:
388,161,59660,5,6,0:1:0:0:
326,211,59960,1,8,0:0:0:0:
246,203,60260,1,4,0:0:0:0:
209,186,60410,2,0,P|198:120|216:74,1,100,0|0,0:0|0:0,0:0:0:0:
92,54,61160,2,0,L|62:128,1,50,8|0,0:0|0:0,0:0:0:0:
78,140,61460,2,0,L|85:191,1,50,4|0,0:0|0:0,0:0:0:0:
68,225,61760,2,0,L|46:278,1,50,8|0,0:0|0:0,0:0:0:0:
256,192,62060,12,2,63860,3:2:0:0:
48,177,64460,6,0,P|110:135|174:122,1,100,6|2,0:0|0:0,0:0:0:0:
173,131,64910,1,8,0:0:0:0:
211,141,65060,2,0,L|282:127,1,50,2|8,0:0|0:0,0:0:0:0:
293,108,65360,2,0,L|312:54,1,50,2|8,0:0|0:0,0:0:0:0:
341,35,65660,2,0,P|427:23|477:36,1,100,6|2,0:0|0:0,0:0:0:0:
462,57,66110,1,8,0:0:0:0:
481,91,66260,2,0,L|491:151,1,50,2|8,0:0|0:0,0:0:0:0:
469,175,66560,2,0,L|446:238,1,50,2|8,0:0|0:0,0:0:0:0:
461,260,66860,5,6,0:0:0:0:
460,299,67010,1,8,0:0:0:0:
441,334,67160,1,2,0:0:0:0:
408,356,67310,1,8,0:0:0:0:
368,362,67460,2,0,P|309:337|268:336,1,100,2|2,0:0|0:0,0:0:0:0:
235,348,67910,2,0,L|230:228,1,100,8|8,0:0|0:0,0:0:0:0:
227,208,68360,1,2,0:0:0:0:
226,168,68510,1,8,0:0:0:0:
226,128,68660,2,0,P|183:94|146:87,1,50,2|8,0:0|0:0,0:0:0:0:
149,106,68960,2,0,P|128:108|86:102,1,50,2|8,0:0|0:0,0:0:0:0:
72,75,69260,6,0,P|25:137|26:197,1,100,6|2,0:0|0:0,0:0:0:0:
63,225,69860,2,0,P|110:287|109:347,1,100,2|2,0:0|0:0,0:0:0:0:
90,339,70310,2,0,P|170:323|275:342,1,150,8|2,0:0|0:0,0:0:0:0:
316,345,71060,2,0,P|384:346|412:344,2,75,2|0|8,0:0|0:0|0:0,0:0:0:0:
303,306,71660,6,0,P|303:239|316:205,1,100,6|2,0:0|0:0,0:0:0:0:
388,177,72260,2,0,P|380:118|356:69,1,100,2|2,0:0|0:0,0:0:0:0:
328,63,72710,2,0,P|289:84|215:74,1,100,8|8,0:0|0:0,0:0:0:0:
209,51,73160,2,0,L|148:57,1,50,2|8,0:0|0:0,0:0:0:0:
119,51,73460,1,2,0:0:0:0:
68,112,73760,1,2,0:0:0:0:
135,155,74060,6,0,P|146:226|132:270,1,100,6|0,0:0|0:0,0:0:0:0:
105,272,74510,1,2,0:0:0:0:
69,289,74660,2,0,L|90:352,1,50,8|0,0:0|0:0,0:0:0:0:
164,346,75110,6,0,L|236:355,1,50,2|0,0:0|0:0,0:0:0:0:
250,337,75410,2,0,P|308:323|353:333,1,100,8|2,0:0|0:0,0:0:0:0:
377,356,75860,2,0,P|423:295|432:209,1,150,8|8,0:0|0:0,0:0:0:0:
406,194,76460,6,0,L|423:128,1,50,8|0,0:0|0:0,0:0:0:0:
378,75,76910,1,2,0:0:0:0:
338,79,77060,2,0,B|300:87|300:87|281:159,1,100,8|2,0:0|0:0,0:0:0:0:
257,176,77510,6,0,L|197:169,2,50,8|2|8,0:0|0:0|0:0,0:0:0:0:
271,213,77960,2,0,P|275:266|239:319,1,100,2|2,0:0|0:0,0:0:0:0:
213,304,78410,1,0,0:0:0:0:
185,275,78560,2,0,L|129:269,1,50,2|2,0:0|0:0,0:0:0:0:
95,274,78860,6,0,P|62:217|53:162,1,100,6|2,0:0|0:0,0:0:0:0:
84,109,79460,2,0,L|198:88,1,100,2|2,0:0|0:0,0:0:0:0:
220,78,79910,2,0,P|310:85|333:75,1,100,8|8,0:0|0:0,0:0:0:0:
339,49,80360,1,2,0:0:0:0:
405,93,80660,6,0,P|472:87|490:78,2,75,2|0|8,0:0|0:0|0:0,0:0:0:0:
388,129,81260,1,6,0:0:0:0:
241,319,82160,6,0,L|229:246,1,50,2|8,0:0|0:0,0:0:0:0:
152,273,82610,2,0,L|158:212,1,50,8|2,0:0|0:0,0:0:0:0:
164,183,82910,1,8,0:0:0:0:
168,143,83060,2,0,P|135:117|71:110,1,100,2|2,0:0|0:0,0:0:0:0:
18,161,83660,6,0,L|26:274,1,100,6|2,0:0|0:0,0:0:0:0:
41,298,84110,1,8,0:0:0:0:
69,325,84260,1,2,0:0:0:0:
107,336,84410,1,8,0:0:0:0:
146,336,84560,1,2,0:0:0:0:
183,323,84710,1,8,0:0:0:0:
211,294,84860,6,0,P|276:282|342:298,1,100,6|2,0:0|0:0,0:0:0:0:
341,309,85310,1,8,0:0:0:0:
379,320,85460,1,2,0:0:0:0:
418,311,85610,1,8,0:0:0:0:
452,290,85760,1,2,0:0:0:0:
472,255,85910,1,8,0:0:0:0:
474,215,86060,6,0,P|473:152|449:92,1,100,6|2,0:0|0:0,0:0:0:0:
425,100,86510,1,8,0:0:0:0:
386,109,86660,1,2,0:0:0:0:
347,121,86810,1,8,0:0:0:0:
309,134,86960,1,2,0:0:0:0:
270,142,87110,6,0,P|216:150|158:136,1,100,8|8,0:0|0:0,0:0:0:0:
138,163,87560,2,0,L|155:235,1,50,2|8,0:0|0:0,0:0:0:0:
189,213,87860,1,2,0:0:0:0:
223,233,88010,1,8,0:0:0:0:
245,265,88160,1,2,0:0:0:0:
238,304,88310,1,8,0:0:0:0:
205,327,88460,6,0,P|127:325|100:337,1,100,6|2,0:0|0:0,0:0:0:0:
52,275,89060,2,0,L|59:167,1,100,2|2,0:0|0:0,0:0:0:0:
67,136,89510,2,0,P|158:122|208:126,1,100,8|8,0:0|0:0,0:0:0:0:
197,98,89960,1,2,0:0:0:0:
270,130,90260,6,0,P|330:128|356:121,2,75,2|0|8,0:0|0:0|0:0,0:0:0:0:
244,161,90860,2,0,P|226:253|237:271,1,100,6|2,0:0|0:0,0:0:0:0:
246,287,91310,1,8,0:0:0:0:
267,320,91460,2,0,P|324:319|385:338,1,100,2|2,0:0|0:0,0:0:0:0:
398,351,91910,6,0,P|436:313|440:264,1,100,8|8,0:0|0:0,0:0:0:0:
413,240,92360,2,0,L|412:174,1,50,2|8,0:0|0:0,0:0:0:0:
382,163,92660,2,0,P|372:127|390:61,1,100,2|2,0:0|0:0,0:0:0:0:
460,35,93260,5,6,0:0:0:0:
191,113,94310,6,0,L|127:117,1,50,2|0,0:0|0:0,0:0:0:0:
251,223,95510,6,0,L|300:219,1,50,8|8,0:0|0:0,0:0:0:0:
99,306,96710,6,0,P|85:244|107:195,1,100,8|8,0:0|0:0,0:0:0:0:
128,187,97160,2,0,L|182:186,1,50,2|8,0:0|0:0,0:0:0:0:
217,195,97460,1,2,0:0:0:0:
254,208,97610,1,0,0:0:0:0:
289,225,97760,2,0,L|359:224,1,50,2|2,0:0|0:0,0:0:0:0:
372,246,98060,6,0,P|399:206|400:149,1,100,6|2,0:0|0:0,0:0:0:0:
340,103,98660,2,0,L|232:105,1,100,2|2,0:0|0:0,0:0:0:0:
207,81,99110,2,0,P|144:73|90:95,1,100,8|8,0:0|0:0,0:0:0:0:
84,114,99560,1,2,0:0:0:0:
70,192,99860,6,0,P|12:195|-21:186,2,75,2|0|8,0:0|0:0|0:0,0:0:0:0:
107,205,100460,1,6,0:0:0:0:
369,301,101510,6,0,P|375:227|368:191,2,100,8|0|0,0:0|0:0|0:0,0:0:0:0:
333,320,102260,2,0,L|262:317,1,50,0|0,0:0|0:0,0:0:0:0:
249,295,102560,2,0,L|185:298,1,50,0|0,0:0|0:0,0:0:0:0:
166,320,102860,6,0,P|113:273|119:139,1,200,6|8,0:0|0:0,0:0:0:0:
221,102,103910,2,0,L|210:58,2,25,8|0|8,0:0|0:0|0:3,0:0:0:0:
253,125,104210,2,0,P|321:123|397:79,1,150,4|12,0:3|0:1,0:0:0:0:
453,134,104960,1,12,0:0:0:0:
457,213,105260,6,0,P|435:275|299:308,1,200,6|8,0:0|0:0,0:0:0:0:
237,298,106160,1,4,0:3:0:0:
198,285,106310,6,0,P|181:218|186:175,1,100,8|8,0:3|0:3,0:0:0:0:
218,168,106760,2,0,L|223:109,1,50,4|8,0:3|0:0,0:0:0:0:
198,85,107060,2,0,P|130:71|64:87,1,100,8|2,0:0|0:0,0:0:0:0:
44,131,107660,6,0,L|30:258,1,100,6|2,0:0|0:0,0:0:0:0:
48,267,108110,1,2,0:0:0:0:
64,303,108260,2,0,P|123:323|181:311,1,100,8|8,0:0|0:0,0:0:0:0:
193,297,108710,1,2,0:0:0:0:
270,275,109010,1,8,0:0:0:0:
307,287,109160,2,0,L|374:300,1,50,2|8,0:0|0:0,0:0:0:0:
396,293,109460,2,0,P|425:236|425:180,1,100,8|2,0:0|0:0,0:0:0:0:
379,136,110060,6,0,L|383:73,1,50,12|2,0:0|0:0,0:0:0:0:
343,76,110360,2,0,L|305:33,1,50,2|2,0:0|0:0,0:0:0:0:
271,49,110660,2,0,P|223:73|140:60,1,100,8|2,0:0|0:0,0:0:0:0:
144,50,111110,2,0,L|154:195,1,100,8|8,0:0|0:0,0:0:0:0:
125,180,111560,1,2,0:0:0:0:
125,219,111710,1,2,0:0:0:0:
126,258,111860,2,0,P|201:302|243:285,1,100,8|8,0:0|0:0,0:0:0:0:
277,341,112460,6,0,P|352:297|394:314,1,100,12|2,0:0|0:0,0:0:0:0:
394,316,112910,1,2,0:0:0:0:
424,341,113060,2,0,L|428:221,1,100,8|8,0:0|0:0,0:0:0:0:
461,220,113510,2,0,P|468:156|451:101,1,100,2|8,0:0|0:0,0:0:0:0:
423,106,113960,2,0,L|368:110,1,50,2|2,0:0|0:0,0:0:0:0:
339,131,114260,2,0,P|272:137|207:105,1,100,8|8,0:0|0:0,0:0:0:0:
178,78,114860,5,2,0:0:0:0:
148,105,115010,2,0,P|137:169|155:213,1,100,12|2,0:0|0:0,0:0:0:0:
178,226,115460,2,0,P|194:298|179:340,1,100,12|2,0:0|0:0,0:0:0:0:
154,344,115910,2,0,L|277:354,1,100,12|8,0:0|0:0,0:0:0:0:
291,339,116360,1,8,0:0:0:0:
328,326,116510,1,8,0:0:0:0:
364,310,116660,1,6,0:0:0:0:
