osu file format v14

[General]
AudioFilename: optc.mp3
AudioLeadIn: 0
PreviewTime: 1310
Countdown: 0
SampleSet: Soft
StackLeniency: 0.7
Mode: 0
LetterboxInBreaks: 0
WidescreenStoryboard: 1

[Editor]
Bookmarks: 68360
DistanceSpacing: 1.4
BeatDivisor: 4
GridSize: 4
TimelineZoom: 2.2

[Metadata]
Title:Soukai Rock
TitleUnicode:爽快ロック
Artist:Silent Siren
ArtistUnicode:Silent Siren
Creator:Shad0w1and
Version:Lami's Extra
Source:
Tags:恋い雪 Koi Yuki Lami intoon VINXIS Misure Pata-Mon ZZHBOY sahuang A_r_M_i_N
BeatmapID:1018776
BeatmapSetID:437797

[Difficulty]
HPDrainRate:6
CircleSize:4
OverallDifficulty:9
ApproachRate:9.5
SliderMultiplier:2
SliderTickRate:1

[Events]
//Background and Video events
0,0,"BG.jpg",0,0
Video,0,"optc.flv"
//Break Periods
//Storyboard Layer 0 (Background)
//Storyboard Layer 1 (Fail)
//Storyboard Layer 2 (Pass)
//Storyboard Layer 3 (Foreground)
//Storyboard Sound Samples

[TimingPoints]
860,300,4,3,1,80,1,0
1460,-133.333333333333,4,3,1,80,0,0
2060,-166.666666666667,4,2,1,80,0,0
6860,-125,4,1,1,80,0,0
11660,-100,4,1,1,100,0,1
21260,-133.333333333333,4,1,1,100,0,0
33260,-100,4,1,1,100,0,0
35360,-153.846153846154,4,1,1,100,0,0
35660,-133.333333333333,4,2,1,70,0,0
54860,-125,4,2,1,80,0,0
62060,-125,4,1,1,100,0,0
64460,-100,4,1,1,100,0,1
74060,-133.333333333333,4,1,1,100,0,0
78860,-100,4,1,1,100,0,1
83060,-100,4,1,1,100,0,0
83660,-100,4,1,1,100,0,1
93260,-100,4,1,1,100,0,0
98060,-100,4,1,1,100,0,1
102860,-133.333333333333,4,1,1,100,0,0
114860,-100,4,1,1,100,0,0

[Colours]
Combo1 : 255,255,91
Combo2 : 50,241,151
Combo3 : 113,176,255
Combo4 : 245,92,116

[HitObjects]
124,268,1460,6,0,L|116:348,1,75.0000028610231
228,268,1760,2,0,L|220:192,1,75.0000028610231
316,337,2060,6,0,P|384:360|463:219,1,239.999992675781,4|0,0:1|0:0,0:0:0:0:
386,28,3260,2,0,B|341:80|341:80|309:259,1,239.999992675781,4|0,0:1|0:0,0:0:0:0:
40,160,4460,2,0,B|115:158|136:217|136:217|156:276|232:275,1,239.999992675781,4|0,0:1|0:0,0:0:0:0:
264,48,5660,5,4,0:1:0:0:
264,48,6260,2,0,L|330:63,1,59.9999981689454
410,156,6560,2,0,L|336:174,1,59.9999981689454
220,320,6860,6,0,P|256:280|264:236,1,80,6|0,0:0|0:0,0:0:0:0:
116,176,7160,1,2,0:0:0:0:
116,176,7310,1,0,0:0:0:0:
88,296,7460,2,0,L|120:384,1,80,2|0,0:0|0:0,0:0:0:0:
304,384,7760,1,2,0:0:0:0:
304,384,7910,1,2,0:2:0:0:
264,252,8060,6,0,L|176:240,1,80,2|0,0:0|0:0,0:0:0:0:
272,116,8360,2,0,L|360:128,1,80,2|0,0:0|0:0,0:0:0:0:
416,248,8660,2,0,P|412:303|400:376,2,120,2|0|2,0:0|0:0|0:2,0:0:0:0:
272,116,9260,5,2,0:0:0:0:
272,116,9410,1,0,0:0:0:0:
192,280,9560,1,2,0:0:0:0:
192,280,9710,1,0,0:0:0:0:
360,176,9860,1,2,0:0:0:0:
360,176,10010,1,0,0:0:0:0:
160,100,10160,1,2,0:0:0:0:
160,100,10310,1,2,0:2:0:0:
296,264,10460,5,2,0:0:0:0:
240,72,10610,1,8,0:0:0:0:
144,256,10760,1,8,0:0:0:0:
360,340,10910,1,8,0:0:0:0:
396,348,11660,5,6,0:0:0:0:
312,116,11810,1,8,0:0:0:0:
192,332,11960,1,2,0:0:0:0:
424,244,12110,1,8,0:0:0:0:
180,152,12260,5,2,0:0:0:0:
292,368,12410,1,8,0:0:0:0:
396,156,12560,1,2,0:0:0:0:
164,240,12710,1,8,0:0:0:0:
324,8,12860,5,6,0:0:0:0:
264,220,13010,1,8,0:0:0:0:
116,40,13160,1,2,0:0:0:0:
336,112,13310,1,8,0:0:0:0:
196,308,13460,5,2,0:0:0:0:
196,84,13610,1,8,0:0:0:0:
396,240,13760,1,2,0:0:0:0:
280,32,13910,1,8,0:0:0:0:
128,232,14060,5,6,0:0:0:0:
352,332,14210,1,8,0:0:0:0:
360,88,14360,1,2,0:0:0:0:
212,288,14510,1,8,0:0:0:0:
424,160,14660,5,2,0:0:0:0:
196,84,14810,1,8,0:0:0:0:
268,316,14960,1,2,0:0:0:0:
360,88,15110,1,8,0:0:0:0:
196,172,15260,6,0,L|88:152,1,100,0|8,0:0|0:0,0:0:0:0:
174,341,15560,2,0,P|230:337|269:314,1,100,2|8,0:0|0:0,0:0:0:0:
276,96,15860,1,2,0:0:0:0:
388,272,16010,1,8,0:0:0:0:
444,68,16160,1,2,0:0:0:0:
288,216,16310,1,8,0:0:0:0:
188,32,16460,6,0,P|178:71|176:132,1,100,6|8,0:0|0:0,0:0:0:0:
267,315,16760,2,0,L|169:300,1,100,2|8,0:0|0:0,0:0:0:0:
356,160,17060,2,0,P|404:148|454:145,1,100,2|8,0:0|0:0,0:0:0:0:
408,348,17360,1,2,0:0:0:0:
288,216,17510,1,8,0:0:0:0:
188,372,17660,6,0,L|90:357,1,100,0|8,0:0|0:0,0:0:0:0:
160,120,17960,2,0,P|190:159|200:207,1,100,2|8,0:0|0:0,0:0:0:0:
16,264,18260,2,0,P|6:183|0:112,2,150,2|0|8,0:0|0:0|0:0,0:0:0:0:
188,372,18860,5,6,0:0:0:0:
108,216,19010,1,8,0:0:0:0:
272,336,19160,2,0,P|321:336|366:315,1,100,2|8,0:0|0:0,0:0:0:0:
340,120,19460,1,2,0:0:0:0:
464,280,19610,1,8,0:0:0:0:
288,208,19760,1,2,0:0:0:0:
404,44,19910,6,0,L|512:28,1,100,8|2,0:0|0:0,0:0:0:0:
387,219,20210,2,0,L|287:207,1,100,8|2,0:0|0:0,0:0:0:0:
152,32,20510,1,8,0:0:0:0:
192,232,20660,5,2,0:0:0:0:
372,128,20810,1,8,0:0:0:0:
240,8,20960,1,2,0:0:0:0:
287,207,21110,1,8,0:0:0:0:
128,96,21260,6,0,L|44:104,1,75.0000028610231,6|8,0:0|0:0,0:0:0:0:
4,192,21560,1,2,0:0:0:0:
120,276,21710,1,8,0:0:0:0:
120,276,21785,1,8,0:0:0:0:
120,276,21860,2,0,P|160:232|260:236,1,150.000005722046,8|2,0:0|0:0,0:0:0:0:
328,300,22310,1,8,0:0:0:0:
232,336,22460,5,8,0:3:0:0:
336,208,22610,2,0,L|349:134,1,75.0000028610231,4|0,0:3|0:0,0:0:0:0:
448,173,22910,1,4,0:3:0:0:
392,44,23060,2,0,P|313:41|261:91,1,150.000005722046,12|12,0:1|0:0,0:0:0:0:
263,86,23660,6,0,L|183:102,1,75.0000028610231,6|8,0:0|0:0,0:0:0:0:
128,188,23960,1,2,0:0:0:0:
272,220,24110,1,8,0:0:0:0:
272,220,24185,1,8,0:0:0:0:
272,220,24260,2,0,P|320:200|348:108,1,150.000005722046,8|4,0:0|0:3,0:0:0:0:
196,26,24710,2,0,L|188:110,1,75.0000028610231,8|0,0:3|0:0,0:0:0:0:
24,232,25010,5,8,0:3:0:0:
68,80,25160,1,4,0:3:0:0:
120,184,25310,1,8,0:0:0:0:
120,184,25385,1,8,0:0:0:0:
120,184,25460,2,0,L|208:196,1,75.0000028610231,8|8,0:0|0:0,0:0:0:0:
212,308,25760,2,0,L|124:296,1,75.0000028610231,2|8,0:0|0:0,0:0:0:0:
304,372,26060,6,0,P|348:368|384:344,1,75.0000028610231,6|8,0:0|0:0,0:0:0:0:
448,276,26360,1,2,0:0:0:0:
468,380,26510,1,2,0:0:0:0:
336,260,26660,2,0,L|316:112,1,150.000005722046,8|8,0:0|0:0,0:0:0:0:
344,16,27110,1,2,0:0:0:0:
228,108,27260,6,0,P|184:120|152:116,1,75.0000028610231,0|8,0:0|0:0,0:0:0:0:
56,12,27560,2,0,P|44:47|47:84,1,75.0000028610231,2|8,0:0|0:0,0:0:0:0:
124,224,27860,2,0,P|76:176|-4:188,1,150.000005722046,8|2,0:0|0:0,0:0:0:0:
0,288,28310,1,8,0:0:0:0:
152,384,28460,6,0,L|176:308,1,75.0000028610231,12|2,0:0|0:0,0:0:0:0:
124,224,28760,1,2,0:0:0:0:
200,156,28910,1,2,0:0:0:0:
272,288,29060,2,0,P|328:296|392:232,1,150.000005722046,8|2,0:0|0:0,0:0:0:0:
376,132,29510,1,8,0:0:0:0:
296,60,29660,6,0,L|216:44,1,75.0000028610231,8|8,0:0|0:0,0:0:0:0:
396,36,29960,2,0,L|476:52,1,75.0000028610231,2|2,0:0|0:0,0:0:0:0:
292,152,30260,2,0,L|132:120,1,150.000005722046,8|8,0:0|0:0,0:0:0:0:
120,20,30710,1,2,0:0:0:0:
44,136,30860,6,0,L|52:220,1,75.0000028610231,12|2,0:0|0:0,0:0:0:0:
116,292,31160,1,2,0:0:0:0:
168,204,31310,1,2,0:0:0:0:
212,348,31460,2,0,P|264:352|328:284,1,150.000005722046,8|8,0:0|0:0,0:0:0:0:
324,180,31910,1,2,0:0:0:0:
416,232,32060,6,0,L|496:236,1,75.0000028610231,0|8,0:0|0:0,0:0:0:0:
444,88,32360,2,0,P|412:88|364:108,1,75.0000028610231,2|2,0:0|0:0,0:0:0:0:
236,208,32660,2,0,L|204:48,1,150.000005722046,8|8,0:0|0:0,0:0:0:0:
206,60,33260,5,2,0:0:0:0:
136,268,33410,2,0,L|32:288,1,100,12|0,0:0|0:0,0:0:0:0:
72,64,33710,5,2,0:0:0:0:
236,212,33860,2,0,L|268:320,1,100,12|0,0:0|0:0,0:0:0:0:
37,286,34160,5,2,0:0:0:0:
172,104,34310,2,0,L|280:92,1,100,12|0,0:0|0:0,0:0:0:0:
404,260,34610,5,8,0:0:0:0:
380,60,34760,1,8,0:0:0:0:
216,216,34910,1,8,0:0:0:0:
472,136,35060,5,6,0:0:0:0:
472,136,35360,6,0,L|384:160,1,64.9999970245363
328,296,35660,6,0,L|244:284,1,75.0000028610231,6|0,0:0|0:0,0:0:0:0:
176,148,35960,2,0,L|260:136,1,75.0000028610231,0|4,0:0|0:0,0:0:0:0:
132,32,36260,2,0,P|56:28|4:84,1,150.000005722046,8|4,0:0|0:0,0:0:0:0:
16,196,36710,1,4,0:0:0:0:
164,336,36860,5,4,0:0:0:0:
164,336,37160,1,4,0:0:0:0:
164,336,37460,2,0,L|176:260,1,75.0000028610231,8|0,0:0|0:0,0:0:0:0:
256,120,37760,2,0,L|268:196,1,75.0000028610231,0|8,0:0|0:0,0:0:0:0:
380,304,38060,6,0,P|424:312|460:304,1,75.0000028610231,6|0,0:0|0:0,0:0:0:0:
492,112,38360,2,0,P|452:132|428:161,1,75.0000028610231,0|4,0:0|0:0,0:0:0:0:
267,194,38660,2,0,P|208:196|144:124,1,150.000005722046,8|4,0:0|0:0,0:0:0:0:
208,32,39110,1,4,0:0:0:0:
344,136,39260,6,0,L|360:224,1,75.0000028610231,4|8,0:0|0:0,0:0:0:0:
252,352,39560,1,4,0:0:0:0:
188,240,39710,1,0,0:0:0:0:
276,364,39860,1,8,0:0:0:0:
272,216,40010,1,0,0:0:0:0:
148,344,40160,2,0,P|104:356|68:352,1,75.0000028610231,0|8,0:0|0:0,0:0:0:0:
92,140,40460,6,0,L|112:228,1,75.0000028610231,6|0,0:0|0:0,0:0:0:0:
255,289,40760,2,0,L|271:215,1,75.0000028610231,0|4,0:0|0:0,0:0:0:0:
180,75,41060,2,0,P|117:32|45:40,1,150.000005722046,8|4,0:0|0:0,0:0:0:0:
3,164,41510,1,4,0:0:0:0:
180,252,41660,5,4,0:0:0:0:
180,75,41810,1,8,0:0:0:0:
56,268,41960,1,4,0:0:0:0:
56,268,42260,2,0,L|96:116,1,150.000005722046,8|0,0:0|0:0,0:0:0:0:
200,160,42710,1,8,0:0:0:0:
284,48,42860,6,0,L|364:36,1,75.0000028610231,6|0,0:0|0:0,0:0:0:0:
416,176,43160,2,0,L|336:164,1,75.0000028610231,4|4,0:0|0:0,0:0:0:0:
180,308,43460,2,0,P|240:320|308:260,1,150.000005722046,8|4,0:0|0:0,0:0:0:0:
200,160,43910,1,4,0:0:0:0:
80,272,44060,5,4,0:0:0:0:
104,112,44210,1,8,0:0:0:0:
80,272,44360,2,0,L|0:296,1,75.0000028610231,4|0,0:0|0:0,0:0:0:0:
8,84,44660,1,8,0:0:0:0:
136,192,44810,1,8,0:3:0:0:
208,40,44960,2,0,P|248:24|292:24,1,75.0000028610231,4|0,0:0|0:0,0:0:0:0:
400,172,45260,6,0,L|308:160,1,75.0000028610231,6|0,0:0|0:0,0:0:0:0:
232,292,45560,2,0,L|324:304,1,75.0000028610231,0|4,0:0|0:0,0:0:0:0:
476,272,45860,2,0,P|492:224|480:120,1,150.000005722046,8|4,0:0|0:0,0:0:0:0:
376,44,46310,1,4,0:0:0:0:
240,176,46460,5,4,0:0:0:0:
280,16,46610,1,8,0:0:0:0:
400,172,46760,1,4,0:0:0:0:
400,172,47060,2,0,L|388:332,1,150.000005722046,8|0,0:0|0:0,0:0:0:0:
276,368,47510,1,8,0:0:0:0:
176,244,47660,6,0,P|128:232|92:236,1,75.0000028610231,6|0,0:0|0:0,0:0:0:0:
48,72,47960,2,0,P|87:101|122:112,1,75.0000028610231,0|4,0:0|0:0,0:0:0:0:
324,80,48260,2,0,P|264:32|176:48,1,150.000005722046,8|4,0:0|0:0,0:0:0:0:
216,152,48710,1,4,0:0:0:0:
372,200,48860,6,0,L|468:176,1,75.0000028610231,4|8,0:0|0:0,0:0:0:0:
376,356,49160,1,4,0:0:0:0:
276,236,49310,1,0,0:0:0:0:
224,368,49460,1,8,0:0:0:0:
292,220,49610,1,0,0:0:0:0:
136,308,49760,2,0,P|112:276|104:232,1,75.0000028610231,0|8,0:0|0:0,0:0:0:0:
226,77,50060,6,0,L|214:165,1,75.0000028610231,6|0,0:0|0:0,0:0:0:0:
331,282,50360,2,0,P|312:242|279:210,1,75.0000028610231,0|4,0:0|0:0,0:0:0:0:
252,384,50660,2,0,P|328:372|420:360,1,150.000005722046,8|4,0:0|0:0,0:0:0:0:
512,368,51110,1,4,0:0:0:0:
464,200,51260,5,4,0:0:0:0:
331,282,51410,1,8,0:0:0:0:
376,104,51560,1,4,0:0:0:0:
376,104,51860,2,0,L|216:68,1,150.000005722046,8|0,0:0|0:0,0:0:0:0:
124,112,52310,1,8,0:0:0:0:
236,232,52460,6,0,P|280:224|312:196,1,75.0000028610231,6|0,0:0|0:0,0:0:0:0:
112,204,52760,2,0,P|91:234|86:271,1,75.0000028610231,4|4,0:0|0:0,0:0:0:0:
312,376,53060,2,0,P|244:332|164:348,1,150.000005722046,8|4,0:0|0:0,0:0:0:0:
64,380,53510,1,4,0:0:0:0:
196,248,53660,5,4,0:0:0:0:
24,204,53810,1,8,0:0:0:0:
196,248,53960,2,0,L|272:232,1,75.0000028610231,4|8,0:0|0:0,0:0:0:0:
400,88,54260,1,8,0:0:0:0:
376,256,54410,1,8,0:3:0:0:
216,140,54560,2,0,L|192:60,1,75.0000028610231,4|0,0:3|0:0,0:0:0:0:
104,264,54860,5,6,0:0:0:0:
104,264,55160,1,8,0:0:0:0:
104,264,55460,2,0,L|192:272,1,80,4|0,0:0|0:0,0:0:0:0:
336,376,55760,2,0,L|248:368,1,80,8|0,0:0|0:0,0:0:0:0:
328,168,56060,5,6,0:0:0:0:
328,168,56360,1,8,0:0:0:0:
328,168,56660,2,0,L|340:248,1,80,4|0,0:0|0:0,0:0:0:0:
456,132,56960,2,0,L|472:52,1,80,8|0,0:0|0:0,0:0:0:0:
228,80,57260,5,6,0:0:0:0:
228,80,57560,1,8,0:0:0:0:
228,80,57860,2,0,P|192:92|136:96,1,80,4|0,0:0|0:0,0:0:0:0:
96,272,58160,2,0,P|134:246|172:234,1,80,8|0,0:0|0:0,0:0:0:0:
304,312,58460,2,0,P|376:308|436:220,1,160,6|8,0:0|0:0,0:0:0:0:
328,64,59060,1,4,0:0:0:0:
328,64,59360,2,0,L|312:152,1,80,8|0,0:0|0:0,0:0:0:0:
136,244,59660,5,6,0:1:0:0:
136,244,59960,1,8,0:0:0:0:
136,244,60260,2,0,L|54:257,1,80,4|0,0:0|0:0,0:0:0:0:
32,72,60560,2,0,L|120:104,1,80,8|0,0:0|0:0,0:0:0:0:
224,200,60860,1,4,0:0:0:0:
224,200,61160,5,8,0:0:0:0:
284,80,61310,1,0,0:0:0:0:
124,156,61460,2,0,L|104:244,1,80,4|0,0:0|0:0,0:0:0:0:
236,292,61760,2,0,P|280:288|328:220,1,120,8|0,0:0|0:0,0:0:0:0:
344,160,62060,5,2,0:0:0:0:
104,296,62210,1,12,0:0:0:0:
336,152,62510,5,0,0:0:0:0:
96,288,62660,1,12,0:0:0:0:
328,144,62960,5,2,0:0:0:0:
88,280,63110,1,12,0:0:0:0:
80,272,63410,5,2,0:0:0:0:
160,84,63560,1,8,0:0:0:0:
276,288,63710,1,8,0:0:0:0:
304,304,64460,5,6,0:0:0:0:
334,39,64610,1,8,0:0:0:0:
141,216,64760,1,2,0:0:0:0:
409,290,64910,1,8,0:0:0:0:
295,31,65060,5,2,0:0:0:0:
154,260,65210,1,8,0:0:0:0:
400,180,65360,1,2,0:0:0:0:
163,79,65510,1,8,0:0:0:0:
317,321,65660,5,6,0:0:0:0:
260,66,65810,1,8,0:0:0:0:
145,295,65960,1,2,0:0:0:0:
26,66,66110,1,8,0:0:0:0:
286,202,66260,5,2,0:0:0:0:
26,277,66410,1,8,0:0:0:0:
127,44,66560,1,2,0:0:0:0:
194,286,66710,1,8,0:0:0:0:
374,66,66860,5,6,0:0:0:0:
127,180,67010,1,8,0:0:0:0:
348,348,67160,1,2,0:0:0:0:
224,119,67310,1,8,0:0:0:0:
224,365,67460,5,2,0:0:0:0:
387,172,67610,1,8,0:0:0:0:
224,13,67760,1,2,0:0:0:0:
295,246,67910,1,8,0:0:0:0:
344,76,68060,6,0,L|448:64,1,100,2|8,0:0|0:0,0:0:0:0:
512,284,68360,1,2,0:0:0:0:
352,192,68510,1,8,0:0:0:0:
280,364,68660,2,0,P|220:372|172:352,1,100,2|8,0:0|0:0,0:0:0:0:
84,152,68960,1,2,0:0:0:0:
264,256,69110,1,8,0:0:0:0:
64,336,69260,6,0,L|48:236,1,100,6|8,0:0|0:0,0:0:0:0:
196,56,69560,2,0,L|211:154,1,100,2|8,0:0|0:0,0:0:0:0:
376,332,69860,2,0,L|361:234,1,100,2|8,0:0|0:0,0:0:0:0:
384,76,70160,1,2,0:0:0:0:
276,228,70310,1,8,0:0:0:0:
384,76,70460,6,0,L|484:52,1,100,2|8,0:0|0:0,0:0:0:0:
455,252,70760,2,0,P|399:252|355:228,1,100,2|8,0:0|0:0,0:0:0:0:
191,51,71060,2,0,P|181:132|175:203,2,150,2|0|8,0:0|0:0|0:0,0:0:0:0:
360,232,71660,5,6,0:0:0:0:
300,64,71810,1,8,0:0:0:0:
176,201,71960,2,0,P|120:224|56:212,1,100,2|8,0:0|0:0,0:0:0:0:
20,32,72260,2,0,P|70:31|124:52,1,100,2|8,0:0|0:0,0:0:0:0:
276,200,72560,1,2,0:0:0:0:
380,28,72710,1,8,0:0:0:0:
472,136,72860,5,2,0:0:0:0:
268,56,73010,1,8,0:0:0:0:
360,232,73160,2,0,L|460:244,1,100,2|8,0:0|0:0,0:0:0:0:
400,48,73460,5,2,0:0:0:0:
264,244,73610,1,8,0:0:0:0:
492,132,73760,1,2,0:0:0:0:
252,8,73910,1,8,0:0:0:0:
176,224,74060,6,0,L|156:388,1,150.000005722046,6|0,0:0|0:0,0:0:0:0:
328,316,74510,1,2,0:0:0:0:
220,140,74660,1,8,0:0:0:0:
228,120,74960,5,2,0:0:0:0:
304,212,75110,2,0,L|464:224,2,150.000005722046,2|8|2,0:0|0:0|0:0,0:0:0:0:
320,24,75860,1,8,0:0:0:0:
336,40,76160,6,0,L|328:120,1,75.0000028610231,2|8,0:0|0:0,0:0:0:0:
216,200,76460,2,0,P|152:204|84:124,1,150.000005722046,8|0,0:0|0:0,0:0:0:0:
8,296,76910,1,2,0:0:0:0:
8,296,76985,1,0,0:0:0:0:
8,296,77060,2,0,L|88:284,1,75.0000028610231,8|0,0:0|0:0,0:0:0:0:
208,376,77360,2,0,L|128:364,1,75.0000028610231,2|8,0:0|0:0,0:0:0:0:
312,212,77660,5,2,0:0:0:0:
172,284,77810,1,8,0:0:0:0:
92,140,77960,1,2,0:0:0:0:
172,284,78110,1,8,0:0:0:0:
256,124,78260,2,0,P|303:106|351:109,1,75.0000028610231,2|0,0:0|0:0,0:0:0:0:
432,344,78560,1,2,0:0:0:0:
385,360,78635,1,8,0:0:0:0:
335,358,78710,1,2,0:0:0:0:
290,338,78785,1,2,0:0:0:0:
256,302,78860,5,6,0:0:0:0:
412,172,79010,1,8,0:0:0:0:
204,96,79160,1,2,0:0:0:0:
340,252,79310,1,8,0:0:0:0:
400,76,79460,2,0,L|504:52,1,100,2|8,0:0|0:0,0:0:0:0:
492,248,79760,1,2,0:0:0:0:
296,108,79910,6,0,P|236:88|140:180,1,200,8|8,0:0|0:0,0:0:0:0:
290,338,80360,1,2,0:0:0:0:
392,172,80510,1,8,0:0:0:0:
184,284,80660,2,0,P|106:269|36:256,2,150,2|0|8,0:0|0:0|0:0,0:0:0:0:
273,95,81260,5,6,0:0:0:0:
392,266,81410,1,8,0:0:0:0:
181,178,81560,1,2,0:0:0:0:
374,42,81710,1,8,0:0:0:0:
489,192,81860,2,0,L|489:302,1,100,2|8,0:0|0:0,0:0:0:0:
278,187,82160,1,2,0:0:0:0:
357,363,82310,2,0,P|414:385|476:376,1,100,8|2,0:0|0:0,0:0:0:0:
383,165,82610,5,8,0:0:0:0:
269,293,82760,1,2,0:0:0:0:
489,192,82910,1,8,0:0:0:0:
264,86,83060,5,2,0:0:0:0:
401,275,83210,1,8,0:0:0:0:
484,46,83360,1,2,0:0:0:0:
423,284,83510,1,8,0:0:0:0:
344,2,83660,5,6,0:0:0:0:
172,192,83810,1,8,0:0:0:0:
432,136,83960,1,2,0:0:0:0:
207,15,84110,1,8,0:0:0:0:
295,266,84260,5,2,0:0:0:0:
379,29,84410,1,8,0:0:0:0:
124,90,84560,1,2,0:0:0:0:
370,178,84710,1,8,0:0:0:0:
192,368,84860,5,6,0:0:0:0:
272,136,85010,1,8,0:0:0:0:
440,328,85160,1,2,0:0:0:0:
388,82,85310,1,8,0:0:0:0:
180,208,85460,5,2,0:0:0:0:
436,232,85610,1,8,0:0:0:0:
292,8,85760,1,2,0:0:0:0:
288,260,85910,1,8,0:0:0:0:
480,88,86060,5,6,0:0:0:0:
376,328,86210,1,8,0:0:0:0:
244,112,86360,1,2,0:0:0:0:
456,252,86510,1,8,0:0:0:0:
344,48,86660,5,2,0:0:0:0:
184,240,86810,1,8,0:0:0:0:
416,336,86960,1,2,0:0:0:0:
280,144,87110,1,8,0:0:0:0:
192,332,87260,6,0,L|88:320,1,100,2|8,0:0|0:0,0:0:0:0:
84,124,87560,1,2,0:0:0:0:
0,268,87710,1,8,0:0:0:0:
216,216,87860,1,2,0:0:0:0:
136,36,88010,1,8,0:0:0:0:
76,224,88160,1,2,0:0:0:0:
136,36,88310,1,8,0:0:0:0:
276,148,88460,6,0,L|376:132,1,100,6|8,0:0|0:0,0:0:0:0:
290,347,88760,2,0,L|190:331,1,100,2|8,0:0|0:0,0:0:0:0:
160,136,89060,2,0,P|161:190|175:234,1,100,2|8,0:0|0:0,0:0:0:0:
336,232,89360,1,2,0:0:0:0:
191,331,89510,1,8,0:0:0:0:
160,136,89660,6,0,L|60:112,1,100,2|8,0:0|0:0,0:0:0:0:
4,320,89960,2,0,P|60:320|104:296,1,100,2|8,0:0|0:0,0:0:0:0:
296,168,90260,2,0,P|306:249|312:320,2,150,2|0|8,0:0|0:0|0:0,0:0:0:0:
136,40,90860,5,6,0:0:0:0:
188,216,91010,1,8,0:0:0:0:
252,48,91160,2,0,P|308:25|372:37,1,100,2|8,0:0|0:0,0:0:0:0:
484,204,91460,2,0,P|432:200|380:172,1,100,2|8,0:0|0:0,0:0:0:0:
252,48,91760,1,2,0:0:0:0:
292,232,91910,1,8,0:0:0:0:
432,80,92060,5,2,0:0:0:0:
224,144,92210,1,8,0:0:0:0:
377,278,92360,2,0,L|389:178,1,100,2|8,0:0|0:0,0:0:0:0:
236,24,92660,5,2,0:0:0:0:
292,232,92810,1,8,0:0:0:0:
432,56,92960,1,2,0:0:0:0:
208,164,93110,1,8,0:0:0:0:
480,260,93260,5,6,0:0:0:0:
492,272,93710,1,2,0:0:0:0:
492,272,93785,1,0,0:0:0:0:
492,272,93860,2,0,P|400:296|312:236,1,200,8|0,0:0|0:0,0:0:0:0:
380,24,94310,1,2,0:0:0:0:
380,24,94385,1,0,0:0:0:0:
380,24,94460,5,0,0:0:0:0:
176,172,94610,1,8,0:0:0:0:
184,180,94910,1,2,0:0:0:0:
184,180,94985,1,0,0:0:0:0:
184,180,95060,2,0,P|283:160|384:144,1,200,8|0,0:0|0:0,0:0:0:0:
200,48,95510,2,0,L|148:72,1,50,8|0,0:0|0:0,0:0:0:0:
36,136,95660,5,8,0:0:0:0:
188,320,95810,1,0,0:0:0:0:
188,320,96110,1,2,0:0:0:0:
276,132,96260,2,0,P|332:112|436:192,1,200,8|2,0:0|0:0,0:0:0:0:
192,232,96710,6,0,P|180:160|192:32,1,200,8|8,0:0|0:0,0:0:0:0:
336,218,97160,1,2,0:0:0:0:
232,348,97310,1,8,0:0:0:0:
136,160,97460,1,2,0:0:0:0:
208,324,97610,1,0,0:0:0:0:
276,132,97760,1,2,0:0:0:0:
310,96,97835,1,8,0:0:0:0:
355,76,97910,1,2,0:0:0:0:
405,74,97985,1,2,0:0:0:0:
452,90,98060,5,6,0:0:0:0:
352,260,98210,1,8,0:0:0:0:
192,96,98360,1,2,0:0:0:0:
372,168,98510,1,8,0:0:0:0:
256,308,98660,2,0,P|200:300|164:276,1,100,2|8,0:0|0:0,0:0:0:0:
92,72,98960,1,2,0:0:0:0:
272,200,99110,6,0,P|346:139|333:45,1,200,8|8,0:0|0:0,0:0:0:0:
148,164,99560,1,2,0:0:0:0:
268,316,99710,1,8,0:0:0:0:
364,152,99860,2,0,P|442:137|512:124,2,150,2|0|8,0:0|0:0|0:0,0:0:0:0:
364,320,100460,5,6,0:0:0:0:
240,136,100610,1,8,0:0:0:0:
144,268,100760,2,0,L|124:372,1,100,2|8,0:0|0:0,0:0:0:0:
320,228,101060,1,2,0:0:0:0:
104,152,101210,1,8,0:0:0:0:
264,316,101360,1,2,0:0:0:0:
408,60,101510,5,8,0:0:0:0:
248,268,102860,6,0,L|160:252,1,75.0000028610231,6|8,0:0|0:0,0:0:0:0:
132,160,103160,1,2,0:0:0:0:
196,80,103310,1,8,0:0:0:0:
304,184,103460,2,0,P|352:192|420:124,1,150.000005722046,8|2,0:0|0:0,0:0:0:0:
280,32,103910,1,8,0:0:0:0:
280,32,103985,1,0,0:0:0:0:
280,32,104060,5,8,0:3:0:0:
220,164,104210,1,4,0:3:0:0:
144,56,104360,2,0,L|64:40,1,75.0000028610231,0|4,0:0|0:3,0:0:0:0:
0,184,104660,2,0,P|56:200|132:144,1,150.000005722046,12|12,0:1|0:0,0:0:0:0:
128,152,105260,6,0,L|140:244,1,75.0000028610231,6|8,0:0|0:0,0:0:0:0:
212,308,105560,1,2,0:0:0:0:
300,184,105710,1,8,0:0:0:0:
300,184,105785,1,8,0:0:0:0:
300,184,105860,2,0,P|364:172|428:228,1,150.000005722046,8|4,0:0|0:3,0:0:0:0:
484,356,106310,6,0,P|494:308|504:272,1,75.0000028610231,8|0,0:3|0:0,0:0:0:0:
500,176,106610,1,8,0:3:0:0:
372,292,106760,2,0,P|324:304|288:300,1,75.0000028610231,4|8,0:3|0:0,0:0:0:0:
204,168,107060,1,8,0:0:0:0:
168,312,107210,1,8,0:0:0:0:
300,184,107360,1,2,0:0:0:0:
300,184,107660,6,0,L|312:104,1,75.0000028610231,6|8,0:0|0:0,0:0:0:0:
372,24,107960,1,2,0:0:0:0:
424,116,108110,1,2,0:0:0:0:
268,16,108260,2,0,P|196:8|136:64,1,150.000005722046,8|8,0:0|0:0,0:0:0:0:
120,216,108710,1,2,0:0:0:0:
48,128,108860,6,0,L|28:44,1,75.0000028610231,0|8,0:0|0:0,0:0:0:0:
200,144,109160,1,2,0:0:0:0:
120,216,109310,1,8,0:0:0:0:
139,55,109460,2,0,L|291:43,1,150.000005722046,8|2,0:0|0:0,0:0:0:0:
380,108,109910,1,8,0:0:0:0:
320,232,110060,6,0,P|280:244|244:244,1,75.0000028610231,12|2,0:0|0:0,0:0:0:0:
120,216,110360,1,2,0:0:0:0:
172,308,110510,1,2,0:0:0:0:
268,156,110660,2,0,L|292:8,1,150.000005722046,8|2,0:0|0:0,0:0:0:0:
380,108,111110,1,8,0:0:0:0:
408,240,111260,6,0,P|440:256|488:252,1,75.0000028610231,8|8,0:0|0:0,0:0:0:0:
380,108,111560,2,0,P|342:106|309:123,1,75.0000028610231,2|2,0:0|0:0,0:0:0:0:
480,144,111860,2,0,P|496:110|495:73,1,75.0000028610231,8|0,0:0|0:0,0:0:0:0:
352,12,112160,1,8,0:0:0:0:
309,123,112310,1,2,0:0:0:0:
196,44,112460,6,0,L|112:56,1,75.0000028610231,12|2,0:0|0:0,0:0:0:0:
40,120,112760,1,2,0:0:0:0:
24,24,112910,1,2,0:0:0:0:
136,148,113060,2,0,P|216:160|272:104,1,150.000005722046,8|8,0:0|0:0,0:0:0:0:
316,16,113510,1,2,0:0:0:0:
400,136,113660,6,0,L|416:212,1,75.0000028610231,0|8,0:0|0:0,0:0:0:0:
380,312,113960,1,2,0:0:0:0:
480,344,114110,1,2,0:0:0:0:
415,209,114260,2,0,P|352:172|272:196,1,150.000005722046,8|8,0:0|0:0,0:0:0:0:
232,280,114710,1,0,0:0:0:0:
172,156,114860,5,2,0:0:0:0:
88,352,115010,2,0,P|41:348|-12:344,1,100,12|0,0:0|0:0,0:0:0:0:
72,144,115310,5,2,0:0:0:0:
232,280,115460,2,0,P|279:257|322:236,1,100,12|0,0:0|0:0,0:0:0:0:
140,60,115760,5,2,0:0:0:0:
44,272,115910,2,0,P|23:226|0:176,1,100,12|0,0:0|0:0,0:0:0:0:
256,108,116210,5,8,0:0:0:0:
136,304,116360,1,8,0:0:0:0:
48,92,116510,1,8,0:0:0:0:
320,236,116660,5,6,0:0:0:0:
