osu file format v14

[General]
AudioFilename: optc.mp3
AudioLeadIn: 0
PreviewTime: 1310
Countdown: 0
SampleSet: Normal
StackLeniency: 0.7
Mode: 0
LetterboxInBreaks: 0
WidescreenStoryboard: 1

[Editor]
Bookmarks: 2060,11660,21260,35660,54860,64460,69260,83660,93260,102860
DistanceSpacing: 1.3
BeatDivisor: 2
GridSize: 4
TimelineZoom: 2

[Metadata]
Title:Soukai Rock
TitleUnicode:爽快ロック
Artist:Silent Siren
ArtistUnicode:Silent Siren
Creator:Shad0w1and
Version:A r M i N's Easy
Source:
Tags:恋い雪 Koi Yuki Lami intoon VINXIS Misure Pata-Mon ZZHBOY sahuang A_r_M_i_N
BeatmapID:980077
BeatmapSetID:437797

[Difficulty]
HPDrainRate:3
CircleSize:2.1
OverallDifficulty:2
ApproachRate:3
SliderMultiplier:0.65
SliderTickRate:1

[Events]
//Background and Video events
0,0,"BG.jpg",0,0
Video,0,"optc.flv"
//Break Periods
2,21460,24620
2,103060,106220
//Storyboard Layer 0 (Background)
//Storyboard Layer 1 (Fail)
//Storyboard Layer 2 (Pass)
//Storyboard Layer 3 (Foreground)
//Storyboard Sound Samples

[TimingPoints]
860,300,4,3,1,80,1,0
2060,-100,4,2,1,80,0,0
6860,-100,4,1,1,80,0,0
11660,-100,4,1,1,100,0,1
21260,-100,4,1,1,100,0,0
35660,-100,4,2,1,70,0,0
54860,-100,4,2,1,80,0,0
62060,-100,4,1,1,100,0,0
64460,-100,4,1,1,100,0,1
74060,-100,4,1,1,100,0,0
78860,-100,4,1,1,100,0,1
83060,-100,4,1,1,100,0,0
83660,-100,4,1,1,100,0,1
93260,-100,4,1,1,100,0,0
98060,-100,4,1,1,100,0,1
102860,-100,4,1,1,100,0,0

[Colours]
Combo1 : 255,255,91
Combo2 : 50,241,151
Combo3 : 113,176,255
Combo4 : 245,92,116

[HitObjects]
94,97,1460,6,0,L|87:173,1,65
128,236,2060,2,0,P|199:249|254:210,1,130
288,57,3260,2,0,L|438:65,1,130
270,147,4460,6,0,P|216:113|198:45,1,130,0|0,2:0|0:0,0:0:0:0:
58,148,5660,2,0,L|62:284,1,130
154,143,6860,6,0,P|223:126|277:159,1,130,0|0,2:0|2:0,2:0:0:0:
305,230,7760,1,0,0:0:0:0:
363,290,8060,2,0,P|399:296|443:288,1,65
493,240,8660,2,0,L|489:159,1,65
461,95,9260,6,0,P|421:67|327:163,1,195
330,228,10460,2,0,L|327:298,2,65
388,74,11660,6,0,L|310:70,1,65
246,106,12260,2,0,L|168:102,1,65
108,58,12860,2,0,P|96:117|138:177,1,130
214,192,13760,1,0,0:0:0:0:
298,190,14060,6,0,P|347:243|339:307,1,130
277,349,14960,1,0,0:0:0:0:
195,326,15260,2,0,L|113:322,1,65
59,275,15860,2,0,P|53:238|59:206,1,65
105,141,16460,6,0,L|241:146,1,130
315,170,17360,1,0,0:0:0:0:
395,144,17660,2,0,P|406:72|366:26,1,130
291,7,18560,1,0,0:0:0:0:
228,63,18860,6,0,P|221:99|228:132,1,65
262,202,19460,2,0,L|257:318,2,97.5
310,132,20660,6,0,P|346:126|380:134,1,65
449,168,21260,1,0,0:0:0:0:
63,230,26060,6,0,P|52:280|71:326,2,97.5
135,189,27260,2,0,L|204:192,1,65
274,231,27860,2,0,L|342:234,1,65
403,179,28460,6,0,P|423:228|410:279,2,97.5
331,133,29660,2,0,L|333:68,1,65
270,11,30260,2,0,P|234:4|201:11,1,65
131,48,30860,6,0,L|34:44,2,97.5
202,93,32060,2,0,P|206:124|199:156,1,65
169,236,32660,2,0,P|162:267|166:299,1,65
230,354,33260,6,0,P|302:357|344:312,1,130
373,197,34310,2,0,L|367:34,1,162.5
241,147,35660,6,0,P|195:161|148:148,2,97.5
315,107,36860,2,0,P|360:92|407:105,2,97.5
313,191,38060,6,0,L|317:288,2,97.5
241,147,39260,2,0,L|245:50,2,97.5
172,196,40460,6,0,P|127:211|80:198,2,97.5
241,147,41660,2,0,P|286:132|333:145,2,97.5
172,196,42860,6,0,L|177:332,1,130
249,368,43760,1,0,0:0:0:0:
327,336,44060,2,0,L|392:338,1,65
461,289,44660,2,0,P|468:257|464:225,1,65
420,152,45260,6,0,P|405:107|418:60,2,97.5
464,225,46460,2,0,P|479:270|466:317,2,97.5
420,152,47660,6,0,B|369:152|369:152|342:159|342:159|289:159,1,130
206,160,48560,1,0,0:0:0:0:
141,214,48860,2,0,P|96:229|49:216,2,97.5
206,160,50060,6,0,L|202:63,2,97.5
271,213,51260,2,0,L|267:310,2,97.5
337,161,52460,6,0,P|400:158|445:202,1,130
451,287,53360,1,0,0:0:0:0:
384,339,53660,2,0,P|351:342|320:335,1,65
244,298,54260,2,0,P|212:291|180:294,1,65
101,325,54860,6,0,L|105:195,1,130
205,59,56060,2,0,P|263:34|321:59,1,130
441,177,57260,6,0,L|436:306,1,130
312,191,58460,2,0,P|254:165|195:190,1,130
68,302,59660,6,0,B|68:251|68:251|61:224|61:224|61:171,1,130
189,62,60860,2,0,B|189:113|189:113|196:140|196:140|196:193,1,130
196,275,61760,1,0,0:0:0:0:
256,192,62060,12,0,63110,0:0:0:0:
6,191,64460,6,0,P|64:217|123:192,1,130
169,122,65360,1,0,0:0:0:0:
206,46,65660,2,0,P|264:21|322:47,1,130
362,122,66560,1,0,0:0:0:0:
381,204,66860,6,0,L|376:333,1,130
301,374,67760,1,0,0:0:0:0:
226,333,68060,2,0,L|161:331,1,65
94,278,68660,2,0,P|91:245|98:214,1,65
155,152,69260,6,0,L|284:157,1,130
359,197,70160,1,0,0:0:0:0:
415,260,70460,2,0,P|418:292|411:323,1,65
337,365,71060,2,0,L|272:363,1,65
199,319,71660,6,0,P|174:261|200:203,1,130
274,163,72560,1,0,0:0:0:0:
353,133,72860,2,0,P|359:101|356:69,1,65
291,13,73460,2,0,P|259:7|227:10,1,65
148,40,74060,6,0,L|19:35,1,130
154,134,75260,2,0,P|179:192|153:250,1,130
267,125,76460,6,0,B|318:125|318:125|345:118|345:118|396:118,1,130
370,285,77660,2,0,P|312:310|254:284,1,130
165,140,78860,6,0,L|170:269,1,130
238,320,79760,1,0,0:0:0:0:
289,253,80060,2,0,P|347:228|405:254,1,130
466,311,80960,2,0,L|464:376,1,65
276,96,82460,6,0,L|211:98,1,65
138,141,83060,2,0,L|73:143,1,65
11,85,83660,6,0,P|-13:146|14:204,1,130
88,237,84560,1,0,0:0:0:0:
170,220,84860,2,0,L|299:225,1,130
384,228,85760,1,0,0:0:0:0:
455,182,86060,6,0,P|479:123|454:65,1,130
375,35,86960,1,0,0:0:0:0:
305,83,87260,2,0,L|240:81,1,65
169,127,87860,2,0,L|104:125,1,65
42,67,88460,6,0,P|18:128|45:186,1,130
116,225,89360,1,0,0:0:0:0:
198,208,89660,2,0,L|327:213,1,130
400,169,90560,1,0,0:0:0:0:
386,85,90860,6,0,P|343:35|279:31,1,130
210,75,91760,1,0,0:0:0:0:
153,137,92060,2,0,P|147:168|150:201,1,65
180,280,92660,2,0,P|183:312|177:344,1,65
99,377,93260,6,0,P|42:349|21:289,1,130
88,134,94460,2,0,L|217:139,1,130
302,285,95660,6,0,L|173:290,1,130
88,134,96860,2,0,P|115:77|175:55,1,130
254,84,97760,1,0,0:0:0:0:
334,57,98060,6,0,L|403:61,1,65
465,112,98660,2,0,P|468:144|462:176,1,65
404,238,99260,6,0,L|275:233,1,130
200,191,100160,1,0,0:0:0:0:
154,120,100460,2,0,P|151:88|157:56,1,65
231,16,101060,6,0,L|328:19,1,97.5
76,303,102860,5,0,0:0:0:0:
401,259,107660,6,0,P|412:309|393:355,2,97.5
329,218,108860,2,0,L|260:221,1,65
190,260,109460,2,0,L|122:263,1,65
61,208,110060,6,0,P|41:257|54:308,2,97.5
133,162,111260,2,0,L|131:97,1,65
194,40,111860,2,0,P|230:33|263:40,1,65
333,77,112460,6,0,L|430:73,2,97.5
262,122,113660,2,0,P|258:153|265:185,1,65
295,265,114260,2,0,P|302:296|298:328,1,65
226,374,114860,6,0,L|95:371,1,130
22,268,115910,2,0,P|34:206|137:163,1,162.5
