osu file format v14

[General]
AudioFilename: optc.mp3
AudioLeadIn: 0
PreviewTime: 1310
Countdown: 0
SampleSet: Normal
StackLeniency: 0.9
Mode: 0
LetterboxInBreaks: 0
WidescreenStoryboard: 1

[Editor]
Bookmarks: 2060,11660,21260,54860,64460,83660,93260,102860
DistanceSpacing: 1.9
BeatDivisor: 4
GridSize: 16
TimelineZoom: 2.599999

[Metadata]
Title:Soukai Rock
TitleUnicode:爽快ロック
Artist:Silent Siren
ArtistUnicode:Silent Siren
Creator:Shad0w1and
Version:Hyper
Source:
Tags:恋い雪 Koi Yuki Lami intoon VINXIS Misure Pata-Mon ZZHBOY sahuang A_r_M_i_N
BeatmapID:975628
BeatmapSetID:437797

[Difficulty]
HPDrainRate:5
CircleSize:3.5
OverallDifficulty:6
ApproachRate:8.5
SliderMultiplier:1.4
SliderTickRate:1

[Events]
//Background and Video events
0,0,"BG.jpg",0,0
Video,0,"optc.flv"
//Break Periods
2,21460,25385
//Storyboard Layer 0 (Background)
//Storyboard Layer 1 (Fail)
//Storyboard Layer 2 (Pass)
//Storyboard Layer 3 (Foreground)
//Storyboard Sound Samples

[TimingPoints]
860,300,4,3,1,80,1,0
1460,-133.333333333333,4,3,1,80,0,0
2060,-133.333333333333,4,2,1,80,0,0
6860,-117.647058823529,4,1,1,80,0,0
11660,-100,4,1,1,100,0,1
21260,-111.111111111111,4,1,1,100,0,0
35660,-133.333333333333,4,2,1,70,0,0
54860,-117.647058823529,4,2,1,80,0,0
62060,-117.647058823529,4,1,1,100,0,0
64460,-90.9090909090909,4,1,1,100,0,1
74060,-90.9090909090909,4,1,1,100,0,0
78860,-90.9090909090909,4,1,1,100,0,1
83060,-90.9090909090909,4,1,1,100,0,0
83660,-90.9090909090909,4,1,1,100,0,1
93260,-90.9090909090909,4,1,1,100,0,0
98060,-90.9090909090909,4,1,1,100,0,1
101510,-90.9090909090909,4,1,1,90,0,0
102860,-111.111111111111,4,1,1,100,0,0

[Colours]
Combo1 : 255,255,91
Combo2 : 50,241,151
Combo3 : 113,176,255
Combo4 : 245,92,116

[HitObjects]
229,151,1460,6,0,B|254:128|279:119|279:119|256:99|235:98,1,105.000004005432,0|0,0:0|0:0,0:0:0:0:
37,174,2060,6,0,B|25:229|72:263|72:263|176:200|193:293|285:239,1,315.000012016297,4|0,0:1|0:0,0:0:0:0:
464,222,3260,2,0,B|457:274|407:291|407:291|446:177|366:182|411:62,1,315.000012016297,4|0,0:1|0:0,0:0:0:0:
233,163,4460,2,0,B|229:213|276:244|276:244|224:261|177:259|177:259|232:297|237:368,1,315.000012016297,4|0,0:1|0:0,0:0:0:0:
46,353,5660,2,0,B|71:378|119:362|119:362|61:328|55:265|55:265|100:219|85:155,1,315.000012016297,4|0,0:1|0:0,0:0:0:0:
241,11,6860,6,0,P|284:16|385:-1,1,119.000002269745,6|2,0:0|0:0,0:0:0:0:
454,199,7460,2,0,P|401:187|325:187,1,119.000002269745,2|2,0:0|0:0,0:0:0:0:
234,152,7910,2,0,P|245:221|253:294,1,119.000002269745,2|0,0:2|0:0,0:0:0:0:
163,331,8360,2,0,P|88:350|28:323,2,119.000002269745,2|2|2,0:0|0:0|0:0,0:0:0:0:
101,243,9110,1,2,0:2:0:0:
41,154,9260,2,0,P|88:136|169:159,2,119.000002269745,2|2|2,0:0|0:0|0:0,0:0:0:0:
163,331,10160,1,2,0:0:0:0:
221,241,10310,1,2,0:2:0:0:
276,149,10460,6,0,L|341:140,1,59.5000011348725,2|8,0:0|0:0,0:0:0:0:
388,249,10760,2,0,L|311:244,1,59.5000011348725,8|8,0:0|0:0,0:0:0:0:
221,241,11060,2,0,B|249:292|192:301|224:353,1,119.000002269745,0|0,0:0|0:0,0:0:0:0:
225,353,11660,6,0,P|288:328|378:345,1,140,6|2,0:0|0:0,0:0:0:0:
476,289,12110,1,8,0:0:0:0:
476,289,12260,2,0,L|490:215,1,70,2|8,0:0|0:0,0:0:0:0:
367,157,12560,2,0,L|374:232,1,70,2|8,0:0|0:0,0:0:0:0:
250,254,12860,6,0,P|174:239|135:171,1,140,6|2,0:0|0:0,0:0:0:0:
248,80,13310,1,8,0:0:0:0:
248,80,13460,2,0,L|236:169,1,70,2|8,0:0|0:0,0:0:0:0:
367,157,13760,2,0,L|362:72,1,70,2|8,0:0|0:0,0:0:0:0:
473,185,14060,6,0,P|422:253|359:265,1,140,6|2,0:0|0:0,0:0:0:0:
250,254,14510,1,8,0:0:0:0:
250,254,14660,2,0,L|262:340,1,70,2|8,0:0|0:0,0:0:0:0:
133,336,14960,2,0,L|139:262,1,70,2|8,0:0|0:0,0:0:0:0:
180,146,15260,6,0,L|272:133,1,70,0|8,0:0|0:0,0:0:0:0:
138,266,15560,2,0,L|54:253,1,70,2|8,0:0|0:0,0:0:0:0:
253,250,15860,2,0,L|243:319,1,70,2|8,0:0|0:0,0:0:0:0:
360,197,16160,2,0,L|374:98,1,70,2|8,0:0|0:0,0:0:0:0:
367,311,16460,6,0,L|442:312,1,70,6|8,0:0|0:0,0:0:0:0:
360,197,16760,2,0,L|275:202,1,70,2|8,0:0|0:0,0:0:0:0:
204,294,17060,2,0,P|210:334|226:367,1,70,2|8,0:0|0:0,0:0:0:0:
96,370,17360,1,2,0:0:0:0:
96,370,17510,6,0,P|111:288|113:206,1,140,8|8,0:0|0:0,0:0:0:0:
39,129,17960,2,0,P|80:131|132:125,1,70,2|8,0:0|0:0,0:0:0:0:
230,96,18260,2,0,P|214:147|229:220,2,105,2|0|8,0:0|0:0|0:0,0:0:0:0:
336,164,18860,6,0,L|411:161,1,70,6|8,0:0|0:0,0:0:0:0:
507,235,19160,2,0,L|510:328,1,70,2|8,0:0|0:0,0:0:0:0:
393,354,19460,2,0,L|379:261,1,70,2|8,0:0|0:0,0:0:0:0:
257,264,19760,1,2,0:0:0:0:
257,264,19910,6,0,P|182:298|164:352,2,140,8|8|8,0:0|0:0|0:0,0:0:0:0:
383,256,20660,2,0,L|391:164,1,70,2|8,0:0|0:0,0:0:0:0:
245,194,20960,2,0,L|258:274,1,70,2|8,0:0|0:0,0:0:0:0:
278,375,21260,5,6,0:0:0:0:
96,128,26060,6,0,P|87:199|76:263,1,125.999996154785,6|2,0:0|0:0,0:0:0:0:
278,354,26660,2,0,P|262:295|269:214,1,125.999996154785,8|8,0:0|0:0,0:0:0:0:
350,155,27110,2,0,P|426:160|494:139,1,125.999996154785,2|8,0:0|0:0,0:0:0:0:
476,34,27560,1,2,0:0:0:0:
441,258,27860,1,8,0:0:0:0:
338,55,28160,1,2,0:0:0:0:
290,276,28460,6,0,P|223:286|136:291,1,125.999996154785,6|2,0:0|0:0,0:0:0:0:
50,91,29060,2,0,P|112:104|204:106,1,125.999996154785,8|2,0:0|0:0,0:0:0:0:
294,92,29510,1,2,0:0:0:0:
294,92,29660,6,0,L|261:148,1,62.9999980773926,2|8,0:0|0:0,0:0:0:0:
387,141,29960,2,0,L|336:182,1,62.9999980773926,2|2,0:0|0:0,0:0:0:0:
459,217,30260,2,0,L|397:238,1,62.9999980773926,8|2,0:0|0:0,0:0:0:0:
500,315,30560,2,0,L|435:314,1,62.9999980773926,2|8,0:0|0:0,0:0:0:0:
310,325,30860,6,0,L|317:195,1,125.999996154785,6|2,0:0|0:0,0:0:0:0:
108,110,31460,2,0,L|115:240,1,125.999996154785,8|8,0:0|0:0,0:0:0:0:
114,236,31910,1,2,0:0:0:0:
273,75,32210,1,8,0:0:0:0:
273,75,32360,2,0,L|353:64,1,62.9999980773926,2|2,0:0|0:0,0:0:0:0:
374,172,32660,2,0,L|229:166,1,125.999996154785,8|2,0:0|0:0,0:0:0:0:
65,301,33260,5,2,0:0:0:0:
65,301,33410,1,12,0:0:0:0:
87,75,33710,5,2,0:0:0:0:
87,75,33860,1,12,0:0:0:0:
228,252,34160,5,2,0:0:0:0:
228,252,34310,1,12,0:0:0:0:
12,180,34610,5,8,0:0:0:0:
12,180,34760,1,8,0:0:0:0:
12,180,34910,1,8,0:0:0:0:
12,180,35060,1,6,0:0:0:0:
12,180,35660,6,0,P|71:165|105:124,1,105.000004005432,6|0,0:1|0:0,0:0:0:0:
190,161,36110,2,0,L|193:233,1,52.5000020027161,4|8,0:0|0:0,0:0:0:0:
192,213,36560,1,4,0:0:0:0:
286,205,36710,1,4,0:0:0:0:
379,192,36860,2,0,L|382:80,2,105.000004005432,4|4|8,0:0|0:0|0:0,0:0:0:0:
379,192,37760,1,0,0:0:0:0:
345,280,37910,1,8,0:0:0:0:
300,363,38060,6,0,P|241:365|199:333,1,105.000004005432,6|0,0:0|0:0,0:0:0:0:
163,254,38510,2,0,L|185:198,1,52.5000020027161,4|8,0:0|0:0,0:0:0:0:
182,205,38960,1,4,0:0:0:0:
93,172,39110,1,4,0:0:0:0:
4,138,39260,2,0,L|4:201,1,52.5000020027161,4|8,0:0|0:0,0:0:0:0:
75,80,39560,2,0,L|75:27,1,52.5000020027161,4|0,0:0|0:0,0:0:0:0:
162,109,39860,1,8,0:0:0:0:
162,109,40160,1,0,0:0:0:0:
252,67,40310,1,8,0:0:0:0:
341,23,40460,6,0,P|370:81|421:102,1,105.000004005432,6|0,0:0|0:0,0:0:0:0:
437,192,40910,2,0,L|379:194,1,52.5000020027161,4|8,0:0|0:0,0:0:0:0:
384,193,41360,1,4,0:0:0:0:
364,290,41510,1,4,0:0:0:0:
330,384,41660,2,0,L|272:382,1,52.5000020027161,4|8,0:0|0:0,0:0:0:0:
265,282,41960,2,0,L|207:281,1,52.5000020027161,4|0,0:0|0:0,0:0:0:0:
112,282,42260,1,8,0:0:0:0:
112,282,42560,2,0,L|119:216,1,52.5000020027161,0|8,0:0|0:0,0:0:0:0:
17,218,42860,6,0,L|26:340,1,105.000004005432,6|4,0:0|0:0,0:0:0:0:
108,377,43310,1,4,0:0:0:0:
199,336,43460,2,0,P|251:353|299:338,1,105.000004005432,8|4,0:0|0:0,0:0:0:0:
350,254,43910,1,4,0:0:0:0:
265,201,44060,2,0,L|249:260,1,52.5000020027161,4|8,0:0|0:0,0:0:0:0:
151,245,44360,2,0,L|166:185,1,52.5000020027161,4|0,0:0|0:0,0:0:0:0:
63,191,44660,1,8,0:0:0:0:
53,290,44810,1,8,0:3:0:0:
135,346,44960,1,4,0:0:0:0:
135,346,45260,6,0,P|194:331|228:290,1,105.000004005432,6|0,0:1|0:0,0:0:0:0:
222,200,45710,2,0,L|294:197,1,52.5000020027161,4|8,0:0|0:0,0:0:0:0:
274,198,46160,1,4,0:0:0:0:
266,104,46310,1,4,0:0:0:0:
253,11,46460,2,0,L|322:8,1,52.5000020027161,4|8,0:0|0:0,0:0:0:0:
405,8,46760,1,4,0:0:0:0:
405,8,47060,2,0,P|388:60|422:115,1,105.000004005432,8|0,0:0|0:0,0:0:0:0:
447,195,47510,1,8,0:0:0:0:
359,242,47660,6,0,P|299:252|242:233,1,105.000004005432,6|0,0:0|0:0,0:0:0:0:
156,272,48110,2,0,L|152:335,1,52.5000020027161,4|8,0:0|0:0,0:0:0:0:
152,324,48560,1,4,0:0:0:0:
70,267,48710,1,4,0:0:0:0:
139,195,48860,2,0,L|202:195,1,52.5000020027161,4|8,0:0|0:0,0:0:0:0:
66,128,49160,2,0,L|13:128,1,52.5000020027161,4|0,0:0|0:0,0:0:0:0:
134,53,49460,2,0,L|203:53,2,52.5000020027161,8|0|0,0:0|0:0|0:0,0:0:0:0:
103,148,49910,1,8,0:0:0:0:
199,169,50060,6,0,P|257:140|278:89,1,105.000004005432,6|0,0:1|0:0,0:0:0:0:
420,152,50510,2,0,L|362:154,1,52.5000020027161,4|8,0:0|0:0,0:0:0:0:
367,153,50960,1,4,0:0:0:0:
347,250,51110,1,4,0:0:0:0:
313,344,51260,2,0,L|255:342,1,52.5000020027161,4|8,0:0|0:0,0:0:0:0:
416,330,51560,2,0,L|468:330,1,52.5000020027161,4|0,0:0|0:0,0:0:0:0:
347,250,51860,1,8,0:0:0:0:
347,250,52160,2,0,L|354:184,1,52.5000020027161,0|8,0:0|0:0,0:0:0:0:
236,160,52460,6,0,L|245:282,1,105.000004005432,6|4,0:0|0:0,0:0:0:0:
150,246,52910,1,4,0:0:0:0:
193,340,53060,2,0,P|245:357|293:342,1,105.000004005432,8|4,0:0|0:0,0:0:0:0:
347,250,53510,1,4,0:0:0:0:
445,251,53660,2,0,L|429:310,1,52.5000020027161,4|8,0:0|0:0,0:0:0:0:
397,166,53960,2,0,L|412:106,1,52.5000020027161,4|8,0:0|0:0,0:0:0:0:
471,42,54260,1,8,0:0:0:0:
377,25,54410,1,8,0:3:0:0:
316,97,54560,1,4,0:3:0:0:
316,97,54860,6,0,P|247:114|197:97,1,119.000002269745,6|8,0:1|0:0,0:0:0:0:
202,100,55460,2,0,P|205:138|203:170,1,59.5000011348725,4|0,0:0|0:0,0:0:0:0:
149,282,55760,2,0,P|182:272|237:271,1,59.5000011348725,8|0,0:0|0:0,0:0:0:0:
300,327,56060,6,0,P|300:278|302:201,1,119.000002269745,6|8,0:0|0:0,0:0:0:0:
301,208,56660,2,0,P|328:219|363:228,1,59.5000011348725,4|0,0:0|0:0,0:0:0:0:
446,285,56960,2,0,P|460:263|490:188,1,59.5000011348725,8|0,0:0|0:0,0:0:0:0:
505,129,57260,6,0,L|345:134,1,119.000002269745,6|8,0:0|0:0,0:0:0:0:
386,132,57860,2,0,L|392:68,1,59.5000011348725,4|0,0:0|0:0,0:0:0:0:
285,58,58160,2,0,L|293:147,1,59.5000011348725,8|0,0:0|0:0,0:0:0:0:
188,83,58460,5,6,0:0:0:0:
188,83,58760,2,0,L|122:75,1,59.5000011348725,8|0,0:0|0:0,0:0:0:0:
138,183,59060,2,0,L|78:190,1,59.5000011348725,4|0,0:0|0:0,0:0:0:0:
115,290,59360,1,8,0:0:0:0:
115,290,59660,6,0,P|157:308|252:269,1,119.000002269745,6|8,0:1|0:0,0:0:0:0:
226,293,60260,2,0,L|224:375,1,59.5000011348725,4|0,0:0|0:0,0:0:0:0:
329,333,60560,2,0,L|329:236,1,59.5000011348725,8|0,0:0|0:0,0:0:0:0:
429,313,60860,6,0,P|479:302|519:226,1,119.000002269745,4|8,0:0|0:0,0:0:0:0:
315,176,61460,2,0,L|318:254,1,59.5000011348725,4|0,0:0|0:0,0:0:0:0:
422,210,61760,2,0,L|432:137,1,59.5000011348725,8|0,0:0|0:0,0:0:0:0:
354,74,62060,5,2,0:0:0:0:
315,176,62210,2,0,B|241:193|241:193|197:177,1,119.000002269745,12|0,0:0|0:0,0:0:0:0:
135,92,62660,2,0,B|209:75|209:75|253:91,1,119.000002269745,12|2,0:0|0:0,0:0:0:0:
99,193,63110,1,12,0:0:0:0:
99,193,63410,5,8,0:0:0:0:
142,291,63560,1,8,0:0:0:0:
34,292,63710,1,2,0:0:0:0:
380,80,64460,6,0,P|366:158|356:257,1,154.000004699707,6|2,0:0|0:0,0:0:0:0:
457,304,64910,1,8,0:0:0:0:
441,179,65060,2,0,P|402:176|342:181,1,77.0000023498536,2|8,0:0|0:0,0:0:0:0:
265,250,65360,2,0,P|225:245|164:231,1,77.0000023498536,2|8,0:0|0:0,0:0:0:0:
102,149,65660,6,0,P|116:97|216:57,1,154.000004699707,6|2,0:0|0:0,0:0:0:0:
276,151,66110,1,8,0:0:0:0:
189,237,66260,2,0,P|152:234|112:235,1,77.0000023498536,2|8,0:0|0:0,0:0:0:0:
0,245,66560,2,0,P|14:279|25:320,1,77.0000023498536,2|8,0:0|0:0,0:0:0:0:
168,345,66860,6,0,P|236:338|287:244,1,154.000004699707,6|2,0:0|0:0,0:0:0:0:
276,151,67310,1,8,0:0:0:0:
189,237,67460,1,2,0:0:0:0:
183,113,67610,1,8,0:0:0:0:
98,202,67760,2,0,P|53:195|11:195,1,77.0000023498536,2|8,0:0|0:0,0:0:0:0:
103,102,68060,6,0,P|112:68|118:23,1,77.0000023498536,2|8,0:0|0:0,0:0:0:0:
238,4,68360,1,2,0:0:0:0:
182,113,68510,1,8,0:0:0:0:
306,78,68660,2,0,P|297:110|292:160,1,77.0000023498536,2|8,0:0|0:0,0:0:0:0:
193,227,68960,1,2,0:0:0:0:
190,120,69110,1,8,0:0:0:0:
276,235,69260,6,0,B|330:249|390:234|390:234|355:213,1,154.000004699707,6|2,0:0|0:0,0:0:0:0:
112,281,69860,2,0,B|58:267|-2:282|-2:282|32:302,1,154.000004699707,2|2,0:0|0:0,0:0:0:0:
129,377,70310,1,8,0:0:0:0:
225,300,70460,6,0,P|218:259|209:128,1,154.000004699707,2|2,0:0|0:0,0:0:0:0:
429,258,71060,2,0,P|388:317|326:326,2,115.50000352478,2|0|8,0:0|0:0|0:0,0:0:0:0:
475,144,71660,6,0,P|391:143|302:141,1,154.000004699707,6|2,0:0|0:0,0:0:0:0:
257,34,72110,1,8,0:0:0:0:
257,34,72260,2,0,P|207:42|161:43,1,77.0000023498536,2|8,0:0|0:0,0:0:0:0:
113,147,72560,2,0,P|170:148|215:154,1,77.0000023498536,2|8,0:0|0:0,0:0:0:0:
275,239,72860,5,2,0:0:0:0:
190,321,73010,1,8,0:0:0:0:
238,252,73160,1,2,0:0:0:0:
155,331,73310,1,8,0:0:0:0:
72,241,73460,2,0,L|79:147,2,77.0000023498536,2|8|2,0:0|0:0|0:0,0:0:0:0:
72,241,73910,1,8,0:0:0:0:
185,192,74060,6,0,B|243:172|315:189|315:189|303:207,1,154.000004699707,6|0,0:0|0:0,0:0:0:0:
303,207,74510,1,2,0:0:0:0:
416,254,74660,2,0,P|407:190|397:73,1,154.000004699707,8|2,0:0|0:0,0:0:0:0:
398,101,75110,1,2,0:0:0:0:
333,206,75260,5,2,0:0:0:0:
484,159,75410,2,0,P|493:70|445:17,1,154.000004699707,8|2,0:0|0:0,0:0:0:0:
330,70,75860,2,0,P|245:65|173:42,1,154.000004699707,8|2,0:0|0:0,0:0:0:0:
179,44,76310,1,8,0:0:0:0:
105,143,76460,6,0,P|117:215|124:317,1,154.000004699707,8|0,0:0|0:0,0:0:0:0:
123,295,76910,1,2,0:0:0:0:
210,207,77060,2,0,P|246:199|308:203,1,77.0000023498536,8|0,0:0|0:0,0:0:0:0:
397,147,77360,2,0,P|405:194|402:240,1,77.0000023498536,2|8,0:0|0:0,0:0:0:0:
299,289,77660,5,2,0:0:0:0:
210,207,77810,2,0,P|241:150|280:214,1,154.000004699707,8|8,0:0|0:0,0:0:0:0:
209,102,78260,2,0,P|223:65|237:3,1,77.0000023498536,2|8,0:0|0:0,0:0:0:0:
345,80,78560,6,0,L|361:128,3,38.5000011749268,2|8|2|2,0:0|0:0|0:0|0:0,0:0:0:0:
362,55,78860,6,0,P|402:57|458:49,1,77.0000023498536,6|8,0:0|0:0,0:0:0:0:
511,153,79160,2,0,P|499:197|494:241,1,77.0000023498536,2|8,0:0|0:0,0:0:0:0:
380,174,79460,2,0,P|341:168|303:172,1,77.0000023498536,2|8,0:0|0:0,0:0:0:0:
340,289,79760,1,2,0:0:0:0:
462,297,79910,6,0,P|471:225|493:134,1,154.000004699707,8|8,0:0|0:0,0:0:0:0:
420,43,80360,2,0,P|371:54|344:55,1,77.0000023498536,2|8,0:0|0:0,0:0:0:0:
233,110,80660,2,0,P|204:59|180:7,2,115.50000352478,2|0|8,0:0|0:0|0:0,0:0:0:0:
161,211,81260,6,0,P|94:200|-9:197,1,154.000004699707,6|2,0:0|0:0,0:0:0:0:
101,115,81710,1,8,0:0:0:0:
136,232,81860,2,0,P|125:280|122:325,1,77.0000023498536,2|8,0:0|0:0,0:0:0:0:
245,295,82160,5,2,0:0:0:0:
314,193,82310,2,0,P|274:198|216:197,1,77.0000023498536,8|2,0:0|0:0,0:0:0:0:
288,86,82610,1,8,0:0:0:0:
384,150,82760,2,0,P|424:153|487:149,1,77.0000023498536,2|8,0:0|0:0,0:0:0:0:
463,324,83060,6,0,P|373:311|337:230,1,154.000004699707,2|2,0:0|0:0,0:0:0:0:
237,198,83510,1,8,0:0:0:0:
196,314,83660,6,0,P|118:328|19:338,1,154.000004699707,6|2,0:0|0:0,0:0:0:0:
109,232,84110,1,8,0:0:0:0:
208,159,84260,2,0,P|209:202|201:261,1,77.0000023498536,2|8,0:0|0:0,0:0:0:0:
62,161,84560,2,0,P|66:125|88:74,1,77.0000023498536,2|8,0:0|0:0,0:0:0:0:
208,159,84860,6,0,P|259:140|308:50,1,154.000004699707,6|2,0:0|0:0,0:0:0:0:
185,37,85310,1,8,0:0:0:0:
290,160,85460,2,0,P|327:157|367:158,1,77.0000023498536,2|8,0:0|0:0,0:0:0:0:
469,226,85760,2,0,P|455:260|444:301,1,77.0000023498536,2|8,0:0|0:0,0:0:0:0:
339,363,86060,6,0,P|271:356|220:262,1,154.000004699707,6|2,0:0|0:0,0:0:0:0:
267,177,86510,1,8,0:0:0:0:
156,231,86660,1,2,0:0:0:0:
236,156,86810,1,8,0:0:0:0:
122,203,86960,2,0,P|83:201|45:195,1,77.0000023498536,2|8,0:0|0:0,0:0:0:0:
68,322,87260,6,0,P|106:316|156:311,1,77.0000023498536,2|8,0:0|0:0,0:0:0:0:
244,240,87560,1,2,0:0:0:0:
214,359,87710,1,8,0:0:0:0:
156,231,87860,2,0,P|152:192|142:155,1,77.0000023498536,2|8,0:0|0:0,0:0:0:0:
215,57,88160,1,2,0:0:0:0:
244,176,88310,1,8,0:0:0:0:
314,74,88460,6,0,P|345:80|390:75,1,77.0000023498536,6|8,0:0|0:0,0:0:0:0:
501,128,88760,2,0,P|473:165|446:215,1,77.0000023498536,2|8,0:0|0:0,0:0:0:0:
419,309,89060,2,0,B|392:294|331:284,1,77.0000023498536,2|8,0:0|0:0,0:0:0:0:
285,179,89360,2,0,P|238:182|188:194,1,77.0000023498536,2|8,0:0|0:0,0:0:0:0:
298,346,89660,6,0,P|305:305|314:174,1,154.000004699707,2|2,0:0|0:0,0:0:0:0:
74,252,90260,2,0,P|29:217|10:163,2,115.50000352478,2|0|8,0:0|0:0|0:0,0:0:0:0:
197,226,90860,6,0,L|207:73,1,154.000004699707,6|2,0:0|0:0,0:0:0:0:
207,73,91310,1,8,0:0:0:0:
315,131,91460,2,0,P|365:139|411:140,1,77.0000023498536,2|8,0:0|0:0,0:0:0:0:
314,237,91760,2,0,P|313:294|307:339,1,77.0000023498536,2|8,0:0|0:0,0:0:0:0:
416,377,92060,5,2,0:0:0:0:
403,255,92210,1,8,0:0:0:0:
422,346,92360,1,2,0:0:0:0:
310,313,92510,1,8,0:0:0:0:
440,246,92660,2,0,P|437:207|429:170,1,77.0000023498536,2|8,0:0|0:0,0:0:0:0:
314,237,92959,2,0,P|313:198|320:160,1,77.0000023498536,2|8,0:0|0:0,0:0:0:0:
378,319,93260,6,0,P|306:344|229:301,1,154.000004699707,6|0,0:0|0:0,0:0:0:0:
238,312,93710,1,2,0:0:0:0:
116,331,93860,2,0,P|125:267|135:150,1,154.000004699707,8|0,0:0|0:0,0:0:0:0:
253,152,94310,1,2,0:0:0:0:
205,265,94460,5,2,0:0:0:0:
46,231,94610,2,0,P|37:142|85:89,1,154.000004699707,8|2,0:0|0:0,0:0:0:0:
179,31,95060,2,0,P|260:58|365:60,1,154.000004699707,8|0,0:0|0:0,0:0:0:0:
328,63,95510,1,8,0:0:0:0:
376,176,95660,6,0,P|339:230|237:232,1,154.000004699707,2|8,0:0|0:0,0:0:0:0:
164,158,96110,1,2,0:0:0:0:
76,244,96260,2,0,P|40:252|-22:248,1,77.0000023498536,8|0,0:0|0:0,0:0:0:0:
77,156,96560,1,2,0:0:0:0:
150,299,96710,6,0,P|190:298|247:285,1,77.0000023498536,8|2,0:0|0:0,0:0:0:0:
311,201,97010,1,8,0:0:0:0:
216,121,97160,1,2,0:0:0:0:
282,219,97310,1,8,0:0:0:0:
183,144,97460,2,0,P|141:148|106:148,1,77.0000023498536,2|8,0:0|0:0,0:0:0:0:
23,239,97760,6,0,L|-13:287,3,38.5000011749268,2|8|2|2,0:0|0:0|0:0|0:0,0:0:0:0:
50,257,98060,6,0,P|66:291|122:320,1,77.0000023498536,6|8,0:0|0:0,0:0:0:0:
210,265,98360,2,0,P|254:253|298:248,1,77.0000023498536,2|8,0:0|0:0,0:0:0:0:
396,304,98660,2,0,P|395:269|394:227,1,77.0000023498536,2|8,0:0|0:0,0:0:0:0:
310,136,98960,1,2,0:0:0:0:
182,113,99110,6,0,P|191:185|213:276,1,154.000004699707,8|8,0:0|0:0,0:0:0:0:
118,347,99560,2,0,P|69:336|42:335,1,77.0000023498536,2|8,0:0|0:0,0:0:0:0:
53,211,99860,2,0,P|24:160|0:108,2,115.50000352478,2|0|8,0:0|0:0|0:0,0:0:0:0:
150,134,100460,6,0,P|210:106|296:148,1,154.000004699707,6|2,0:0|0:0,0:0:0:0:
409,113,100910,1,8,0:0:0:0:
494,201,101060,2,0,P|446:212|401:215,1,77.0000023498536,2|8,0:0|0:0,0:0:0:0:
317,142,101360,1,2,0:0:0:0:
259,250,101510,6,0,P|298:255|357:254,1,77.0000023498536,8|0,0:0|0:0,0:0:0:0:
204,146,101810,2,0,P|148:113|52:141,1,154.000004699707,0|0,0:0|0:0,0:0:0:0:
74,262,102260,6,0,P|117:260|163:249,1,77.0000023498536,0|0,0:0|0:0,0:0:0:0:
204,146,102560,2,0,P|236:140|285:137,1,77.0000023498536,0|0,0:0|0:0,0:0:0:0:
368,209,102860,5,6,0:0:0:0:
464,268,103010,2,0,P|465:213|470:124,1,125.999996154785,8|8,0:0|0:0,0:0:0:0:
397,53,103460,1,8,0:0:0:0:
397,53,103760,2,0,P|364:58|335:59,1,62.9999980773926,2|8,0:0|0:0,0:0:0:0:
258,144,104060,5,8,0:3:0:0:
151,182,104210,2,0,P|146:120|183:60,1,125.999996154785,4|4,0:3|0:3,0:0:0:0:
258,144,104660,5,12,0:1:0:0:
33,160,104960,1,12,0:0:0:0:
33,160,105260,6,0,P|39:202|44:243,1,62.9999980773926,6|8,0:0|0:0,0:0:0:0:
117,308,105560,2,0,P|150:310|184:308,1,62.9999980773926,2|8,0:0|0:0,0:0:0:0:
258,226,105860,2,0,P|243:172|230:87,1,125.999996154785,8|4,0:0|0:3,0:0:0:0:
338,142,106310,1,8,0:3:0:0:
123,216,106610,1,8,0:3:0:0:
123,216,106760,6,0,L|205:216,1,62.9999980773926,4|2,0:3|0:0,0:0:0:0:
242,313,107060,2,0,L|152:306,1,62.9999980773926,8|8,0:0|0:0,0:0:0:0:
226,136,107360,2,0,L|300:127,1,62.9999980773926,2|0,0:0|0:0,0:0:0:0:
363,278,107660,6,0,P|302:269|249:200,1,125.999996154785,6|2,0:0|0:0,0:0:0:0:
356,168,108110,1,2,0:0:0:0:
287,305,108260,2,0,P|208:301|142:302,1,125.999996154785,8|8,0:0|0:0,0:0:0:0:
161,301,108710,1,2,0:0:0:0:
248,91,109010,1,8,0:0:0:0:
257,225,109160,6,0,P|225:225|183:220,1,62.9999980773926,2|8,0:0|0:0,0:0:0:0:
91,269,109460,2,0,P|64:264|19:260,1,62.9999980773926,8|0,0:0|0:0,0:0:0:0:
34,147,109760,2,0,P|65:136|98:114,1,62.9999980773926,2|8,0:0|0:0,0:0:0:0:
197,158,110060,6,0,L|193:239,2,62.9999980773926,12|2|2,0:0|0:0|0:0,0:0:0:0:
285,86,110510,1,2,0:0:0:0:
306,197,110660,2,0,P|371:207|437:164,1,125.999996154785,8|2,0:0|0:0,0:0:0:0:
351,91,111110,1,8,0:0:0:0:
306,197,111260,6,0,P|303:239|306:278,1,62.9999980773926,8|8,0:0|0:0,0:0:0:0:
219,336,111560,2,0,P|174:320|134:309,1,62.9999980773926,2|2,0:0|0:0,0:0:0:0:
127,206,111860,2,0,P|157:206|207:200,1,62.9999980773926,8|2,0:0|0:0,0:0:0:0:
232,98,112160,2,0,P|216:75|197:39,1,62.9999980773926,8|2,0:0|0:0,0:0:0:0:
99,97,112460,6,0,P|65:102|31:103,2,62.9999980773926,12|2|2,0:0|0:0|0:0,0:0:0:0:
127,206,112910,1,2,0:0:0:0:
27,260,113060,2,0,P|9:205|37:128,1,125.999996154785,8|8,0:0|0:0,0:0:0:0:
127,206,113510,1,2,0:0:0:0:
235,6,113810,1,8,0:0:0:0:
281,109,113960,6,0,P|248:110|196:106,1,62.9999980773926,2|2,0:0|0:0,0:0:0:0:
70,53,114260,2,0,P|104:47|153:48,1,62.9999980773926,8|0,0:0|0:0,0:0:0:0:
128,143,114560,2,0,P|126:180|128:234,1,62.9999980773926,8|0,0:0|0:0,0:0:0:0:
215,276,114860,1,2,0:0:0:0:
270,176,115010,6,0,B|362:175|362:175|335:208,1,125.999996154785,12|2,0:0|0:0,0:0:0:0:
215,276,115460,6,0,P|172:233|159:165,1,125.999996154785,12|2,0:0|0:0,0:0:0:0:
270,176,115910,6,0,P|226:210|215:277,1,125.999996154785,12|8,0:0|0:0,0:0:0:0:
306,261,116360,1,8,0:0:0:0:
357,344,116510,1,8,0:0:0:0:
267,353,116660,1,6,0:0:0:0:
