osu file format v13

[General]
AudioFilename: 01. Lucky Girl.mp3
AudioLeadIn: 0
PreviewTime: 69181
Countdown: 0
SampleSet: Soft
StackLeniency: 0.7
Mode: 3
LetterboxInBreaks: 0
SpecialStyle: 0
WidescreenStoryboard: 0

[Editor]
DistanceSpacing: 0.6
BeatDivisor: 4
GridSize: 8
TimelineZoom: 1.3

[Metadata]
Title:Lucky Girl
TitleUnicode:ラッキーガール
Artist:Silent Siren
ArtistUnicode:Silent Siren
Creator:indyinyou
Version:Drum track
Source:
Tags:Yoshida Sumire Umemura Hinako Yamauchi Aina Kurosaka Yukako
BeatmapID:443484
BeatmapSetID:185521

[Difficulty]
HPDrainRate:8
CircleSize:7
OverallDifficulty:9
ApproachRate:5
SliderMultiplier:1.4
SliderTickRate:1

[Events]
//Background and Video events
0,0,"31886628.jpg",0,0
//Break Periods
//Storyboard Layer 0 (Background)
//Storyboard Layer 1 (Fail)
//Storyboard Layer 2 (Pass)
//Storyboard Layer 3 (Foreground)
//Storyboard Sound Samples
//Background Colour Transformations
3,100,163,162,255

[TimingPoints]
2138,352.858151023289,4,2,0,70,1,0
69710,-100,4,2,0,70,0,1
92439,-100,4,2,0,70,0,0
131813,-100,4,2,0,70,0,1
154572,-100,4,2,0,70,0,0

[HitObjects]
36,192,2138,5,0,0:0:0:70:cymbol.wav
402,192,2138,1,0,0:0:0:70:bassdrum.wav
182,192,2138,1,0,0:0:0:70:cymbol.wav
256,192,2314,1,0,0:0:0:70:bassdrum.wav
475,192,2490,1,0,0:0:0:70:snare.wav
36,192,2490,1,0,0:0:0:70:snare.wav
329,192,2490,1,0,0:0:0:70:snare.wav
182,192,2667,1,0,0:0:0:70:snare.wav
329,192,2755,1,0,0:0:0:70:snare.wav
402,192,2843,1,0,0:0:0:70:bassdrum.wav
109,192,2843,1,0,0:0:0:70:bassdrum.wav
402,192,3020,1,0,0:0:0:70:bassdrum.wav
182,192,3020,1,0,0:0:0:70:bassdrum.wav
329,192,3196,1,0,0:0:0:70:snare.wav
475,192,3196,1,0,0:0:0:70:snare.wav
36,192,3196,1,0,0:0:0:70:snare.wav
182,192,3373,1,0,0:0:0:70:snare.wav
329,192,3461,1,0,0:0:0:70:snare.wav
109,192,3549,1,0,0:0:0:70:bassdrum.wav
402,192,3549,1,0,0:0:0:70:bassdrum.wav
182,192,3725,1,0,0:0:0:70:bassdrum.wav
402,192,3725,1,0,0:0:0:70:bassdrum.wav
329,192,3902,1,0,0:0:0:70:snare.wav
36,192,3902,1,0,0:0:0:70:snare.wav
475,192,3902,1,0,0:0:0:70:snare.wav
182,192,4078,1,0,0:0:0:70:snare.wav
329,192,4166,1,0,0:0:0:70:snare.wav
109,192,4255,1,0,0:0:0:70:bassdrum.wav
402,192,4255,1,0,0:0:0:70:bassdrum.wav
182,192,4431,1,0,0:0:0:70:tom01.wav
329,192,4431,1,0,0:0:0:70:bassdrum.wav
109,192,4608,1,0,0:0:0:70:tom02.wav
402,192,4608,1,0,0:0:0:70:bassdrum.wav
182,192,4784,1,0,0:0:0:70:bassdrum.wav
475,192,4784,1,0,0:0:0:70:cymbol.wav
36,192,4784,1,0,0:0:0:70:cymbol.wav
329,192,4784,1,0,0:0:0:70:bassdrum.wav
475,192,5137,1,0,0:0:0:30:hihat.wav
402,192,5225,1,0,0:0:0:30:hihat.wav
329,192,5313,1,0,0:0:0:30:hihat.wav
475,192,5490,1,0,0:0:0:30:hihat.wav
402,192,5578,1,0,0:0:0:30:hihat.wav
329,192,5666,1,0,0:0:0:30:hihat.wav
475,192,5843,1,0,0:0:0:30:hihat.wav
402,192,5931,1,0,0:0:0:30:hihat.wav
329,192,6019,1,0,0:0:0:30:hihat.wav
475,192,6195,1,0,0:0:0:30:hihat.wav
402,192,6284,1,0,0:0:0:30:hihat.wav
329,192,6372,1,0,0:0:0:30:hihat.wav
36,192,6548,1,0,0:0:0:30:hihat.wav
109,192,6636,1,0,0:0:0:30:hihat.wav
182,192,6725,1,0,0:0:0:30:hihat.wav
36,192,6901,1,0,0:0:0:30:hihat.wav
109,192,6989,1,0,0:0:0:30:hihat.wav
182,192,7078,1,0,0:0:0:30:hihat.wav
36,192,7254,1,0,0:0:0:30:hihat.wav
109,192,7342,1,0,0:0:0:30:hihat.wav
182,192,7430,1,0,0:0:0:30:hihat.wav
36,192,7607,1,0,0:0:0:30:hihat.wav
109,192,7695,1,0,0:0:0:30:hihat.wav
182,192,7783,1,0,0:0:0:30:hihat.wav
475,192,7960,1,0,0:0:0:30:hihat.wav
329,192,8048,1,0,0:0:0:30:hihat.wav
182,192,8136,1,0,0:0:0:30:hihat.wav
475,192,8313,1,0,0:0:0:30:hihat.wav
329,192,8401,1,0,0:0:0:30:hihat.wav
182,192,8489,1,0,0:0:0:30:hihat.wav
475,192,8665,1,0,0:0:0:30:hihat.wav
329,192,8754,1,0,0:0:0:30:hihat.wav
182,192,8842,1,0,0:0:0:30:hihat.wav
475,192,9018,1,0,0:0:0:30:hihat.wav
329,192,9106,1,0,0:0:0:30:hihat.wav
182,192,9195,1,0,0:0:0:30:hihat.wav
36,192,9371,1,0,0:0:0:30:hihat.wav
182,192,9459,1,0,0:0:0:30:hihat.wav
329,192,9548,1,0,0:0:0:30:hihat.wav
475,192,9724,1,0,0:0:0:30:hihat.wav
329,192,9900,1,0,0:0:0:70:bassdrum.wav
109,192,9900,1,0,0:0:0:70:bassdrum.wav
475,192,10077,1,0,0:0:0:70:snare.wav
182,192,10077,1,0,0:0:0:70:snare.wav
402,192,10077,1,0,0:0:0:70:snare.wav
475,192,10253,1,0,0:0:0:70:snare.wav
402,192,10253,1,0,0:0:0:70:snare.wav
182,192,10253,1,0,0:0:0:70:snare.wav
256,192,10430,1,0,0:0:0:70:bassdrum.wav
329,192,10430,1,0,0:0:0:70:cymbol.wav
36,192,10430,1,0,0:0:0:70:cymbol.wav
109,192,10783,1,0,0:0:0:70:bassdrum.wav
402,192,10783,1,0,0:0:0:30:hihat.wav
182,192,10959,1,0,0:0:0:70:snare.wav
329,192,10959,1,0,0:0:0:30:hihat.wav
475,192,10959,1,2,0:0:0:0:
36,192,11135,1,0,0:0:0:40:hihat02.wav
182,192,11312,1,0,0:0:0:70:bassdrum.wav
402,192,11312,1,0,0:0:0:30:hihat.wav
109,192,11488,1,0,0:0:0:40:hihat02.wav
182,192,11665,1,0,0:0:0:70:snare.wav
475,192,11665,1,2,0:0:0:0:
329,192,11665,1,0,0:0:0:30:hihat.wav
36,192,11841,1,0,0:0:0:40:hihat02.wav
256,192,12018,1,0,0:0:0:70:bassdrum.wav
475,192,12018,1,0,0:0:0:30:hihat.wav
109,192,12194,1,0,0:0:0:40:hihat02.wav
475,192,12370,1,2,0:0:0:0:
329,192,12370,1,0,0:0:0:30:hihat.wav
182,192,12370,1,0,0:0:0:70:snare.wav
256,192,12547,1,0,0:0:0:40:hihat02.wav
109,192,12723,1,0,0:0:0:70:bassdrum.wav
475,192,12723,1,0,0:0:0:30:hihat.wav
256,192,12900,1,0,0:0:0:40:hihat02.wav
475,192,13076,1,2,0:0:0:0:
329,192,13076,1,0,0:0:0:30:hihat.wav
182,192,13076,1,0,0:0:0:70:snare.wav
36,192,13253,1,0,0:0:0:40:hihat02.wav
475,192,13429,1,0,0:0:0:30:hihat.wav
256,192,13429,1,0,0:0:0:70:bassdrum.wav
109,192,13605,1,0,0:0:0:40:hihat02.wav
329,192,13782,1,2,0:0:0:0:
402,192,13782,1,0,0:0:0:30:hihat.wav
182,192,13782,1,0,0:0:0:70:snare.wav
256,192,13958,1,0,0:0:0:40:hihat02.wav
109,192,14135,1,0,0:0:0:70:bassdrum.wav
475,192,14135,1,0,0:0:0:30:hihat.wav
256,192,14311,1,0,0:0:0:40:hihat02.wav
402,192,14488,1,0,0:0:0:30:hihat.wav
329,192,14488,1,0,0:0:0:70:snare.wav
182,192,14488,1,2,0:0:0:0:
475,192,14664,1,0,0:0:0:40:hihat02.wav
36,192,14840,1,0,0:0:0:30:hihat.wav
256,192,14840,1,0,0:0:0:70:bassdrum.wav
475,192,15017,1,0,0:0:0:40:hihat02.wav
182,192,15193,1,0,0:0:0:70:snare.wav
329,192,15193,1,2,0:0:0:0:
402,192,15193,1,0,0:0:0:30:hihat.wav
36,192,15370,1,0,0:0:0:40:hihat02.wav
475,192,15546,1,0,0:0:0:30:hihat.wav
109,192,15546,1,0,0:0:0:70:bassdrum.wav
256,192,15723,1,0,0:0:0:40:hihat02.wav
182,192,15899,1,0,0:0:0:70:snare.wav
329,192,15899,1,0,0:0:0:30:hihat.wav
402,192,15899,1,2,0:0:0:0:
36,192,16075,1,0,0:0:0:40:hihat02.wav
475,192,16252,1,0,0:0:0:30:hihat.wav
109,192,16252,1,0,0:0:0:70:bassdrum.wav
329,192,16428,1,0,0:0:0:40:hihat02.wav
36,192,16605,1,2,0:0:0:0:
182,192,16605,1,0,0:0:0:30:hihat.wav
256,192,16605,1,0,0:0:0:70:snare.wav
475,192,16781,1,0,0:0:0:40:hihat02.wav
109,192,16958,1,0,0:0:0:70:bassdrum.wav
329,192,16958,1,0,0:0:0:30:hihat.wav
475,192,17134,1,0,0:0:0:40:hihat02.wav
256,192,17310,1,0,0:0:0:30:hihat.wav
182,192,17310,1,0,0:0:0:70:snare.wav
36,192,17310,1,2,0:0:0:0:
475,192,17487,1,0,0:0:0:40:hihat02.wav
329,192,17663,1,0,0:0:0:30:hihat.wav
109,192,17663,1,0,0:0:0:70:bassdrum.wav
475,192,17840,1,0,0:0:0:40:hihat02.wav
182,192,18016,1,2,0:0:0:0:
36,192,18016,1,0,0:0:0:30:hihat.wav
256,192,18016,1,0,0:0:0:70:snare.wav
475,192,18193,1,0,0:0:0:40:hihat02.wav
402,192,18369,1,0,0:0:0:70:bassdrum.wav
182,192,18369,1,0,0:0:0:30:hihat.wav
329,192,18545,1,0,0:0:0:40:hihat02.wav
36,192,18722,1,2,0:0:0:0:
182,192,18722,1,0,0:0:0:70:snare.wav
256,192,18722,1,0,0:0:0:30:hihat.wav
475,192,18898,1,0,0:0:0:70:snare.wav
329,192,18986,1,0,0:0:0:70:snare.wav
109,192,19075,1,0,0:0:0:70:bassdrum.wav
36,192,19075,1,0,0:0:0:70:bassdrum.wav
109,192,19251,1,0,0:0:0:70:bassdrum.wav
36,192,19251,1,0,0:0:0:70:bassdrum.wav
329,192,19428,1,0,0:0:0:70:cymbol.wav
475,192,19428,1,0,0:0:0:70:bassdrum.wav
402,192,19428,1,0,0:0:0:70:snare.wav
109,192,19780,1,0,0:0:0:70:bassdrum.wav
36,192,19780,1,0,0:0:0:70:bassdrum.wav
109,192,19957,1,0,0:0:0:70:bassdrum.wav
36,192,19957,1,0,0:0:0:70:bassdrum.wav
402,192,20133,1,0,0:0:0:70:bassdrum.wav
475,192,20133,1,0,0:0:0:70:snare.wav
329,192,20133,1,0,0:0:0:70:cymbol.wav
109,192,20486,1,0,0:0:0:70:bassdrum.wav
36,192,20486,1,0,0:0:0:70:bassdrum.wav
36,192,20663,1,0,0:0:0:70:bassdrum.wav
109,192,20663,1,0,0:0:0:70:bassdrum.wav
475,192,20839,1,0,0:0:0:70:snare.wav
402,192,20839,1,0,0:0:0:70:bassdrum.wav
329,192,20839,1,0,0:0:0:70:cymbol.wav
109,192,21192,1,0,0:0:0:70:snare.wav
402,192,21280,1,0,0:0:0:70:snare.wav
182,192,21368,1,0,0:0:0:70:snare.wav
329,192,21456,1,0,0:0:0:70:snare.wav
256,192,21545,1,0,0:0:0:70:snare.wav
475,192,21721,1,0,0:0:0:70:bassdrum.wav
329,192,21721,1,0,0:0:0:70:cymbol.wav
182,192,21721,1,0,0:0:0:70:cymbol.wav
36,192,21721,1,0,0:0:0:70:bassdrum.wav
329,192,22074,1,0,0:0:0:70:bassdrum.wav
109,192,22074,1,0,0:0:0:70:bassdrum.wav
256,192,22250,1,0,0:0:0:70:snare.wav
36,192,22250,1,0,0:0:0:30:hihat.wav
475,192,22250,1,2,0:0:0:0:
329,192,22427,1,0,0:0:0:40:hihat02.wav
36,192,22603,1,0,0:0:0:30:hihat.wav
402,192,22603,1,0,0:0:0:70:bassdrum.wav
182,192,22780,1,0,0:0:0:40:hihat02.wav
36,192,22956,1,2,0:0:0:0:
475,192,22956,1,0,0:0:0:30:hihat.wav
256,192,22956,1,0,0:0:0:70:snare.wav
329,192,23133,1,0,0:0:0:40:hihat02.wav
109,192,23309,1,0,0:0:0:70:bassdrum.wav
402,192,23309,1,0,0:0:0:30:hihat.wav
182,192,23485,1,0,0:0:0:40:hihat02.wav
475,192,23662,1,2,0:0:0:0:
36,192,23662,1,0,0:0:0:30:hihat.wav
256,192,23662,1,0,0:0:0:70:snare.wav
329,192,23838,1,0,0:0:0:40:hihat02.wav
402,192,24015,1,0,0:0:0:70:bassdrum.wav
182,192,24015,1,0,0:0:0:30:hihat.wav
329,192,24191,1,0,0:0:0:40:hihat02.wav
36,192,24368,1,2,0:0:0:0:
475,192,24368,1,0,0:0:0:30:hihat.wav
256,192,24368,1,0,0:0:0:70:snare.wav
182,192,24544,1,0,0:0:0:40:hihat02.wav
256,192,24720,1,0,0:0:0:70:bassdrum.wav
475,192,24720,1,0,0:0:0:30:hihat.wav
329,192,24897,1,0,0:0:0:40:hihat02.wav
182,192,25073,1,0,0:0:0:70:snare.wav
402,192,25073,1,0,0:0:0:30:hihat.wav
36,192,25073,1,2,0:0:0:0:
329,192,25250,1,0,0:0:0:40:hihat02.wav
256,192,25426,1,0,0:0:0:70:bassdrum.wav
36,192,25426,1,0,0:0:0:30:hihat.wav
475,192,25603,1,0,0:0:0:40:hihat02.wav
402,192,25779,1,0,0:0:0:30:hihat.wav
36,192,25779,1,2,0:0:0:0:
182,192,25779,1,0,0:0:0:70:snare.wav
256,192,25955,1,0,0:0:0:40:hihat02.wav
475,192,26132,1,0,0:0:0:30:hihat.wav
109,192,26132,1,0,0:0:0:70:bassdrum.wav
329,192,26308,1,0,0:0:0:40:hihat02.wav
402,192,26485,1,2,0:0:0:0:
182,192,26485,1,0,0:0:0:30:hihat.wav
36,192,26485,1,0,0:0:0:70:snare.wav
256,192,26661,1,0,0:0:0:40:hihat02.wav
329,192,26838,1,0,0:0:0:30:hihat.wav
109,192,26838,1,0,0:0:0:70:bassdrum.wav
475,192,27014,1,0,0:0:0:40:hihat02.wav
182,192,27190,1,0,0:0:0:70:snare.wav
36,192,27190,1,2,0:0:0:0:
402,192,27190,1,0,0:0:0:30:hihat.wav
329,192,27367,1,0,0:0:0:40:hihat02.wav
402,192,27543,1,0,0:0:0:70:bassdrum.wav
36,192,27543,1,0,0:0:0:30:hihat.wav
182,192,27720,1,0,0:0:0:40:hihat02.wav
109,192,27896,1,0,0:0:0:70:snare.wav
329,192,27896,1,0,0:0:0:30:hihat.wav
475,192,27896,1,2,0:0:0:0:
256,192,28073,1,0,0:0:0:40:hihat02.wav
182,192,28249,1,0,0:0:0:70:bassdrum.wav
402,192,28249,1,0,0:0:0:30:hihat.wav
36,192,28425,1,0,0:0:0:40:hihat02.wav
475,192,28602,1,0,0:0:0:30:hihat.wav
109,192,28602,1,2,0:0:0:0:
329,192,28602,1,0,0:0:0:70:snare.wav
256,192,28778,1,0,0:0:0:40:hihat02.wav
36,192,28955,1,0,0:0:0:30:hihat.wav
402,192,28955,1,0,0:0:0:70:bassdrum.wav
182,192,29131,1,0,0:0:0:40:hihat02.wav
475,192,29308,1,2,0:0:0:0:
329,192,29308,1,0,0:0:0:30:hihat.wav
109,192,29308,1,0,0:0:0:70:snare.wav
182,192,29484,1,0,0:0:0:40:hihat02.wav
36,192,29660,1,0,0:0:0:30:hihat.wav
329,192,29660,1,0,0:0:0:70:bassdrum.wav
256,192,29837,1,0,0:0:0:40:hihat02.wav
109,192,30013,1,2,0:0:0:0:
329,192,30013,1,0,0:0:0:70:snare.wav
475,192,30013,1,0,0:0:0:30:hihat.wav
36,192,30190,1,0,0:0:0:70:snare.wav
182,192,30278,1,0,0:0:0:70:snare.wav
402,192,30366,1,0,0:0:0:70:bassdrum.wav
475,192,30366,1,0,0:0:0:70:bassdrum.wav
475,192,30543,1,0,0:0:0:70:bassdrum.wav
402,192,30543,1,0,0:0:0:70:bassdrum.wav
182,192,30719,1,0,0:0:0:70:cymbol.wav
36,192,30719,1,0,0:0:0:70:bassdrum.wav
109,192,30719,1,0,0:0:0:70:snare.wav
402,192,31072,1,0,0:0:0:70:bassdrum.wav
475,192,31072,1,0,0:0:0:70:bassdrum.wav
402,192,31248,1,0,0:0:0:70:bassdrum.wav
475,192,31248,1,0,0:0:0:70:bassdrum.wav
36,192,31425,1,0,0:0:0:70:snare.wav
182,192,31425,1,0,0:0:0:70:cymbol.wav
109,192,31425,1,0,0:0:0:70:bassdrum.wav
402,192,31778,1,0,0:0:0:70:bassdrum.wav
475,192,31778,1,0,0:0:0:70:bassdrum.wav
475,192,31954,1,0,0:0:0:70:bassdrum.wav
402,192,31954,1,0,0:0:0:70:bassdrum.wav
36,192,32130,1,0,0:0:0:70:snare.wav
109,192,32130,1,0,0:0:0:70:bassdrum.wav
182,192,32130,1,0,0:0:0:70:cymbol.wav
109,192,32483,1,0,0:0:0:70:snare.wav
402,192,32572,1,0,0:0:0:70:snare.wav
182,192,32660,1,0,0:0:0:70:snare.wav
329,192,32748,1,0,0:0:0:70:snare.wav
256,192,32836,1,0,0:0:0:70:snare.wav
475,192,33013,1,0,0:0:0:70:bassdrum.wav
329,192,33013,1,0,0:0:0:70:cymbol.wav
182,192,33013,1,0,0:0:0:70:cymbol.wav
36,192,33013,1,0,0:0:0:70:bassdrum.wav
402,192,33365,1,0,0:0:0:70:bassdrum.wav
182,192,33542,1,0,0:0:0:70:snare.wav
36,192,33542,1,0,0:0:0:70:snare.wav
475,192,33718,1,0,0:0:0:40:tom01.wav
329,192,33807,1,0,0:0:0:40:tom02.wav
256,192,33895,1,0,0:0:0:70:bassdrum.wav
109,192,34071,1,0,0:0:0:70:bassdrum.wav
329,192,34248,1,0,0:0:0:70:snare.wav
182,192,34248,1,0,0:0:0:70:snare.wav
402,192,34424,1,0,0:0:0:40:tom01.wav
256,192,34512,1,0,0:0:0:40:tom02.wav
109,192,34600,1,0,0:0:0:70:bassdrum.wav
109,192,34777,1,0,0:0:0:70:bassdrum.wav
182,192,34953,1,0,0:0:0:70:snare.wav
475,192,34953,1,0,0:0:0:70:snare.wav
402,192,35130,1,0,0:0:0:40:tom01.wav
256,192,35218,1,0,0:0:0:40:tom02.wav
109,192,35306,1,0,0:0:0:70:bassdrum.wav
109,192,35483,1,0,0:0:0:70:bassdrum.wav
475,192,35659,1,0,0:0:0:70:snare.wav
329,192,35659,1,0,0:0:0:70:snare.wav
36,192,35835,1,0,0:0:0:40:tom01.wav
182,192,35924,1,0,0:0:0:40:tom02.wav
402,192,36012,1,0,0:0:0:70:bassdrum.wav
402,192,36188,1,0,0:0:0:70:bassdrum.wav
36,192,36365,1,0,0:0:0:70:snare.wav
329,192,36365,1,0,0:0:0:70:snare.wav
109,192,36541,1,0,0:0:0:40:tom01.wav
256,192,36629,1,0,0:0:0:40:tom02.wav
402,192,36718,1,0,0:0:0:70:bassdrum.wav
402,192,36894,1,0,0:0:0:70:bassdrum.wav
36,192,37070,1,0,0:0:0:70:snare.wav
182,192,37070,1,0,0:0:0:70:snare.wav
402,192,37247,1,0,0:0:0:40:tom01.wav
256,192,37335,1,0,0:0:0:40:tom02.wav
109,192,37423,1,0,0:0:0:70:bassdrum.wav
109,192,37600,1,0,0:0:0:70:bassdrum.wav
475,192,37776,1,0,0:0:0:70:snare.wav
329,192,37776,1,0,0:0:0:70:snare.wav
182,192,37953,1,0,0:0:0:40:tom01.wav
329,192,38129,1,0,0:0:0:70:snare.wav
475,192,38129,1,0,0:0:0:70:snare.wav
36,192,38305,1,0,0:0:0:40:hihat02.wav
256,192,38305,1,0,0:0:0:70:bassdrum.wav
475,192,38658,1,0,0:0:0:70:cymbol.wav
329,192,38658,1,0,0:0:0:70:bassdrum.wav
182,192,38658,1,0,0:0:0:70:bassdrum.wav
36,192,38658,1,0,0:0:0:70:hihat02.wav
182,192,39011,1,0,0:0:0:70:bassdrum.wav
329,192,39188,1,0,0:0:0:70:snare.wav
109,192,39188,1,0,0:0:0:70:snare.wav
475,192,39188,1,0,0:0:0:70:hihat01.wav
36,192,39452,1,0,0:0:0:70:snare.wav
182,192,39540,1,0,0:0:0:70:bassdrum.wav
475,192,39540,1,0,0:0:0:70:hihat01.wav
256,192,39717,1,0,0:0:0:70:bassdrum.wav
329,192,39893,1,0,0:0:0:70:snare.wav
109,192,39893,1,0,0:0:0:70:snare.wav
475,192,39893,1,0,0:0:0:70:hihat01.wav
36,192,40158,1,0,0:0:0:70:snare.wav
182,192,40246,1,0,0:0:0:70:bassdrum.wav
475,192,40246,1,0,0:0:0:70:hihat01.wav
256,192,40423,1,0,0:0:0:70:bassdrum.wav
329,192,40599,1,0,0:0:0:70:snare.wav
109,192,40599,1,0,0:0:0:70:snare.wav
475,192,40599,1,0,0:0:0:70:hihat01.wav
402,192,40952,1,0,0:0:0:70:bassdrum.wav
36,192,40952,1,0,0:0:0:70:hihat01.wav
182,192,41128,1,0,0:0:0:70:bassdrum.wav
329,192,41305,1,0,0:0:0:70:snare.wav
475,192,41305,1,0,0:0:0:70:hihat01.wav
109,192,41305,1,0,0:0:0:70:snare.wav
256,192,41481,1,0,0:0:0:70:bassdrum.wav
475,192,41658,1,0,0:0:0:70:hihat01.wav
256,192,41834,1,0,0:0:0:70:bassdrum.wav
402,192,42010,1,0,0:0:0:70:snare.wav
182,192,42010,1,0,0:0:0:70:snare.wav
36,192,42010,1,0,0:0:0:70:hihat01.wav
475,192,42275,1,0,0:0:0:70:snare.wav
329,192,42363,1,0,0:0:0:70:bassdrum.wav
36,192,42363,1,0,0:0:0:70:hihat01.wav
256,192,42540,1,0,0:0:0:70:bassdrum.wav
36,192,42716,1,0,0:0:0:70:hihat01.wav
182,192,42716,1,0,0:0:0:70:snare.wav
402,192,42716,1,0,0:0:0:70:snare.wav
475,192,42981,1,0,0:0:0:70:snare.wav
329,192,43069,1,0,0:0:0:70:bassdrum.wav
36,192,43069,1,0,0:0:0:70:hihat01.wav
256,192,43245,1,0,0:0:0:70:bassdrum.wav
402,192,43422,1,0,0:0:0:70:snare.wav
182,192,43422,1,0,0:0:0:70:snare.wav
36,192,43422,1,0,0:0:0:70:hihat01.wav
475,192,43687,1,0,0:0:0:70:snare.wav
329,192,43775,1,0,0:0:0:70:bassdrum.wav
36,192,43775,1,0,0:0:0:70:hihat01.wav
256,192,43951,1,0,0:0:0:70:bassdrum.wav
402,192,44128,1,0,0:0:0:70:snare.wav
182,192,44128,1,0,0:0:0:70:snare.wav
36,192,44128,1,0,0:0:0:70:hihat01.wav
329,192,44304,1,0,0:0:0:70:cymbol.wav
256,192,44304,1,0,0:0:0:70:cymbol.wav
475,192,44304,1,0,0:0:0:70:bassdrum.wav
109,192,44657,1,0,0:0:0:70:bassdrum.wav
329,192,44833,1,0,0:0:0:70:snare.wav
475,192,44833,1,0,0:0:0:70:snare.wav
36,192,45010,1,0,0:0:0:40:tom01.wav
182,192,45098,1,0,0:0:0:40:tom02.wav
256,192,45186,1,0,0:0:0:70:bassdrum.wav
402,192,45363,1,0,0:0:0:70:bassdrum.wav
182,192,45539,1,0,0:0:0:70:snare.wav
329,192,45539,1,0,0:0:0:70:snare.wav
475,192,45715,1,0,0:0:0:40:tom01.wav
402,192,45804,1,0,0:0:0:40:tom02.wav
256,192,45892,1,0,0:0:0:70:bassdrum.wav
109,192,46068,1,0,0:0:0:70:bassdrum.wav
182,192,46245,1,0,0:0:0:70:snare.wav
475,192,46245,1,0,0:0:0:70:snare.wav
109,192,46421,1,0,0:0:0:40:tom01.wav
256,192,46509,1,0,0:0:0:40:tom02.wav
402,192,46598,1,0,0:0:0:70:bassdrum.wav
402,192,46774,1,0,0:0:0:70:bassdrum.wav
329,192,46950,1,0,0:0:0:70:snare.wav
182,192,46950,1,0,0:0:0:70:snare.wav
109,192,47127,1,0,0:0:0:40:tom01.wav
256,192,47215,1,0,0:0:0:40:tom02.wav
402,192,47303,1,0,0:0:0:70:bassdrum.wav
402,192,47480,1,0,0:0:0:70:bassdrum.wav
36,192,47656,1,0,0:0:0:70:snare.wav
182,192,47656,1,0,0:0:0:70:snare.wav
475,192,47833,1,0,0:0:0:40:tom01.wav
402,192,47921,1,0,0:0:0:40:tom02.wav
256,192,48009,1,0,0:0:0:70:bassdrum.wav
109,192,48185,1,0,0:0:0:70:bassdrum.wav
182,192,48362,1,0,0:0:0:70:snare.wav
475,192,48362,1,0,0:0:0:70:snare.wav
256,192,48538,1,0,0:0:0:40:tom01.wav
36,192,48715,1,0,0:0:0:70:hihat01.wav
329,192,48715,1,0,0:0:0:70:hihat01.wav
36,192,49068,1,0,0:0:0:70:hihat01.wav
329,192,49068,1,0,0:0:0:70:hihat01.wav
475,192,49420,1,0,0:0:0:70:snare.wav
182,192,49420,1,0,0:0:0:70:snare.wav
329,192,49597,1,0,0:0:0:40:hihat02.wav
109,192,49597,1,0,0:0:0:70:bassdrum.wav
475,192,49950,1,0,0:0:0:70:cymbol.wav
329,192,49950,1,0,0:0:0:70:bassdrum.wav
182,192,49950,1,0,0:0:0:70:bassdrum.wav
36,192,49950,1,0,0:0:0:70:cymbol.wav
109,192,50303,1,0,0:0:0:70:bassdrum.wav
182,192,50479,1,0,0:0:0:70:snare.wav
402,192,50479,1,0,0:0:0:70:hihat01.wav
329,192,50479,1,0,0:0:0:70:snare.wav
36,192,50744,1,0,0:0:0:70:snare.wav
475,192,50832,1,0,0:0:0:70:hihat01.wav
256,192,50832,1,0,0:0:0:70:bassdrum.wav
109,192,51008,1,0,0:0:0:70:bassdrum.wav
182,192,51185,1,0,0:0:0:70:snare.wav
329,192,51185,1,0,0:0:0:70:snare.wav
402,192,51185,1,0,0:0:0:70:hihat01.wav
36,192,51449,1,0,0:0:0:70:snare.wav
109,192,51538,1,0,0:0:0:70:bassdrum.wav
475,192,51538,1,0,0:0:0:70:hihat01.wav
256,192,51714,1,0,0:0:0:70:bassdrum.wav
402,192,51890,1,0,0:0:0:70:hihat01.wav
182,192,51890,1,0,0:0:0:70:snare.wav
329,192,51890,1,0,0:0:0:70:snare.wav
109,192,52243,1,0,0:0:0:70:bassdrum.wav
475,192,52243,1,0,0:0:0:70:hihat01.wav
256,192,52420,1,0,0:0:0:70:bassdrum.wav
182,192,52596,1,0,0:0:0:70:snare.wav
402,192,52596,1,0,0:0:0:70:hihat01.wav
329,192,52596,1,0,0:0:0:70:snare.wav
109,192,52773,1,0,0:0:0:70:bassdrum.wav
256,192,52949,1,0,0:0:0:70:hihat01.wav
402,192,53126,1,0,0:0:0:70:bassdrum.wav
36,192,53302,1,0,0:0:0:70:hihat01.wav
256,192,53302,1,0,0:0:0:70:snare.wav
182,192,53302,1,0,0:0:0:70:snare.wav
475,192,53567,1,0,0:0:0:70:snare.wav
109,192,53655,1,0,0:0:0:70:bassdrum.wav
329,192,53655,1,0,0:0:0:70:hihat01.wav
402,192,53831,1,0,0:0:0:70:bassdrum.wav
256,192,54008,1,0,0:0:0:70:snare.wav
36,192,54008,1,0,0:0:0:70:hihat01.wav
182,192,54008,1,0,0:0:0:70:snare.wav
36,192,54361,1,0,0:0:0:70:hihat01.wav
402,192,54361,1,0,0:0:0:70:bassdrum.wav
329,192,54537,1,0,0:0:0:70:bassdrum.wav
256,192,54713,1,0,0:0:0:70:snare.wav
182,192,54713,1,0,0:0:0:70:snare.wav
36,192,54713,1,0,0:0:0:70:hihat01.wav
475,192,55066,1,0,0:0:0:70:snare.wav
329,192,55066,1,0,0:0:0:70:snare.wav
109,192,55066,1,0,0:0:0:70:hihat01.wav
36,192,55243,1,0,0:0:0:70:bassdrum.wav
402,192,55243,1,0,0:0:0:40:tom01.wav
109,192,55419,1,0,0:0:0:70:bassdrum.wav
329,192,55419,1,0,0:0:0:40:tom01.wav
182,192,55596,1,0,0:0:0:70:bassdrum.wav
475,192,55596,1,0,0:0:0:40:tom02.wav
36,192,55772,1,0,0:0:0:70:cymbol.wav
402,192,55772,1,0,0:0:0:70:bassdrum.wav
256,192,55772,1,0,0:0:0:70:bassdrum.wav
109,192,55948,1,0,0:0:0:70:bassdrum.wav
475,192,56125,1,0,0:0:0:70:ride.wav
256,192,56301,1,0,0:0:0:70:bassdrum.wav
36,192,56478,1,0,0:0:0:70:snare.wav
182,192,56478,1,0,0:0:0:70:cymbol.wav
402,192,56478,1,0,0:0:0:70:bassdrum.wav
475,192,56831,1,0,0:0:0:70:ride.wav
329,192,57007,1,0,0:0:0:30:hihat.wav
109,192,57183,1,0,0:0:0:70:bassdrum.wav
475,192,57183,1,0,0:0:0:70:ride.wav
256,192,57360,1,0,0:0:0:70:bassdrum.wav
36,192,57536,1,0,0:0:0:70:ride.wav
256,192,57713,1,0,0:0:0:70:bassdrum.wav
329,192,57889,1,0,0:0:0:70:snare.wav
475,192,57889,1,0,0:0:0:70:ride.wav
182,192,58242,1,0,0:0:0:70:ride.wav
329,192,58418,1,0,0:0:0:70:ride.wav
109,192,58595,1,0,0:0:0:70:bassdrum.wav
475,192,58595,1,0,0:0:0:70:ride.wav
256,192,58771,1,0,0:0:0:70:bassdrum.wav
182,192,58948,1,0,0:0:0:70:ride.wav
402,192,59124,1,0,0:0:0:70:bassdrum.wav
329,192,59301,1,0,0:0:0:70:ride.wav
36,192,59301,1,0,0:0:0:70:snare.wav
475,192,59653,1,0,0:0:0:70:ride.wav
36,192,59830,1,0,0:0:0:70:snare.wav
182,192,59830,1,0,0:0:0:70:snare.wav
256,192,60006,1,0,0:0:0:70:bassdrum.wav
475,192,60006,1,0,0:0:0:70:ride.wav
109,192,60183,1,0,0:0:0:70:bassdrum.wav
475,192,60359,1,0,0:0:0:70:ride.wav
256,192,60536,1,0,0:0:0:70:bassdrum.wav
402,192,60712,1,0,0:0:0:70:snare.wav
109,192,60712,1,0,0:0:0:70:snare.wav
402,192,60888,1,0,0:0:0:70:snare.wav
109,192,60888,1,0,0:0:0:70:snare.wav
256,192,61065,1,0,0:0:0:70:bassdrum.wav
329,192,61241,1,0,0:0:0:70:snare.wav
182,192,61241,1,0,0:0:0:70:snare.wav
475,192,61418,1,0,0:0:0:70:cymbol.wav
36,192,61418,1,0,0:0:0:70:cymbol.wav
256,192,61418,1,0,0:0:0:70:bassdrum.wav
402,192,61594,1,0,0:0:0:70:bassdrum.wav
182,192,61771,1,0,0:0:0:70:ride.wav
256,192,61947,1,0,0:0:0:70:bassdrum.wav
475,192,62123,1,0,0:0:0:70:ride.wav
36,192,62123,1,0,0:0:0:70:snare.wav
182,192,62476,1,0,0:0:0:70:ride.wav
329,192,62653,1,0,0:0:0:70:snare.wav
475,192,62653,1,0,0:0:0:70:snare.wav
256,192,62829,1,0,0:0:0:70:bassdrum.wav
36,192,62829,1,0,0:0:0:70:ride.wav
109,192,63006,1,0,0:0:0:70:bassdrum.wav
475,192,63182,1,0,0:0:0:70:ride.wav
402,192,63358,1,0,0:0:0:70:bassdrum.wav
36,192,63535,1,0,0:0:0:70:ride.wav
182,192,63535,1,0,0:0:0:70:snare.wav
329,192,63888,1,0,0:0:0:70:snare.wav
182,192,63976,1,0,0:0:0:70:snare.wav
329,192,64064,1,0,0:0:0:70:snare.wav
182,192,64152,1,0,0:0:0:70:snare.wav
256,192,64241,1,0,0:0:0:70:bassdrum.wav
475,192,64241,1,0,0:0:0:70:cymbol.wav
36,192,64241,1,0,0:0:0:70:cymbol.wav
329,192,64593,1,0,0:0:0:70:snare.wav
182,192,64593,1,0,0:0:0:70:snare.wav
36,192,64593,1,0,0:0:0:70:hihat01.wav
109,192,64946,1,0,0:0:0:70:bassdrum.wav
475,192,64946,1,0,0:0:0:70:hihat01.wav
256,192,65123,1,0,0:0:0:70:bassdrum.wav
329,192,65299,1,0,0:0:0:70:snare.wav
182,192,65299,1,0,0:0:0:70:snare.wav
402,192,65299,1,0,0:0:0:70:hihat01.wav
109,192,65652,1,0,0:0:0:70:bassdrum.wav
475,192,65652,1,0,0:0:0:70:hihat01.wav
402,192,65828,1,0,0:0:0:70:bassdrum.wav
182,192,66005,1,0,0:0:0:70:snare.wav
329,192,66005,1,0,0:0:0:70:snare.wav
36,192,66005,1,0,0:0:0:70:hihat01.wav
109,192,66358,1,0,0:0:0:70:bassdrum.wav
475,192,66358,1,0,0:0:0:70:hihat01.wav
256,192,66534,1,0,0:0:0:70:bassdrum.wav
182,192,66711,1,0,0:0:0:70:snare.wav
329,192,66711,1,0,0:0:0:70:snare.wav
402,192,66711,1,0,0:0:0:70:hihat01.wav
256,192,67063,1,0,0:0:0:70:snare.wav
36,192,67063,1,0,0:0:0:70:snare.wav
475,192,67063,1,0,0:0:0:70:snare.wav
109,192,67240,1,0,0:0:0:70:bassdrum.wav
402,192,67240,1,0,0:0:0:70:bassdrum.wav
329,192,67416,1,0,0:0:0:70:snare.wav
256,192,67416,1,0,0:0:0:70:snare.wav
182,192,67416,1,0,0:0:0:70:snare.wav
402,192,67593,1,0,0:0:0:70:bassdrum.wav
109,192,67593,1,0,0:0:0:70:bassdrum.wav
36,192,67769,1,0,0:0:0:70:snare.wav
256,192,67769,1,0,0:0:0:70:snare.wav
475,192,67769,1,0,0:0:0:70:snare.wav
109,192,67946,1,0,0:0:0:70:bassdrum.wav
402,192,67946,1,0,0:0:0:70:bassdrum.wav
329,192,68122,1,0,0:0:0:70:snare.wav
256,192,68122,1,0,0:0:0:70:snare.wav
182,192,68122,1,0,0:0:0:70:snare.wav
475,192,68298,1,0,0:0:0:70:bassdrum.wav
256,192,68298,1,0,0:0:0:70:cymbol.wav
36,192,68298,1,0,0:0:0:70:cymbol.wav
402,192,68651,1,0,0:0:0:70:snare.wav
329,192,68651,1,0,0:0:0:40:tom01.wav
109,192,68651,1,0,0:0:0:70:bassdrum.wav
402,192,68828,1,0,0:0:0:70:snare.wav
109,192,68828,1,0,0:0:0:40:tom01.wav
329,192,68828,1,0,0:0:0:70:bassdrum.wav
402,192,69004,1,0,0:0:0:70:snare.wav
109,192,69004,1,0,0:0:0:40:tom01.wav
329,192,69004,1,0,0:0:0:70:bassdrum.wav
329,192,69710,1,0,0:0:0:70:bassdrum.wav
36,192,69710,1,0,0:0:0:70:cymbol.wav
475,192,69710,1,0,0:0:0:70:cymbol.wav
182,192,69710,1,0,0:0:0:70:bassdrum.wav
256,192,70063,1,0,0:0:0:40:hihat02.wav
329,192,70239,1,0,0:0:0:30:hihat.wav
182,192,70239,1,0,0:0:0:70:snare.wav
402,192,70239,1,2,0:0:0:0:
256,192,70416,1,0,0:0:0:40:hihat02.wav
475,192,70592,1,0,0:0:0:30:hihat.wav
109,192,70592,1,0,0:0:0:70:bassdrum.wav
256,192,70768,1,0,0:0:0:40:hihat02.wav
329,192,70945,1,2,0:0:0:0:
182,192,70945,1,0,0:0:0:70:snare.wav
402,192,70945,1,0,0:0:0:30:hihat.wav
256,192,71121,1,0,0:0:0:40:hihat02.wav
36,192,71298,1,0,0:0:0:30:hihat.wav
475,192,71298,1,0,0:0:0:70:bassdrum.wav
256,192,71474,1,0,0:0:0:40:hihat02.wav
329,192,71651,1,0,0:0:0:30:hihat.wav
182,192,71651,1,0,0:0:0:70:snare.wav
402,192,71651,1,2,0:0:0:0:
256,192,71827,1,0,0:0:0:40:hihat02.wav
109,192,72003,1,0,0:0:0:70:bassdrum.wav
475,192,72003,1,0,0:0:0:30:hihat.wav
256,192,72180,1,0,0:0:0:40:hihat02.wav
329,192,72356,1,0,0:0:0:30:hihat.wav
182,192,72356,1,0,0:0:0:70:snare.wav
402,192,72356,1,2,0:0:0:0:
256,192,72533,1,0,0:0:0:40:hihat02.wav
36,192,72709,1,0,0:0:0:70:bassdrum.wav
475,192,72709,1,0,0:0:0:30:hihat.wav
256,192,72886,1,0,0:0:0:40:hihat02.wav
329,192,73062,1,0,0:0:0:30:hihat.wav
182,192,73062,1,0,0:0:0:70:snare.wav
109,192,73062,1,2,0:0:0:0:
256,192,73238,1,0,0:0:0:40:hihat02.wav
402,192,73415,1,0,0:0:0:70:bassdrum.wav
36,192,73415,1,0,0:0:0:30:hihat.wav
256,192,73591,1,0,0:0:0:40:hihat02.wav
182,192,73768,1,0,0:0:0:70:snare.wav
109,192,73768,1,2,0:0:0:0:
329,192,73768,1,0,0:0:0:30:hihat.wav
256,192,73944,1,0,0:0:0:40:hihat02.wav
475,192,74121,1,0,0:0:0:70:bassdrum.wav
36,192,74121,1,0,0:0:0:30:hihat.wav
256,192,74297,1,0,0:0:0:40:hihat02.wav
329,192,74473,1,0,0:0:0:30:hihat.wav
109,192,74473,1,0,0:0:0:70:snare.wav
182,192,74473,1,2,0:0:0:0:
475,192,74650,1,0,0:0:0:40:hihat02.wav
329,192,74738,1,0,0:0:0:70:snare.wav
182,192,74826,1,0,0:0:0:70:snare.wav
36,192,74914,1,0,0:0:0:70:snare.wav
402,192,75003,1,0,0:0:0:70:snare.wav
109,192,75091,1,0,0:0:0:70:snare.wav
256,192,75179,1,0,0:0:0:70:snare.wav
182,192,75356,1,0,0:0:0:70:bassdrum.wav
36,192,75356,1,0,0:0:0:70:cymbol.wav
475,192,75356,1,0,0:0:0:70:cymbol.wav
329,192,75356,1,0,0:0:0:70:bassdrum.wav
256,192,75708,1,0,0:0:0:70:bassdrum.wav
182,192,75885,1,0,0:0:0:70:snare.wav
475,192,75885,1,0,0:0:0:70:snare.wav
36,192,75885,1,0,0:0:0:70:hihat01.wav
475,192,76149,1,0,0:0:0:70:snare.wav
109,192,76238,1,0,0:0:0:70:bassdrum.wav
329,192,76238,1,0,0:0:0:70:hihat01.wav
256,192,76414,1,0,0:0:0:70:bassdrum.wav
329,192,76591,1,0,0:0:0:70:snare.wav
36,192,76591,1,0,0:0:0:70:snare.wav
182,192,76591,1,0,0:0:0:70:hihat01.wav
475,192,76855,1,0,0:0:0:70:snare.wav
109,192,76943,1,0,0:0:0:70:bassdrum.wav
329,192,76943,1,0,0:0:0:70:hihat01.wav
256,192,77120,1,0,0:0:0:70:bassdrum.wav
475,192,77296,1,0,0:0:0:70:hihat01.wav
182,192,77296,1,0,0:0:0:70:snare.wav
36,192,77296,1,0,0:0:0:70:snare.wav
475,192,77649,1,0,0:0:0:70:hihat01.wav
109,192,77649,1,0,0:0:0:70:bassdrum.wav
256,192,77826,1,0,0:0:0:70:bassdrum.wav
329,192,78002,1,0,0:0:0:70:snare.wav
182,192,78002,1,0,0:0:0:70:snare.wav
36,192,78002,1,0,0:0:0:70:hihat01.wav
475,192,78178,1,0,0:0:0:70:snare.wav
329,192,78267,1,0,0:0:0:70:snare.wav
109,192,78355,1,0,0:0:0:70:bassdrum.wav
36,192,78355,1,0,0:0:0:70:bassdrum.wav
109,192,78531,1,0,0:0:0:70:bassdrum.wav
36,192,78531,1,0,0:0:0:70:bassdrum.wav
402,192,78708,1,0,0:0:0:70:bassdrum.wav
256,192,78708,1,0,0:0:0:70:cymbol.wav
475,192,78708,1,0,0:0:0:70:snare.wav
109,192,79061,1,0,0:0:0:70:bassdrum.wav
36,192,79061,1,0,0:0:0:70:bassdrum.wav
36,192,79237,1,0,0:0:0:70:bassdrum.wav
109,192,79237,1,0,0:0:0:70:bassdrum.wav
402,192,79413,1,0,0:0:0:70:cymbol.wav
475,192,79413,1,0,0:0:0:70:bassdrum.wav
256,192,79413,1,0,0:0:0:70:snare.wav
36,192,79766,1,0,0:0:0:70:bassdrum.wav
109,192,79766,1,0,0:0:0:70:bassdrum.wav
36,192,79943,1,0,0:0:0:70:bassdrum.wav
109,192,79943,1,0,0:0:0:70:bassdrum.wav
256,192,80119,1,0,0:0:0:70:cymbol.wav
402,192,80119,1,0,0:0:0:70:snare.wav
475,192,80119,1,0,0:0:0:70:bassdrum.wav
109,192,80472,1,0,0:0:0:70:snare.wav
402,192,80560,1,0,0:0:0:70:snare.wav
182,192,80648,1,0,0:0:0:70:snare.wav
329,192,80737,1,0,0:0:0:70:snare.wav
256,192,80825,1,0,0:0:0:70:snare.wav
475,192,81001,1,0,0:0:0:70:bassdrum.wav
329,192,81001,1,0,0:0:0:70:cymbol.wav
182,192,81001,1,0,0:0:0:70:cymbol.wav
36,192,81001,1,0,0:0:0:70:bassdrum.wav
182,192,81354,1,0,0:0:0:40:hihat02.wav
475,192,81531,1,0,0:0:0:30:hihat.wav
256,192,81531,1,2,0:0:0:0:
36,192,81531,1,0,0:0:0:70:snare.wav
329,192,81707,1,0,0:0:0:40:hihat02.wav
402,192,81883,1,0,0:0:0:70:bassdrum.wav
109,192,81883,1,0,0:0:0:30:hihat.wav
182,192,82060,1,0,0:0:0:40:hihat02.wav
36,192,82236,1,0,0:0:0:70:snare.wav
475,192,82236,1,0,0:0:0:30:hihat.wav
256,192,82236,1,2,0:0:0:0:
329,192,82413,1,0,0:0:0:40:hihat02.wav
109,192,82589,1,0,0:0:0:70:bassdrum.wav
475,192,82589,1,0,0:0:0:30:hihat.wav
329,192,82766,1,0,0:0:0:40:hihat02.wav
475,192,82942,1,0,0:0:0:70:snare.wav
256,192,82942,1,0,0:0:0:30:hihat.wav
36,192,82942,1,2,0:0:0:0:
182,192,83118,1,0,0:0:0:40:hihat02.wav
36,192,83295,1,0,0:0:0:30:hihat.wav
402,192,83295,1,0,0:0:0:70:bassdrum.wav
182,192,83471,1,0,0:0:0:40:hihat02.wav
256,192,83648,1,0,0:0:0:30:hihat.wav
475,192,83648,1,0,0:0:0:70:snare.wav
36,192,83648,1,2,0:0:0:0:
329,192,83824,1,0,0:0:0:40:hihat02.wav
402,192,84001,1,0,0:0:0:30:hihat.wav
182,192,84001,1,0,0:0:0:70:bassdrum.wav
329,192,84177,1,0,0:0:0:40:hihat02.wav
256,192,84353,1,0,0:0:0:30:hihat.wav
402,192,84353,1,2,0:0:0:0:
109,192,84353,1,0,0:0:0:70:snare.wav
36,192,84530,1,0,0:0:0:40:hihat02.wav
475,192,84706,1,0,0:0:0:30:hihat.wav
182,192,84706,1,0,0:0:0:70:bassdrum.wav
329,192,84883,1,0,0:0:0:40:hihat02.wav
256,192,85059,1,2,0:0:0:0:
402,192,85059,1,0,0:0:0:30:hihat.wav
109,192,85059,1,0,0:0:0:70:snare.wav
182,192,85236,1,0,0:0:0:40:hihat02.wav
475,192,85412,1,0,0:0:0:30:hihat.wav
36,192,85412,1,0,0:0:0:70:bassdrum.wav
182,192,85588,1,0,0:0:0:40:hihat02.wav
109,192,85765,1,0,0:0:0:70:snare.wav
402,192,85765,1,0,0:0:0:30:hihat.wav
256,192,85765,1,2,0:0:0:0:
329,192,85941,1,0,0:0:0:40:hihat02.wav
109,192,86118,1,0,0:0:0:70:snare.wav
402,192,86206,1,0,0:0:0:70:snare.wav
182,192,86294,1,0,0:0:0:70:snare.wav
329,192,86382,1,0,0:0:0:70:snare.wav
256,192,86471,1,0,0:0:0:70:snare.wav
182,192,86647,1,0,0:0:0:70:bassdrum.wav
36,192,86647,1,0,0:0:0:70:cymbol.wav
475,192,86647,1,0,0:0:0:70:cymbol.wav
329,192,86647,1,0,0:0:0:70:bassdrum.wav
109,192,87000,1,0,0:0:0:70:bassdrum.wav
36,192,87176,1,0,0:0:0:70:snare.wav
329,192,87176,1,0,0:0:0:70:hihat01.wav
475,192,87176,1,0,0:0:0:70:snare.wav
109,192,87441,1,0,0:0:0:70:snare.wav
182,192,87529,1,0,0:0:0:70:bassdrum.wav
475,192,87529,1,0,0:0:0:70:hihat01.wav
256,192,87706,1,0,0:0:0:70:bassdrum.wav
182,192,87882,1,0,0:0:0:70:snare.wav
475,192,87882,1,0,0:0:0:70:snare.wav
329,192,87882,1,0,0:0:0:70:hihat01.wav
36,192,88147,1,0,0:0:0:70:snare.wav
109,192,88235,1,0,0:0:0:70:bassdrum.wav
475,192,88235,1,0,0:0:0:70:hihat01.wav
256,192,88411,1,0,0:0:0:70:bassdrum.wav
36,192,88588,1,0,0:0:0:70:snare.wav
329,192,88588,1,0,0:0:0:70:snare.wav
475,192,88588,1,0,0:0:0:70:hihat01.wav
475,192,88941,1,0,0:0:0:70:hihat01.wav
109,192,88941,1,0,0:0:0:70:bassdrum.wav
256,192,89117,1,0,0:0:0:70:bassdrum.wav
329,192,89293,1,0,0:0:0:70:snare.wav
182,192,89293,1,0,0:0:0:70:snare.wav
475,192,89293,1,0,0:0:0:70:hihat01.wav
36,192,89470,1,0,0:0:0:70:snare.wav
182,192,89558,1,0,0:0:0:70:snare.wav
402,192,89646,1,0,0:0:0:70:bassdrum.wav
475,192,89646,1,0,0:0:0:70:bassdrum.wav
475,192,89823,1,0,0:0:0:70:bassdrum.wav
402,192,89823,1,0,0:0:0:70:bassdrum.wav
109,192,89999,1,0,0:0:0:70:bassdrum.wav
256,192,89999,1,0,0:0:0:70:cymbol.wav
36,192,89999,1,0,0:0:0:70:snare.wav
402,192,90352,1,0,0:0:0:70:bassdrum.wav
475,192,90352,1,0,0:0:0:70:bassdrum.wav
402,192,90528,1,0,0:0:0:70:bassdrum.wav
475,192,90528,1,0,0:0:0:70:bassdrum.wav
36,192,90705,1,0,0:0:0:70:bassdrum.wav
256,192,90705,1,0,0:0:0:70:snare.wav
109,192,90705,1,0,0:0:0:70:cymbol.wav
475,192,91058,1,0,0:0:0:70:bassdrum.wav
402,192,91058,1,0,0:0:0:70:bassdrum.wav
402,192,91234,1,0,0:0:0:70:bassdrum.wav
475,192,91234,1,0,0:0:0:70:bassdrum.wav
109,192,91411,1,0,0:0:0:70:snare.wav
36,192,91411,1,0,0:0:0:70:bassdrum.wav
256,192,91411,1,0,0:0:0:70:cymbol.wav
402,192,91763,1,0,0:0:0:70:tom01.wav
182,192,91763,1,0,0:0:0:70:snare.wav
36,192,91763,1,0,0:0:0:70:snare.wav
475,192,91940,1,0,0:0:0:70:bassdrum.wav
109,192,91940,1,0,0:0:0:40:tom01.wav
402,192,92116,1,0,0:0:0:70:bassdrum.wav
182,192,92116,1,0,0:0:0:40:tom01.wav
36,192,92293,1,0,0:0:0:40:tom02.wav
329,192,92293,1,0,0:0:0:70:bassdrum.wav
109,192,92469,1,0,0:0:0:70:bassdrum.wav
256,192,92469,1,0,0:0:0:70:bassdrum.wav
475,192,92469,1,0,0:0:0:70:cymbol.wav
329,192,93881,1,0,0:0:0:70:hihat01.wav
36,192,93881,1,0,0:0:0:70:hihat01.wav
329,192,94233,1,0,0:0:0:70:hihat01.wav
36,192,94233,1,0,0:0:0:70:hihat01.wav
36,192,95116,1,0,0:0:0:70:cymbol.wav
182,192,95116,1,0,0:0:0:70:bassdrum.wav
475,192,95116,1,0,0:0:0:70:cymbol.wav
329,192,95116,1,0,0:0:0:70:bassdrum.wav
402,192,95468,1,0,0:0:0:70:bassdrum.wav
36,192,95645,1,0,0:0:0:70:snare.wav
182,192,95645,1,0,0:0:0:70:snare.wav
475,192,95821,1,0,0:0:0:40:tom01.wav
329,192,95910,1,0,0:0:0:40:tom02.wav
256,192,95998,1,0,0:0:0:70:bassdrum.wav
109,192,96174,1,0,0:0:0:70:bassdrum.wav
329,192,96351,1,0,0:0:0:70:snare.wav
475,192,96351,1,0,0:0:0:70:snare.wav
36,192,96527,1,0,0:0:0:40:tom01.wav
182,192,96615,1,0,0:0:0:40:tom02.wav
256,192,96703,1,0,0:0:0:70:bassdrum.wav
402,192,96880,1,0,0:0:0:70:bassdrum.wav
182,192,97056,1,0,0:0:0:70:snare.wav
329,192,97056,1,0,0:0:0:70:snare.wav
402,192,97233,1,0,0:0:0:40:tom01.wav
256,192,97321,1,0,0:0:0:40:tom02.wav
109,192,97409,1,0,0:0:0:70:bassdrum.wav
109,192,97586,1,0,0:0:0:70:bassdrum.wav
475,192,97762,1,0,0:0:0:70:snare.wav
329,192,97762,1,0,0:0:0:70:snare.wav
109,192,97938,1,0,0:0:0:40:tom01.wav
256,192,98027,1,0,0:0:0:40:tom02.wav
402,192,98115,1,0,0:0:0:70:bassdrum.wav
402,192,98291,1,0,0:0:0:70:bassdrum.wav
36,192,98468,1,0,0:0:0:70:snare.wav
329,192,98468,1,0,0:0:0:70:snare.wav
402,192,98644,1,0,0:0:0:40:tom01.wav
256,192,98732,1,0,0:0:0:40:tom02.wav
109,192,98821,1,0,0:0:0:70:bassdrum.wav
182,192,98997,1,0,0:0:0:70:bassdrum.wav
402,192,98997,1,0,0:0:0:70:bassdrum.wav
256,192,99173,1,0,0:0:0:70:bassdrum.wav
475,192,99173,1,0,0:0:0:70:bassdrum.wav
402,192,99350,1,0,0:0:0:70:bassdrum.wav
182,192,99350,1,0,0:0:0:40:hihat02.wav
36,192,99350,1,0,0:0:0:70:snare.wav
475,192,100761,1,0,0:0:0:70:cymbol.wav
329,192,100761,1,0,0:0:0:70:bassdrum.wav
182,192,100761,1,0,0:0:0:70:bassdrum.wav
36,192,100761,1,0,0:0:0:70:hihat02.wav
109,192,101114,1,0,0:0:0:70:bassdrum.wav
182,192,101291,1,0,0:0:0:70:snare.wav
475,192,101291,1,0,0:0:0:70:snare.wav
402,192,101467,1,0,0:0:0:40:tom01.wav
256,192,101555,1,0,0:0:0:40:tom02.wav
109,192,101643,1,0,0:0:0:70:bassdrum.wav
109,192,101820,1,0,0:0:0:70:bassdrum.wav
329,192,101996,1,0,0:0:0:70:snare.wav
475,192,101996,1,0,0:0:0:70:snare.wav
36,192,102173,1,0,0:0:0:40:tom01.wav
182,192,102261,1,0,0:0:0:40:tom02.wav
256,192,102349,1,0,0:0:0:70:bassdrum.wav
402,192,102526,1,0,0:0:0:70:bassdrum.wav
329,192,102702,1,0,0:0:0:70:snare.wav
36,192,102702,1,0,0:0:0:70:snare.wav
475,192,102879,1,0,0:0:0:40:tom01.wav
402,192,102967,1,0,0:0:0:40:tom02.wav
256,192,103055,1,0,0:0:0:70:bassdrum.wav
109,192,103231,1,0,0:0:0:70:bassdrum.wav
329,192,103408,1,0,0:0:0:70:snare.wav
182,192,103408,1,0,0:0:0:70:snare.wav
109,192,103584,1,0,0:0:0:40:tom01.wav
256,192,103672,1,0,0:0:0:40:tom02.wav
402,192,103761,1,0,0:0:0:70:bassdrum.wav
402,192,103937,1,0,0:0:0:70:bassdrum.wav
329,192,104114,1,0,0:0:0:70:snare.wav
36,192,104114,1,0,0:0:0:70:snare.wav
109,192,104290,1,0,0:0:0:40:tom01.wav
182,192,104378,1,0,0:0:0:40:tom02.wav
256,192,104466,1,0,0:0:0:70:bassdrum.wav
402,192,104643,1,0,0:0:0:70:bassdrum.wav
182,192,104819,1,0,0:0:0:70:snare.wav
329,192,104819,1,0,0:0:0:70:snare.wav
402,192,104996,1,0,0:0:0:50:tom01.wav
329,192,105084,1,0,0:0:0:50:tom02.wav
256,192,105172,1,0,0:0:0:70:bassdrum.wav
109,192,105349,1,0,0:0:0:70:bassdrum.wav
182,192,105525,1,0,0:0:0:70:snare.wav
475,192,105525,1,0,0:0:0:70:snare.wav
402,192,105701,1,0,0:0:0:40:tom01.wav
256,192,105790,1,0,0:0:0:40:tom02.wav
109,192,105878,1,0,0:0:0:70:bassdrum.wav
109,192,106054,1,0,0:0:0:70:bassdrum.wav
182,192,106231,1,0,0:0:0:70:snare.wav
329,192,106231,1,0,0:0:0:70:snare.wav
475,192,106407,1,0,0:0:0:70:cymbol.wav
256,192,106407,1,0,0:0:0:70:bassdrum.wav
36,192,106407,1,0,0:0:0:70:cymbol.wav
402,192,106760,1,0,0:0:0:70:bassdrum.wav
182,192,106936,1,0,0:0:0:70:snare.wav
36,192,106936,1,0,0:0:0:70:snare.wav
402,192,107113,1,0,0:0:0:40:tom01.wav
329,192,107201,1,0,0:0:0:40:tom02.wav
256,192,107289,1,0,0:0:0:70:bassdrum.wav
109,192,107466,1,0,0:0:0:70:bassdrum.wav
182,192,107642,1,0,0:0:0:70:snare.wav
329,192,107642,1,0,0:0:0:70:snare.wav
109,192,107819,1,0,0:0:0:40:tom01.wav
182,192,107907,1,0,0:0:0:40:tom02.wav
256,192,107995,1,0,0:0:0:70:bassdrum.wav
402,192,108171,1,0,0:0:0:70:bassdrum.wav
182,192,108348,1,0,0:0:0:70:snare.wav
475,192,108348,1,0,0:0:0:70:snare.wav
402,192,108524,1,0,0:0:0:40:tom01.wav
256,192,108612,1,0,0:0:0:40:tom02.wav
109,192,108701,1,0,0:0:0:70:bassdrum.wav
109,192,108877,1,0,0:0:0:70:bassdrum.wav
182,192,109054,1,0,0:0:0:70:snare.wav
329,192,109054,1,0,0:0:0:70:snare.wav
109,192,109230,1,0,0:0:0:40:tom01.wav
256,192,109318,1,0,0:0:0:40:tom02.wav
402,192,109406,1,0,0:0:0:70:bassdrum.wav
402,192,109583,1,0,0:0:0:70:bassdrum.wav
36,192,109759,1,0,0:0:0:70:snare.wav
329,192,109759,1,0,0:0:0:70:snare.wav
402,192,109936,1,0,0:0:0:40:tom01.wav
256,192,110024,1,0,0:0:0:40:tom02.wav
109,192,110112,1,0,0:0:0:70:bassdrum.wav
109,192,110289,1,0,0:0:0:70:bassdrum.wav
182,192,110465,1,0,0:0:0:70:snare.wav
329,192,110465,1,0,0:0:0:70:snare.wav
329,192,110818,1,0,0:0:0:70:snare.wav
109,192,110818,1,0,0:0:0:50:tom01.wav
402,192,110818,1,0,0:0:0:70:bassdrum.wav
329,192,110994,1,0,0:0:0:70:snare.wav
109,192,110994,1,0,0:0:0:50:tom01.wav
402,192,110994,1,0,0:0:0:70:bassdrum.wav
329,192,111171,1,0,0:0:0:70:snare.wav
109,192,111171,1,0,0:0:0:50:tom01.wav
402,192,111171,1,0,0:0:0:70:bassdrum.wav
256,192,111347,1,0,0:0:0:70:bassdrum.wav
475,192,111347,1,0,0:0:0:70:hihat02.wav
182,192,111347,1,0,0:0:0:70:snare.wav
182,192,112053,1,0,0:0:0:70:bassdrum.wav
36,192,112053,1,0,0:0:0:70:cymbol.wav
475,192,112053,1,0,0:0:0:70:cymbol.wav
329,192,112053,1,0,0:0:0:70:bassdrum.wav
402,192,112406,1,0,0:0:0:70:bassdrum.wav
182,192,112582,1,0,0:0:0:70:snare.wav
329,192,112582,1,0,0:0:0:70:snare.wav
36,192,112582,1,0,0:0:0:70:hihat01.wav
475,192,112847,1,0,0:0:0:70:snare.wav
109,192,112935,1,0,0:0:0:70:bassdrum.wav
329,192,112935,1,0,0:0:0:70:hihat01.wav
256,192,113111,1,0,0:0:0:70:bassdrum.wav
329,192,113288,1,0,0:0:0:70:hihat01.wav
36,192,113288,1,0,0:0:0:70:snare.wav
109,192,113288,1,0,0:0:0:70:snare.wav
475,192,113552,1,0,0:0:0:70:snare.wav
402,192,113641,1,0,0:0:0:70:bassdrum.wav
36,192,113641,1,0,0:0:0:70:hihat01.wav
256,192,113817,1,0,0:0:0:70:bassdrum.wav
329,192,113994,1,0,0:0:0:70:snare.wav
182,192,113994,1,0,0:0:0:70:snare.wav
36,192,113994,1,0,0:0:0:70:hihat01.wav
475,192,114346,1,0,0:0:0:70:hihat01.wav
109,192,114346,1,0,0:0:0:70:bassdrum.wav
256,192,114523,1,0,0:0:0:70:bassdrum.wav
329,192,114699,1,0,0:0:0:70:snare.wav
36,192,114699,1,0,0:0:0:70:hihat01.wav
109,192,114699,1,0,0:0:0:70:snare.wav
402,192,114876,1,0,0:0:0:70:bassdrum.wav
329,192,115052,1,0,0:0:0:70:hihat01.wav
109,192,115229,1,0,0:0:0:70:bassdrum.wav
329,192,115405,1,0,0:0:0:70:snare.wav
182,192,115405,1,0,0:0:0:70:snare.wav
475,192,115405,1,0,0:0:0:70:hihat01.wav
36,192,115670,1,0,0:0:0:70:snare.wav
109,192,115758,1,0,0:0:0:70:bassdrum.wav
475,192,115758,1,0,0:0:0:70:hihat01.wav
256,192,115934,1,0,0:0:0:70:bassdrum.wav
402,192,116111,1,0,0:0:0:70:snare.wav
182,192,116111,1,0,0:0:0:70:hihat01.wav
475,192,116111,1,0,0:0:0:70:snare.wav
475,192,116464,1,0,0:0:0:70:hihat01.wav
109,192,116464,1,0,0:0:0:70:bassdrum.wav
256,192,116640,1,0,0:0:0:70:bassdrum.wav
182,192,116816,1,0,0:0:0:70:snare.wav
329,192,116816,1,0,0:0:0:70:snare.wav
475,192,116816,1,0,0:0:0:70:hihat01.wav
36,192,117169,1,0,0:0:0:70:snare.wav
402,192,117169,1,0,0:0:0:70:hihat01.wav
256,192,117169,1,0,0:0:0:70:snare.wav
109,192,117346,1,0,0:0:0:70:bassdrum.wav
329,192,117346,1,0,0:0:0:40:tom01.wav
182,192,117522,1,0,0:0:0:40:tom01.wav
402,192,117522,1,0,0:0:0:70:bassdrum.wav
475,192,117699,1,0,0:0:0:40:tom02.wav
256,192,117699,1,0,0:0:0:70:bassdrum.wav
182,192,117875,1,0,0:0:0:70:bassdrum.wav
402,192,117875,1,0,0:0:0:70:bassdrum.wav
36,192,117875,1,0,0:0:0:70:cymbol.wav
256,192,118051,1,0,0:0:0:70:bassdrum.wav
182,192,118228,1,0,0:0:0:70:ride.wav
402,192,118404,1,0,0:0:0:70:bassdrum.wav
182,192,118581,1,0,0:0:0:70:ride.wav
36,192,118581,1,0,0:0:0:70:snare.wav
329,192,118581,1,0,0:0:0:70:cymbol.wav
475,192,118934,1,0,0:0:0:70:ride.wav
182,192,119110,1,0,0:0:0:70:ride.wav
36,192,119286,1,0,0:0:0:70:ride.wav
402,192,119286,1,0,0:0:0:70:bassdrum.wav
109,192,119463,1,0,0:0:0:70:bassdrum.wav
329,192,119639,1,0,0:0:0:70:ride.wav
109,192,119816,1,0,0:0:0:70:bassdrum.wav
475,192,119992,1,0,0:0:0:70:ride.wav
182,192,119992,1,0,0:0:0:70:snare.wav
36,192,120345,1,0,0:0:0:70:ride.wav
329,192,120521,1,0,0:0:0:70:snare.wav
475,192,120521,1,0,0:0:0:70:snare.wav
256,192,120698,1,0,0:0:0:70:bassdrum.wav
36,192,120698,1,0,0:0:0:70:ride.wav
109,192,120874,1,0,0:0:0:70:bassdrum.wav
475,192,121051,1,0,0:0:0:70:ride.wav
402,192,121227,1,0,0:0:0:70:bassdrum.wav
329,192,121404,1,0,0:0:0:70:ride.wav
36,192,121404,1,0,0:0:0:70:snare.wav
182,192,121756,1,0,0:0:0:70:ride.wav
109,192,121933,1,0,0:0:0:70:snare.wav
402,192,121933,1,0,0:0:0:70:snare.wav
475,192,122109,1,0,0:0:0:70:bassdrum.wav
36,192,122109,1,0,0:0:0:70:ride.wav
329,192,122286,1,0,0:0:0:70:snare.wav
182,192,122286,1,0,0:0:0:70:snare.wav
475,192,122462,1,0,0:0:0:70:bassdrum.wav
36,192,122462,1,0,0:0:0:70:ride.wav
256,192,122639,1,0,0:0:0:70:bassdrum.wav
109,192,122815,1,0,0:0:0:70:snare.wav
402,192,122815,1,0,0:0:0:40:cymbol.wav
182,192,122991,1,0,0:0:0:70:snare.wav
329,192,122991,1,0,0:0:0:70:snare.wav
256,192,123168,1,0,0:0:0:70:ride.wav
109,192,123344,1,0,0:0:0:70:snare.wav
402,192,123344,1,0,0:0:0:70:snare.wav
475,192,123521,1,0,0:0:0:70:ride.wav
36,192,123521,1,0,0:0:0:70:cymbol.wav
256,192,123521,1,0,0:0:0:70:bassdrum.wav
109,192,123697,1,0,0:0:0:70:bassdrum.wav
182,192,123874,1,0,0:0:0:70:ride.wav
402,192,124050,1,0,0:0:0:70:bassdrum.wav
329,192,124226,1,0,0:0:0:70:ride.wav
36,192,124226,1,0,0:0:0:70:snare.wav
475,192,124579,1,0,0:0:0:70:ride.wav
329,192,124756,1,0,0:0:0:70:snare.wav
36,192,124756,1,0,0:0:0:70:snare.wav
402,192,124932,1,0,0:0:0:70:bassdrum.wav
182,192,124932,1,0,0:0:0:70:ride.wav
256,192,125109,1,0,0:0:0:70:bassdrum.wav
36,192,125285,1,0,0:0:0:70:ride.wav
109,192,125461,1,0,0:0:0:70:bassdrum.wav
182,192,125638,1,0,0:0:0:70:snare.wav
475,192,125638,1,0,0:0:0:70:ride.wav
329,192,125991,1,0,0:0:0:70:snare.wav
182,192,126079,1,0,0:0:0:70:snare.wav
329,192,126167,1,0,0:0:0:70:snare.wav
182,192,126255,1,0,0:0:0:70:snare.wav
475,192,126344,1,0,0:0:0:70:cymbol.wav
256,192,126344,1,0,0:0:0:70:bassdrum.wav
36,192,126344,1,0,0:0:0:70:cymbol.wav
329,192,126696,1,0,0:0:0:70:snare.wav
36,192,126696,1,0,0:0:0:70:hihat01.wav
182,192,126696,1,0,0:0:0:70:snare.wav
109,192,127049,1,0,0:0:0:70:bassdrum.wav
475,192,127049,1,0,0:0:0:70:hihat01.wav
256,192,127226,1,0,0:0:0:70:bassdrum.wav
329,192,127402,1,0,0:0:0:70:snare.wav
182,192,127402,1,0,0:0:0:70:snare.wav
402,192,127402,1,0,0:0:0:70:hihat01.wav
109,192,127755,1,0,0:0:0:70:bassdrum.wav
475,192,127755,1,0,0:0:0:70:hihat01.wav
402,192,127931,1,0,0:0:0:70:bassdrum.wav
329,192,128108,1,0,0:0:0:70:snare.wav
36,192,128108,1,0,0:0:0:70:hihat01.wav
182,192,128108,1,0,0:0:0:70:snare.wav
475,192,128461,1,0,0:0:0:70:hihat01.wav
109,192,128461,1,0,0:0:0:70:bassdrum.wav
256,192,128637,1,0,0:0:0:70:bassdrum.wav
329,192,128814,1,0,0:0:0:70:snare.wav
182,192,128814,1,0,0:0:0:70:snare.wav
402,192,128814,1,0,0:0:0:70:hihat01.wav
256,192,129166,1,0,0:0:0:70:snare.wav
36,192,129166,1,0,0:0:0:70:snare.wav
475,192,129166,1,0,0:0:0:70:snare.wav
109,192,129343,1,0,0:0:0:70:bassdrum.wav
402,192,129343,1,0,0:0:0:70:bassdrum.wav
182,192,129519,1,0,0:0:0:70:snare.wav
256,192,129519,1,0,0:0:0:70:snare.wav
329,192,129519,1,0,0:0:0:70:snare.wav
402,192,129696,1,0,0:0:0:70:bassdrum.wav
109,192,129696,1,0,0:0:0:70:bassdrum.wav
36,192,129872,1,0,0:0:0:70:snare.wav
475,192,129872,1,0,0:0:0:70:snare.wav
256,192,129872,1,0,0:0:0:70:snare.wav
402,192,130049,1,0,0:0:0:70:bassdrum.wav
109,192,130049,1,0,0:0:0:70:bassdrum.wav
182,192,130225,1,0,0:0:0:70:snare.wav
256,192,130225,1,0,0:0:0:70:snare.wav
329,192,130225,1,0,0:0:0:70:snare.wav
475,192,130401,1,0,0:0:0:70:bassdrum.wav
256,192,130401,1,0,0:0:0:70:cymbol.wav
36,192,130401,1,0,0:0:0:70:cymbol.wav
109,192,130754,1,0,0:0:0:70:bassdrum.wav
402,192,130754,1,0,0:0:0:70:snare.wav
329,192,130754,1,0,0:0:0:40:tom01.wav
402,192,130931,1,0,0:0:0:70:snare.wav
109,192,130931,1,0,0:0:0:40:tom01.wav
329,192,130931,1,0,0:0:0:70:bassdrum.wav
402,192,131107,1,0,0:0:0:70:snare.wav
329,192,131107,1,0,0:0:0:70:bassdrum.wav
109,192,131107,1,0,0:0:0:40:tom01.wav
475,192,131813,1,0,0:0:0:70:cymbol.wav
36,192,131813,1,0,0:0:0:70:cymbol.wav
182,192,131813,1,0,0:0:0:70:bassdrum.wav
329,192,131813,1,0,0:0:0:70:bassdrum.wav
256,192,132166,1,0,0:0:0:40:hihat02.wav
36,192,132342,1,2,0:0:0:0:
402,192,132342,1,0,0:0:0:30:hihat.wav
182,192,132342,1,0,0:0:0:70:snare.wav
256,192,132519,1,0,0:0:0:40:hihat02.wav
109,192,132695,1,0,0:0:0:70:bassdrum.wav
475,192,132695,1,0,0:0:0:30:hihat.wav
256,192,132871,1,0,0:0:0:40:hihat02.wav
329,192,133048,1,0,0:0:0:30:hihat.wav
182,192,133048,1,0,0:0:0:70:snare.wav
36,192,133048,1,2,0:0:0:0:
256,192,133224,1,0,0:0:0:40:hihat02.wav
475,192,133401,1,0,0:0:0:30:hihat.wav
109,192,133401,1,0,0:0:0:70:bassdrum.wav
256,192,133577,1,0,0:0:0:40:hihat02.wav
36,192,133754,1,0,0:0:0:30:hihat.wav
402,192,133754,1,2,0:0:0:0:
182,192,133754,1,0,0:0:0:70:snare.wav
256,192,133930,1,0,0:0:0:40:hihat02.wav
109,192,134106,1,0,0:0:0:70:bassdrum.wav
475,192,134106,1,0,0:0:0:30:hihat.wav
256,192,134283,1,0,0:0:0:40:hihat02.wav
329,192,134459,1,0,0:0:0:30:hihat.wav
182,192,134459,1,0,0:0:0:70:snare.wav
36,192,134459,1,2,0:0:0:0:
256,192,134636,1,0,0:0:0:40:hihat02.wav
475,192,134812,1,0,0:0:0:30:hihat.wav
36,192,134812,1,0,0:0:0:70:bassdrum.wav
256,192,134989,1,0,0:0:0:40:hihat02.wav
475,192,135165,1,2,0:0:0:0:
109,192,135165,1,0,0:0:0:70:snare.wav
329,192,135165,1,0,0:0:0:30:hihat.wav
256,192,135341,1,0,0:0:0:40:hihat02.wav
36,192,135518,1,0,0:0:0:30:hihat.wav
402,192,135518,1,0,0:0:0:70:bassdrum.wav
256,192,135694,1,0,0:0:0:40:hihat02.wav
182,192,135871,1,0,0:0:0:70:snare.wav
475,192,135871,1,2,0:0:0:0:
329,192,135871,1,0,0:0:0:30:hihat.wav
256,192,136047,1,0,0:0:0:40:hihat02.wav
36,192,136224,1,0,0:0:0:30:hihat.wav
475,192,136224,1,0,0:0:0:70:bassdrum.wav
256,192,136400,1,0,0:0:0:40:hihat02.wav
475,192,136576,1,0,0:0:0:70:snare.wav
109,192,136576,1,2,0:0:0:0:
329,192,136576,1,0,0:0:0:30:hihat.wav
36,192,136753,1,0,0:0:0:40:hihat02.wav
182,192,136841,1,0,0:0:0:70:snare.wav
329,192,136929,1,0,0:0:0:70:snare.wav
475,192,137018,1,0,0:0:0:70:snare.wav
109,192,137106,1,0,0:0:0:70:snare.wav
402,192,137194,1,0,0:0:0:70:snare.wav
256,192,137282,1,0,0:0:0:70:snare.wav
475,192,137459,1,0,0:0:0:70:cymbol.wav
329,192,137459,1,0,0:0:0:70:bassdrum.wav
36,192,137459,1,0,0:0:0:70:cymbol.wav
182,192,137459,1,0,0:0:0:70:bassdrum.wav
256,192,137811,1,0,0:0:0:70:bassdrum.wav
329,192,137988,1,0,0:0:0:70:hihat01.wav
475,192,137988,1,0,0:0:0:70:snare.wav
36,192,137988,1,0,0:0:0:70:snare.wav
109,192,138253,1,0,0:0:0:70:snare.wav
182,192,138341,1,0,0:0:0:70:hihat01.wav
402,192,138341,1,0,0:0:0:70:bassdrum.wav
256,192,138517,1,0,0:0:0:70:bassdrum.wav
475,192,138694,1,0,0:0:0:70:snare.wav
329,192,138694,1,0,0:0:0:70:snare.wav
182,192,138694,1,0,0:0:0:70:hihat01.wav
36,192,138958,1,0,0:0:0:70:snare.wav
109,192,139046,1,0,0:0:0:70:hihat01.wav
475,192,139046,1,0,0:0:0:70:bassdrum.wav
256,192,139223,1,0,0:0:0:70:bassdrum.wav
36,192,139399,1,0,0:0:0:70:snare.wav
475,192,139399,1,0,0:0:0:70:hihat01.wav
329,192,139399,1,0,0:0:0:70:snare.wav
402,192,139752,1,0,0:0:0:70:bassdrum.wav
36,192,139752,1,0,0:0:0:70:hihat01.wav
256,192,139929,1,0,0:0:0:70:bassdrum.wav
182,192,140105,1,0,0:0:0:70:snare.wav
329,192,140105,1,0,0:0:0:70:snare.wav
475,192,140105,1,0,0:0:0:70:hihat01.wav
36,192,140281,1,0,0:0:0:70:snare.wav
182,192,140370,1,0,0:0:0:70:snare.wav
329,192,140458,1,0,0:0:0:70:bassdrum.wav
402,192,140458,1,0,0:0:0:70:bassdrum.wav
402,192,140634,1,0,0:0:0:70:bassdrum.wav
329,192,140634,1,0,0:0:0:70:bassdrum.wav
256,192,140811,1,0,0:0:0:70:snare.wav
109,192,140811,1,0,0:0:0:70:cymbol.wav
36,192,140811,1,0,0:0:0:70:bassdrum.wav
402,192,141164,1,0,0:0:0:70:bassdrum.wav
329,192,141164,1,0,0:0:0:70:bassdrum.wav
402,192,141340,1,0,0:0:0:70:bassdrum.wav
329,192,141340,1,0,0:0:0:70:bassdrum.wav
109,192,141516,1,0,0:0:0:70:bassdrum.wav
36,192,141516,1,0,0:0:0:70:cymbol.wav
256,192,141516,1,0,0:0:0:70:snare.wav
329,192,141869,1,0,0:0:0:70:bassdrum.wav
402,192,141869,1,0,0:0:0:70:bassdrum.wav
402,192,142046,1,0,0:0:0:70:bassdrum.wav
329,192,142046,1,0,0:0:0:70:bassdrum.wav
256,192,142222,1,0,0:0:0:70:snare.wav
36,192,142222,1,0,0:0:0:70:bassdrum.wav
109,192,142222,1,0,0:0:0:70:cymbol.wav
109,192,142575,1,0,0:0:0:70:snare.wav
402,192,142663,1,0,0:0:0:70:snare.wav
182,192,142751,1,0,0:0:0:70:snare.wav
329,192,142840,1,0,0:0:0:70:snare.wav
256,192,142928,1,0,0:0:0:70:snare.wav
475,192,143104,1,0,0:0:0:70:bassdrum.wav
329,192,143104,1,0,0:0:0:70:cymbol.wav
182,192,143104,1,0,0:0:0:70:cymbol.wav
36,192,143104,1,0,0:0:0:70:bassdrum.wav
36,192,143457,1,0,0:0:0:40:hihat02.wav
256,192,143634,1,0,0:0:0:70:snare.wav
475,192,143634,1,0,0:0:0:30:hihat.wav
329,192,143634,1,2,0:0:0:0:
182,192,143810,1,0,0:0:0:40:hihat02.wav
36,192,143986,1,0,0:0:0:30:hihat.wav
402,192,143986,1,0,0:0:0:70:bassdrum.wav
182,192,144163,1,0,0:0:0:40:hihat02.wav
256,192,144339,1,2,0:0:0:0:
475,192,144339,1,0,0:0:0:30:hihat.wav
329,192,144339,1,0,0:0:0:70:snare.wav
36,192,144516,1,0,0:0:0:40:hihat02.wav
402,192,144692,1,0,0:0:0:70:bassdrum.wav
182,192,144692,1,0,0:0:0:30:hihat.wav
36,192,144869,1,0,0:0:0:40:hihat02.wav
475,192,145045,1,0,0:0:0:70:snare.wav
329,192,145045,1,2,0:0:0:0:
256,192,145045,1,0,0:0:0:30:hihat.wav
182,192,145221,1,0,0:0:0:40:hihat02.wav
402,192,145398,1,0,0:0:0:70:bassdrum.wav
36,192,145398,1,0,0:0:0:30:hihat.wav
182,192,145574,1,0,0:0:0:40:hihat02.wav
329,192,145751,1,2,0:0:0:0:
475,192,145751,1,0,0:0:0:70:snare.wav
256,192,145751,1,0,0:0:0:30:hihat.wav
36,192,145927,1,0,0:0:0:40:hihat02.wav
475,192,146104,1,0,0:0:0:70:bassdrum.wav
109,192,146104,1,0,0:0:0:30:hihat.wav
329,192,146280,1,0,0:0:0:40:hihat02.wav
182,192,146456,1,0,0:0:0:70:snare.wav
256,192,146456,1,0,0:0:0:30:hihat.wav
36,192,146456,1,2,0:0:0:0:
475,192,146633,1,0,0:0:0:40:hihat02.wav
109,192,146809,1,0,0:0:0:70:bassdrum.wav
329,192,146809,1,0,0:0:0:30:hihat.wav
475,192,146986,1,0,0:0:0:40:hihat02.wav
256,192,147162,1,0,0:0:0:70:snare.wav
182,192,147162,1,0,0:0:0:30:hihat.wav
36,192,147162,1,2,0:0:0:0:
329,192,147339,1,0,0:0:0:40:hihat02.wav
36,192,147515,1,0,0:0:0:70:bassdrum.wav
475,192,147515,1,0,0:0:0:30:hihat.wav
329,192,147691,1,0,0:0:0:40:hihat02.wav
256,192,147868,1,2,0:0:0:0:
36,192,147868,1,0,0:0:0:70:snare.wav
182,192,147868,1,0,0:0:0:30:hihat.wav
475,192,148044,1,0,0:0:0:40:hihat02.wav
109,192,148221,1,0,0:0:0:70:snare.wav
402,192,148309,1,0,0:0:0:70:snare.wav
182,192,148397,1,0,0:0:0:70:snare.wav
329,192,148485,1,0,0:0:0:70:snare.wav
256,192,148574,1,0,0:0:0:70:snare.wav
329,192,148750,1,0,0:0:0:70:bassdrum.wav
475,192,148750,1,0,0:0:0:70:cymbol.wav
36,192,148750,1,0,0:0:0:70:cymbol.wav
182,192,148750,1,0,0:0:0:70:bassdrum.wav
402,192,149103,1,0,0:0:0:70:bassdrum.wav
36,192,149279,1,0,0:0:0:70:snare.wav
475,192,149279,1,0,0:0:0:70:snare.wav
182,192,149279,1,0,0:0:0:70:hihat01.wav
402,192,149544,1,0,0:0:0:70:snare.wav
329,192,149632,1,0,0:0:0:70:bassdrum.wav
36,192,149632,1,0,0:0:0:70:hihat01.wav
256,192,149809,1,0,0:0:0:70:bassdrum.wav
36,192,149985,1,0,0:0:0:70:snare.wav
329,192,149985,1,0,0:0:0:70:snare.wav
182,192,149985,1,0,0:0:0:70:hihat01.wav
475,192,150250,1,0,0:0:0:70:snare.wav
36,192,150338,1,0,0:0:0:70:hihat01.wav
402,192,150338,1,0,0:0:0:70:bassdrum.wav
256,192,150514,1,0,0:0:0:70:bassdrum.wav
475,192,150691,1,0,0:0:0:70:snare.wav
182,192,150691,1,0,0:0:0:70:snare.wav
36,192,150691,1,0,0:0:0:70:hihat01.wav
402,192,151044,1,0,0:0:0:70:bassdrum.wav
36,192,151044,1,0,0:0:0:70:hihat01.wav
256,192,151220,1,0,0:0:0:70:bassdrum.wav
182,192,151396,1,0,0:0:0:70:snare.wav
329,192,151396,1,0,0:0:0:70:snare.wav
36,192,151396,1,0,0:0:0:70:hihat01.wav
475,192,151573,1,0,0:0:0:70:snare.wav
329,192,151661,1,0,0:0:0:70:snare.wav
109,192,151749,1,0,0:0:0:70:bassdrum.wav
182,192,151749,1,0,0:0:0:70:bassdrum.wav
109,192,151926,1,0,0:0:0:70:bassdrum.wav
182,192,151926,1,0,0:0:0:70:bassdrum.wav
256,192,152102,1,0,0:0:0:70:bassdrum.wav
475,192,152102,1,0,0:0:0:70:snare.wav
329,192,152102,1,0,0:0:0:70:cymbol.wav
182,192,152455,1,0,0:0:0:70:bassdrum.wav
109,192,152455,1,0,0:0:0:70:bassdrum.wav
109,192,152632,1,0,0:0:0:70:bassdrum.wav
182,192,152632,1,0,0:0:0:70:bassdrum.wav
329,192,152808,1,0,0:0:0:70:cymbol.wav
256,192,152808,1,0,0:0:0:70:bassdrum.wav
475,192,152808,1,0,0:0:0:70:snare.wav
109,192,153161,1,0,0:0:0:70:bassdrum.wav
182,192,153161,1,0,0:0:0:70:bassdrum.wav
182,192,153337,1,0,0:0:0:70:bassdrum.wav
109,192,153337,1,0,0:0:0:70:bassdrum.wav
475,192,153514,1,0,0:0:0:70:snare.wav
256,192,153514,1,0,0:0:0:70:bassdrum.wav
329,192,153514,1,0,0:0:0:70:cymbol.wav
402,192,153867,1,0,0:0:0:70:tom01.wav
36,192,153867,1,0,0:0:0:70:snare.wav
256,192,153867,1,0,0:0:0:70:snare.wav
109,192,154043,1,0,0:0:0:70:bassdrum.wav
329,192,154043,1,0,0:0:0:40:tom01.wav
402,192,154219,1,0,0:0:0:40:tom01.wav
182,192,154219,1,0,0:0:0:70:bassdrum.wav
329,192,154396,1,0,0:0:0:40:tom02.wav
109,192,154396,1,0,0:0:0:70:bassdrum.wav
475,192,154572,1,0,0:0:0:70:bassdrum.wav
36,192,154572,1,0,0:0:0:70:cymbol.wav
256,192,154572,1,0,0:0:0:70:bassdrum.wav
475,192,155984,1,0,0:0:0:70:snare.wav
329,192,156072,1,0,0:0:0:70:snare.wav
109,192,156160,1,0,0:0:0:70:bassdrum.wav
475,192,156337,1,0,0:0:0:70:snare.wav
329,192,156425,1,0,0:0:0:70:snare.wav
109,192,156513,1,0,0:0:0:70:bassdrum.wav
402,192,156689,1,0,0:0:0:70:snare.wav
182,192,156689,1,0,0:0:0:70:snare.wav
329,192,156866,1,0,0:0:0:50:tom01.wav
36,192,156866,1,0,0:0:0:70:bassdrum.wav
475,192,157042,1,0,0:0:0:50:tom02.wav
109,192,157042,1,0,0:0:0:70:bassdrum.wav
329,192,157219,1,0,0:0:0:70:bassdrum.wav
256,192,157219,1,0,0:0:0:70:cymbol.wav
36,192,157219,1,0,0:0:0:70:cymbol.wav
109,192,157748,1,0,0:0:0:70:bassdrum.wav
402,192,157748,1,0,0:0:0:70:bassdrum.wav
402,192,158101,1,0,0:0:0:70:bassdrum.wav
109,192,158101,1,0,0:0:0:70:bassdrum.wav
109,192,158454,1,0,0:0:0:70:bassdrum.wav
402,192,158454,1,0,0:0:0:70:bassdrum.wav
109,192,158807,1,0,0:0:0:70:bassdrum.wav
402,192,158807,1,0,0:0:0:70:bassdrum.wav
402,192,159159,1,0,0:0:0:70:bassdrum.wav
109,192,159159,1,0,0:0:0:70:bassdrum.wav
402,192,159512,1,0,0:0:0:70:bassdrum.wav
109,192,159512,1,0,0:0:0:70:bassdrum.wav
109,192,159865,1,0,0:0:0:70:bassdrum.wav
402,192,159865,1,0,0:0:0:70:bassdrum.wav
36,192,160218,1,0,0:0:0:70:bassdrum.wav
475,192,160218,1,0,0:0:0:70:bassdrum.wav
36,192,160571,1,0,0:0:0:70:bassdrum.wav
475,192,160571,1,0,0:0:0:70:bassdrum.wav
36,192,160924,1,0,0:0:0:70:bassdrum.wav
475,192,160924,1,0,0:0:0:70:bassdrum.wav
475,192,161277,1,0,0:0:0:70:bassdrum.wav
36,192,161277,1,0,0:0:0:70:bassdrum.wav
475,192,161629,1,0,0:0:0:70:bassdrum.wav
36,192,161629,1,0,0:0:0:70:bassdrum.wav
36,192,161982,1,0,0:0:0:70:bassdrum.wav
475,192,161982,1,0,0:0:0:70:bassdrum.wav
36,192,162335,1,0,0:0:0:70:bassdrum.wav
475,192,162335,1,0,0:0:0:70:bassdrum.wav
182,192,162512,1,0,0:0:0:70:snare.wav
329,192,162512,1,0,0:0:0:70:snare.wav
182,192,162688,1,0,0:0:0:70:snare.wav
329,192,162688,1,0,0:0:0:70:snare.wav
36,192,162864,1,0,0:0:0:70:cymbol.wav
475,192,162864,1,0,0:0:0:70:cymbol.wav
256,192,162864,1,0,0:0:0:70:bassdrum.wav
256,192,163217,1,0,0:0:0:70:bassdrum.wav
256,192,163394,1,0,0:0:0:70:bassdrum.wav
36,192,163394,1,0,0:0:0:70:hihat01.wav
329,192,163747,1,0,0:0:0:70:snare.wav
182,192,163747,1,0,0:0:0:70:hihat01.wav
475,192,164099,1,0,0:0:0:70:hihat01.wav
256,192,164276,1,0,0:0:0:70:bassdrum.wav
36,192,164452,1,0,0:0:0:70:hihat01.wav
256,192,164629,1,0,0:0:0:70:bassdrum.wav
256,192,164805,1,0,0:0:0:70:bassdrum.wav
475,192,164805,1,0,0:0:0:70:hihat01.wav
36,192,165158,1,0,0:0:0:70:snare.wav
329,192,165158,1,0,0:0:0:70:hihat01.wav
182,192,165511,1,0,0:0:0:70:hihat01.wav
256,192,165687,1,0,0:0:0:70:bassdrum.wav
475,192,165687,1,0,0:0:0:70:cymbol.wav
36,192,165687,1,0,0:0:0:70:cymbol.wav
256,192,166040,1,0,0:0:0:70:bassdrum.wav
475,192,166217,1,0,0:0:0:70:hihat01.wav
256,192,166217,1,0,0:0:0:70:bassdrum.wav
182,192,166569,1,0,0:0:0:70:snare.wav
329,192,166569,1,0,0:0:0:70:hihat01.wav
36,192,166922,1,0,0:0:0:70:hihat01.wav
256,192,167099,1,0,0:0:0:70:bassdrum.wav
475,192,167275,1,0,0:0:0:70:hihat01.wav
256,192,167452,1,0,0:0:0:70:bassdrum.wav
256,192,167628,1,0,0:0:0:70:bassdrum.wav
36,192,167628,1,0,0:0:0:70:hihat01.wav
402,192,167981,1,0,0:0:0:70:snare.wav
109,192,167981,1,0,0:0:0:50:tom01.wav
402,192,168157,1,0,0:0:0:70:snare.wav
109,192,168157,1,0,0:0:0:50:tom01.wav
402,192,168334,1,0,0:0:0:70:snare.wav
109,192,168334,1,0,0:0:0:50:tom01.wav
36,192,168510,1,0,0:0:0:70:cymbol.wav
256,192,168510,1,0,0:0:0:70:bassdrum.wav
475,192,168510,1,0,0:0:0:70:cymbol.wav
