osu file format v12

[General]
AudioFilename: saisai.mp3
AudioLeadIn: 1000
PreviewTime: 76604
Countdown: 0
SampleSet: Soft
StackLeniency: 0.7
Mode: 0
LetterboxInBreaks: 0
WidescreenStoryboard: 0

[Editor]
DistanceSpacing: 0.8
BeatDivisor: 4
GridSize: 4

[Metadata]
Title:LOVE no Shirushi
TitleUnicode:LOVEのしるし
Artist:Silent Siren
ArtistUnicode:Silent Siren
Creator:alacat
Version:Normal
Source:
Tags:yoshida sumire umemura hinako yamauchi aina kurosaka yukako loveshiru iyasine
BeatmapID:313673
BeatmapSetID:122444

[Difficulty]
HPDrainRate:4
CircleSize:3
OverallDifficulty:4
ApproachRate:5
SliderMultiplier:1.2
SliderTickRate:1

[Events]
//Background and Video events
0,0,"bg.jpg",0,0
//Break Periods
//Storyboard Layer 0 (Background)
//Storyboard Layer 1 (Fail)
//Storyboard Layer 2 (Pass)
//Storyboard Layer 3 (Foreground)
//Storyboard Sound Samples
//Background Colour Transformations
3,100,0,0,0

[TimingPoints]
1222,394.736842105263,4,2,2,40,1,0
7537,-100,4,2,1,60,0,0
13853,-100,4,2,1,70,0,1
13952,-100,4,2,1,70,0,0
17406,-100,4,2,4,70,0,0
17504,-100,4,2,1,70,0,0
23721,-100,4,2,4,70,0,0
23820,-100,4,2,1,70,0,0
26485,-100,4,2,2,50,0,0
36748,-100,4,2,1,50,0,0
39116,-100,4,2,1,60,0,0
43656,-100,4,2,3,60,0,0
45432,-100,4,2,1,60,0,0
52537,-100,4,2,1,50,0,0
62800,-100,4,2,1,40,0,0
63590,-100,4,2,1,50,0,0
64379,-100,4,2,1,60,0,0
65169,-100,4,2,1,50,0,0
73853,-100,4,2,2,50,0,0
75432,-100,4,2,1,40,0,0
75827,-100,4,2,1,50,0,0
76221,-100,4,2,1,60,0,0
76616,-100,4,2,1,50,0,0
77011,-100,4,2,1,70,0,1
88853,-100,4,2,1,50,0,0
89643,-100,4,2,1,70,0,1
100300,-100,4,2,1,50,0,1
100695,-100,4,2,1,70,0,1
101090,-100,4,2,1,50,0,1
101485,-100,4,2,1,60,0,1
102274,-100,4,2,1,60,0,0
105432,-100,4,2,1,70,0,1
105531,-100,4,2,1,60,0,0

[Colours]
Combo1 : 255,128,128
Combo2 : 128,255,255
Combo3 : 255,255,149
Combo4 : 53,255,154
Combo5 : 255,172,132

[HitObjects]
32,316,1222,2,0,B|52:272|52:272|12:200|60:148,1,180,2|2,0:0|0:0,0:0:0:0:
140,96,2208,1,2,0:0:0:0:
180,236,2800,6,0,B|164:276|164:276|200:344|284:320,1,180,2|2,0:0|0:0,0:0:0:0:
356,260,3787,1,2,0:0:0:0:
468,168,4379,6,0,B|484:128|484:128|448:60|364:84,1,180,2|2,0:0|0:0,0:0:0:0:
280,116,5366,1,2,0:0:0:0:
152,48,5958,6,0,B|71:24|35:92|35:92|51:132,1,180,2|2,0:0|0:0,0:0:0:0:
84,224,6945,2,0,L|68:288,2,60,2|0|2,0:0|0:0|0:0,0:0:0:0:
124,196,7537,6,0,P|184:176|240:180,1,120,2|2,0:0|0:0,0:0:0:0:
300,256,8327,1,2,0:0:0:0:
392,228,8721,1,2,0:0:0:0:
476,272,9116,2,0,P|488:208|464:160,2,120,2|2|2,0:0|0:0|0:0,0:0:0:0:
396,324,10300,1,2,0:0:0:0:
304,292,10695,6,0,P|240:288|192:312,1,120,2|2,0:0|0:0,0:0:0:0:
100,340,11485,2,0,P|72:252|116:180,1,180,2|4,0:0|0:0,0:0:0:0:
172,104,12471,6,0,P|145:90|115:87,2,60,0|0|0,1:0|1:0|1:0,0:0:0:0:
204,140,13064,2,0,P|260:160|320:152,1,120,4|0,3:0|3:0,0:0:0:0:
400,100,13853,5,6,0:0:0:0:
492,128,14248,1,8,0:0:0:0:
492,128,14445,2,0,P|524:220|492:296,1,180,2|8,0:0|0:0,0:0:0:0:
404,328,15432,2,0,P|340:320|300:280,1,120,0|8,0:0|0:0,0:0:0:0:
284,236,16024,2,0,B|304:148|304:148|312:100|276:68,1,180,2|8,0:0|0:0,0:0:0:0:
208,136,17011,6,0,P|112:148|60:92,2,180,2|2|8,0:0|0:0|0:0,0:0:0:0:
256,52,18590,1,0,0:0:0:0:
344,92,18985,2,0,L|402:73,1,60,8|0,0:0|0:0,0:0:0:0:
483,121,19577,2,0,L|469:180,1,60,0|8,0:0|0:0,0:0:0:0:
444,276,20169,6,0,P|380:268|328:288,1,120,6|8,0:0|0:0,0:0:0:0:
288,312,20761,2,0,P|200:336|120:304,1,180,2|8,0:0|0:0,0:0:0:0:
96,212,21748,1,2,0:0:0:0:
184,168,22143,2,0,L|244:176,2,60,8|0|2,0:0|0:0|0:0,0:0:0:0:
104,112,22932,1,8,0:0:0:0:
16,152,23327,6,0,P|-8:240|44:308,2,180,2|2|8,0:0|0:0|0:0,0:0:0:0:
104,112,24906,1,2,0:0:0:0:
164,36,25300,1,8,0:0:0:0:
204,124,25695,1,2,0:0:0:0:
148,200,26090,2,0,L|140:264,2,60,8|0|4,0:0|1:0|0:0,0:0:0:0:
260,44,27274,6,0,P|356:48|400:112,1,180,0|2,0:0|0:0,0:0:0:0:
184,304,29050,2,0,L|124:308,2,60,2|0|2,0:0|0:0|0:0,0:0:0:0:
224,280,29643,6,0,B|284:288|324:340|324:340|380:308|440:316,1,240,2|0,0:0|0:0,0:0:0:0:
480,288,30629,2,0,P|504:232|504:172,2,120,0|2|2,0:0|0:0|0:0,0:0:0:0:
340,160,32208,2,0,L|352:224,2,60,2|0|2,0:0|0:0|0:0,0:0:0:0:
304,128,32800,5,2,0:0:0:0:
188,280,33590,2,0,P|96:288|48:220,1,180,0|2,0:0|0:0,0:0:0:0:
56,128,34577,2,0,L|76:72,1,60,0|2,0:0|0:0,0:0:0:0:
220,72,35366,2,0,L|280:64,2,60,2|0|2,0:0|0:0|0:0,0:0:0:0:
200,116,35958,5,2,0:0:0:0:
168,304,36748,1,2,0:0:0:0:
4,216,37537,2,0,L|20:156,1,60,2|0,0:0|1:0,0:0:0:0:
44,116,37932,2,0,L|32:52,2,60,2|0|0,0:0|1:0|1:0,0:0:0:0:
132,156,38721,1,0,0:0:0:0:
224,128,39116,6,0,P|244:184|236:244,1,120,4|8,0:0|0:0,0:0:0:0:
204,276,39708,1,2,0:0:0:0:
264,352,40103,2,0,L|328:364,1,60,2|8,0:0|0:0,0:0:0:0:
408,324,40695,2,0,P|432:268|420:208,1,120,2|8,0:0|0:0,0:0:0:0:
388,180,41287,2,0,P|304:212|216:200,1,180,2|8,0:0|0:0,0:0:0:0:
140,140,42274,6,0,P|152:76|140:24,2,120,2|8|2,0:0|0:0|0:0,0:0:0:0:
64,200,43458,1,8,0:0:0:0:
144,256,43853,6,0,L|208:256,2,60,2|0|8,0:0|0:0|0:0,0:0:0:0:
64,308,44643,2,0,L|0:308,2,60,2|0|8,0:0|0:0|0:0,0:0:0:0:
148,356,45432,6,0,L|272:356,1,120,4|8,0:0|0:0,0:0:0:0:
328,280,46221,1,2,0:0:0:0:
420,312,46616,1,8,0:0:0:0:
468,228,47011,2,0,L|496:112,1,120,2|8,0:0|0:0,0:0:0:0:
508,64,47603,2,0,P|424:24|344:48,1,180,2|8,0:0|0:0,0:0:0:0:
276,112,48590,5,2,0:0:0:0:
184,84,48985,1,8,0:0:0:0:
124,160,49379,1,2,0:0:0:0:
156,252,49774,1,8,0:0:0:0:
256,192,50169,12,4,51748,0:0:0:0:
408,260,52537,6,0,P|358:335|270:349,2,180,0|2|0,1:0|0:0|0:0,0:0:0:0:
496,224,54116,1,0,1:0:0:0:
424,160,54511,1,0,0:0:0:0:
336,196,54906,6,0,P|276:208|220:188,1,120,4|2,0:0|0:0,0:0:0:0:
160,116,55695,2,0,L|176:52,1,60,0|2,1:0|0:0,0:0:0:0:
80,68,56287,2,0,L|48:184,1,120,2|2,0:0|0:0,0:0:0:0:
24,276,57077,2,0,P|112:312|188:284,1,180,2|0,0:0|1:0,0:0:0:0:
252,216,58064,5,4,0:0:0:0:
208,132,58458,1,0,0:0:0:0:
268,56,58853,2,0,P|364:48|436:92,1,180,0|2,1:0|0:0,0:0:0:0:
460,180,59840,2,0,L|432:300,1,120,2|2,0:0|0:0,0:0:0:0:
336,296,60629,2,0,L|344:356,2,60,2|0|2,0:0|1:0|0:0,0:0:0:0:
300,264,61221,5,4,0:0:0:0:
216,308,61616,2,0,P|156:320|104:296,1,120,2|0,0:0|1:0,0:0:0:0:
52,216,62406,2,0,P|28:236|12:264,1,60,0|2,0:0|0:0,0:0:0:0:
256,192,62800,12,6,64379,0:0:0:0:
232,88,65169,6,0,P|216:156|224:208,1,120,0|0,1:0|0:0,0:0:0:0:
292,272,65958,2,0,L|472:248,2,180,0|2|0,0:0|0:0|0:0,0:0:0:0:
220,336,67537,5,4,0:0:0:0:
132,300,67932,2,0,P|112:240|128:184,1,120,2|0,0:0|1:0,0:0:0:0:
204,132,68721,2,0,L|324:144,1,120,0|0,0:0|0:0,0:0:0:0:
364,168,69314,2,0,P|388:108|376:56,1,120,2|2,0:0|0:0,0:0:0:0:
284,20,70103,2,0,L|224:28,1,60,2|0,0:0|1:0,0:0:0:0:
148,84,70695,5,4,0:0:0:0:
56,56,71090,1,0,0:0:0:0:
8,140,71485,2,0,B|24:248|24:248|32:288|72:296,1,180,0|4,1:0|0:0,0:0:0:0:
164,320,72471,1,2,0:0:0:0:
256,344,72866,1,2,0:0:0:0:
256,344,73064,2,0,L|376:328,1,120,0|2,1:0|0:0,0:0:0:0:
472,316,73853,5,4,0:0:0:0:
492,224,74248,1,0,0:0:0:0:
452,136,74643,1,2,0:0:0:0:
368,88,75037,2,0,P|336:88|308:100,1,60
268,120,75432,6,0,B|212:152|152:132|152:132|112:184|136:248,1,240
120,340,76616,1,0,0:0:0:0:
208,300,77011,6,0,P|268:292|324:312,1,120,6|8,0:0|0:0,0:0:0:0:
404,364,77800,1,2,0:0:0:0:
484,312,78195,1,8,0:0:0:0:
484,312,78393,2,0,P|492:220|444:152,1,180,2|8,0:0|0:0,0:0:0:0:
392,68,79379,2,0,P|332:60|276:80,1,120,2|8,0:0|0:0,0:0:0:0:
212,152,80169,5,6,0:0:0:0:
120,124,80564,1,8,0:0:0:0:
40,176,80958,2,0,L|64:296,1,120,2|8,0:0|0:0,0:0:0:0:
84,336,81550,2,0,P|172:348|240:292,1,180,2|8,0:0|0:0,0:0:0:0:
248,248,82340,1,2,0:0:0:0:
324,192,82735,2,0,L|388:200,2,60,2|0|2,0:0|1:0|0:0,0:0:0:0:
300,152,83327,5,6,0:0:0:0:
220,96,83721,1,8,0:0:0:0:
308,56,84116,1,2,0:0:0:0:
388,108,84511,6,0,L|420:224,1,120,4|8,0:0|0:0,0:0:0:0:
432,272,85103,2,0,P|376:300|316:296,1,120,4|8,0:0|0:0,0:0:0:0:
276,272,85695,2,0,L|156:296,1,120,4|8,0:0|0:0,0:0:0:0:
72,340,86485,5,6,0:0:0:0:
32,252,86879,1,8,0:0:0:0:
116,208,87274,1,2,0:0:0:0:
76,120,87669,1,8,0:0:0:0:
256,192,88064,12,6,89643,0:0:0:0:
256,284,90037,5,8,0:0:0:0:
168,244,90432,2,0,P|108:244|48:272,1,120,2|8,0:0|0:0,0:0:0:0:
24,304,91024,2,0,L|48:124,1,180,2|8,0:0|0:0,0:0:0:0:
80,88,91814,1,2,0:0:0:0:
176,100,92208,2,0,P|176:68|168:40,2,60,2|8|2,0:0|0:0|0:0,0:0:0:0:
192,144,92800,6,0,P|216:200|268:224,1,120,6|8,0:0|0:0,0:0:0:0:
360,208,93590,1,2,0:0:0:0:
440,264,93985,1,8,0:0:0:0:
440,264,94182,2,0,B|404:304|404:304|340:296|280:328,1,180,2|8,0:0|0:0,0:0:0:0:
252,364,94971,1,2,0:0:0:0:
172,308,95366,1,0,0:0:0:0:
172,308,95564,2,0,P|140:308|112:312,1,60,2|0,0:0|1:0,0:0:0:0:
72,288,95958,6,0,P|60:224|76:172,1,120,6|8,0:0|0:0,0:0:0:0:
148,108,96748,1,2,0:0:0:0:
232,156,97143,6,0,P|292:160|348:140,1,120,4|8,0:0|0:0,0:0:0:0:
380,104,97735,2,0,L|412:220,1,120,4|8,0:0|0:0,0:0:0:0:
424,268,98327,2,0,P|380:316|328:332,1,120,4|8,0:0|0:0,0:0:0:0:
240,296,99116,5,6,0:0:0:0:
148,328,99511,1,8,0:0:0:0:
76,264,99906,1,2,0:0:0:0:
108,172,100300,1,12,0:0:0:0:
48,96,100695,2,0,P|76:44|136:32,1,120,6|12,0:0|0:0,0:0:0:0:
212,88,101485,2,0,L|332:88,1,120,2|2,0:0|0:0,0:0:0:0:
416,44,102274,5,6,0:0:0:0:
456,132,102669,1,2,0:0:0:0:
372,176,103064,1,2,0:0:0:0:
412,264,103458,1,2,0:0:0:0:
356,340,103853,2,0,P|296:348|248:312,1,120,2|0,0:0|1:0,0:0:0:0:
228,220,104643,2,0,L|236:160,2,60,2|0|0,0:0|0:0|3:0,0:0:0:0:
156,284,105432,5,4,0:0:0:0:
