osu file format v12

[General]
AudioFilename: saisai.mp3
AudioLeadIn: 1000
PreviewTime: 76604
Countdown: 0
SampleSet: Soft
StackLeniency: 0.7
Mode: 0
LetterboxInBreaks: 0
WidescreenStoryboard: 0

[Editor]
DistanceSpacing: 1
BeatDivisor: 4
GridSize: 4

[Metadata]
Title:LOVE no Shirushi
TitleUnicode:LOVEのしるし
Artist:Silent Siren
ArtistUnicode:Silent Siren
Creator:alacat
Version:Easy
Source:
Tags:yoshida sumire umemura hinako yamauchi aina kurosaka yukako loveshiru iyasine
BeatmapID:314265
BeatmapSetID:122444

[Difficulty]
HPDrainRate:2
CircleSize:3
OverallDifficulty:2
ApproachRate:3
SliderMultiplier:0.9
SliderTickRate:1

[Events]
//Background and Video events
0,0,"bg.jpg",0,0
//Break Periods
//Storyboard Layer 0 (Background)
//Storyboard Layer 1 (Fail)
//Storyboard Layer 2 (Pass)
//Storyboard Layer 3 (Foreground)
//Storyboard Sound Samples
//Background Colour Transformations
3,100,0,0,0

[TimingPoints]
1222,394.736842105263,4,2,2,40,1,0
4379,-100,4,2,2,50,0,0
6748,-100,4,2,2,60,0,0
7537,-100,4,2,1,50,0,0
12077,-100,4,2,1,60,0,0
12274,-100,4,2,2,50,0,0
13853,-100,4,2,1,70,0,1
13952,-100,4,2,1,70,0,0
14248,-100,4,2,4,70,0,0
14346,-100,4,2,1,70,0,0
15827,-100,4,2,4,70,0,0
15925,-100,4,2,1,70,0,0
16616,-100,4,2,4,70,0,0
16715,-100,4,2,1,70,0,0
20564,-100,4,2,4,70,0,0
20662,-100,4,2,1,70,0,0
21353,-100,4,2,4,70,0,0
21452,-100,4,2,1,70,0,0
23721,-100,4,2,4,70,0,0
23820,-100,4,2,1,70,0,0
24906,-100,4,2,2,50,0,0
37537,-100,4,2,1,50,0,0
39116,-100,4,2,1,60,0,0
43656,-100,4,2,3,60,0,0
45432,-100,4,2,1,60,0,0
50169,-100,4,2,1,50,0,0
51748,-100,4,2,1,60,0,0
52537,-100,4,2,1,50,0,0
64379,-100,4,2,1,60,0,0
65169,-100,4,2,1,50,0,0
73853,-100,4,2,2,50,0,0
75432,-100,4,2,1,40,0,0
75827,-100,4,2,1,50,0,0
76221,-100,4,2,1,60,0,0
76616,-100,4,2,1,50,0,0
77011,-100,4,2,1,70,0,1
80564,-100,4,2,4,70,0,1
80662,-100,4,2,1,70,0,1
88853,-100,4,2,1,50,0,0
89643,-100,4,2,1,70,0,1
93195,-100,4,2,4,70,0,1
93294,-100,4,2,1,70,0,1
101090,-100,4,2,1,50,0,1
101485,-100,4,2,1,60,0,1
101879,-100,4,2,1,50,0,1
102274,-100,4,2,1,60,0,0
105432,-100,4,2,1,70,0,1
105531,-100,4,2,1,60,0,0

[Colours]
Combo1 : 255,128,128
Combo2 : 128,255,255
Combo3 : 255,255,149
Combo4 : 53,255,154
Combo5 : 255,172,132

[HitObjects]
280,68,1222,2,0,B|323:38|375:58|375:58|391:130|459:138,1,225,2|2,0:0|0:0,0:0:0:0:
500,268,2800,2,0,P|404:319|302:279,1,225,2|2,0:0|0:0,0:0:0:0:
232,164,4379,6,0,P|128:124|32:180,1,225,2|2,0:0|0:0,0:0:0:0:
32,312,5958,2,0,P|60:348|100:364,1,90,2|0,0:0|0:0,0:0:0:0:
180,324,6748,2,0,P|224:316|272:320,1,90,2|0,0:0|0:0,0:0:0:0:
356,348,7537,6,0,P|412:276|384:200,1,180,2|2,0:0|0:0,0:0:0:0:
296,212,8721,1,2,0:0:0:0:
208,232,9116,2,0,P|148:164|172:84,1,180,2|2,0:0|0:0,0:0:0:0:
256,56,10300,1,2,0:0:0:0:
336,96,10695,6,0,B|392:112|436:88|436:88|460:120|456:164,1,180,2|2,0:0|0:0,0:0:0:0:
484,248,11879,2,0,L|500:296,2,45,2|4|2,0:0|0:0|0:0,0:0:0:0:
396,232,12669,1,2,0:0:0:0:
328,292,13064,2,0,L|280:300,2,45,0|0|0,1:0|0:0|3:0,0:0:0:0:
396,232,13853,6,0,B|424:144|424:144|436:100|412:60,1,180,6|2,0:0|0:0,0:0:0:0:
324,40,15037,1,8,0:0:0:0:
244,84,15432,2,0,P|156:76|92:136,2,180,2|2|2,0:0|0:0|0:0,0:0:0:0:
268,172,17406,5,8,0:0:0:0:
240,256,17800,2,0,B|220:304|188:328,1,90,2|8,0:0|0:0,0:0:0:0:
96,336,18590,1,2,0:0:0:0:
36,268,18985,1,8,0:0:0:0:
92,200,19379,2,0,L|104:108,1,90,2|8,0:0|0:0,0:0:0:0:
164,44,20169,6,0,B|216:12|292:76|340:52,2,180,6|2|2,0:0|0:0|0:0,0:0:0:0:
72,36,22143,1,8,0:0:0:0:
24,112,22537,2,0,L|36:204,1,90,2|8,0:0|0:0,0:0:0:0:
84,276,23327,6,0,B|156:284|156:284|188:272|188:272|260:280,1,180,2|2,0:0|0:0,0:0:0:0:
320,348,24511,1,8,0:0:0:0:
256,192,24906,12,4,26485,0:0:0:0:
308,340,27274,6,0,P|376:328|424:280,1,135,0|2,0:0|0:0,0:0:0:0:
232,88,29050,6,0,L|216:224,1,135,0|2,0:0|0:0,0:0:0:0:
52,296,30432,2,0,L|32:160,1,135,0|2,0:0|0:0,0:0:0:0:
16,76,31419,1,2,0:0:0:0:
180,148,32208,6,0,P|252:160|312:148,1,135,0|2,0:0|0:0,0:0:0:0:
468,60,33590,2,0,P|496:136|492:192,1,135,0|2,0:0|0:0,0:0:0:0:
456,272,34577,2,0,L|408:288,1,45,0|2,0:0|0:0,0:0:0:0:
296,352,35366,6,0,L|280:216,1,135
196,60,36748,1,2,0:0:0:0:
84,204,37537,6,0,P|44:224|20:264,2,90,4|0|0,0:0|1:0|1:0,0:0:0:0:
172,216,38721,1,0,0:0:0:0:
260,240,39116,6,0,L|352:228,1,90,4|8,0:0|0:0,0:0:0:0:
432,188,39906,2,0,P|440:140|436:100,1,90,2|8,0:0|0:0,0:0:0:0:
364,48,40695,1,2,0:0:0:0:
292,100,41090,1,8,0:0:0:0:
204,76,41485,2,0,L|112:92,1,90,2|8,0:0|0:0,0:0:0:0:
48,152,42274,6,0,P|36:200|48:240,1,90,2|8,0:0|0:0,0:0:0:0:
124,284,43064,2,0,P|171:270|200:240,1,90,2|8,0:0|0:0,0:0:0:0:
256,172,43853,5,2,0:0:0:0:
344,152,44248,1,8,0:0:0:0:
412,212,44643,1,2,0:0:0:0:
500,192,45037,1,8,0:0:0:0:
480,280,45432,6,0,B|464:324|464:324|424:344,1,90,6|8,0:0|0:0,0:0:0:0:
340,320,46221,1,2,0:0:0:0:
260,364,46616,1,8,0:0:0:0:
188,312,47011,2,0,L|100:328,1,90,2|8,0:0|0:0,0:0:0:0:
16,300,47800,2,0,P|4:256|12:212,1,90,2|8,0:0|0:0,0:0:0:0:
72,144,48590,6,0,L|164:152,2,90,2|8|2,0:0|0:0|0:0,0:0:0:0:
44,60,49774,1,8,0:0:0:0:
256,192,50169,12,4,51748,0:0:0:0:
232,160,52537,6,0,L|96:136,2,135,0|2|0,1:0|0:0|1:0,0:0:0:0:
320,140,54116,1,0,1:0:0:0:
360,220,54511,1,2,0:0:0:0:
288,280,54906,6,0,P|200:292|148:224,1,180,4|0,0:0|1:0,0:0:0:0:
172,92,56287,2,0,L|264:84,2,90,2|2|2,0:0|0:0|0:0,0:0:0:0:
88,56,57471,2,0,P|20:72|8:132,1,135,2|4,0:0|0:0,0:0:0:0:
64,196,58458,6,0,L|52:288,1,90,2|0,0:0|1:0,0:0:0:0:
160,364,59445,2,0,P|208:368|248:356,1,90,2|2,0:0|0:0,0:0:0:0:
304,288,60235,2,0,P|372:280|432:308,1,135,2|0,0:0|1:0,0:0:0:0:
500,252,61221,5,4,0:0:0:0:
436,188,61616,2,0,P|424:144|428:100,2,90,2|0|2,0:0|1:0|0:0,0:0:0:0:
256,192,62800,12,4,64379,0:0:0:0:
228,52,65169,6,0,P|140:40|88:108,1,180,0|2,1:0|0:0,0:0:0:0:
136,180,66353,2,0,P|140:224|132:268,1,90,2|0,0:0|1:0,0:0:0:0:
56,316,67143,1,2,0:0:0:0:
136,360,67537,6,0,P|228:368|308:336,1,180,4|0,0:0|1:0,0:0:0:0:
344,256,68721,2,0,L|356:120,1,135,0|2,0:0|0:0,0:0:0:0:
280,72,69708,2,0,P|228:116|164:128,1,135,2|0,0:0|1:0,0:0:0:0:
76,108,70695,5,4,0:0:0:0:
32,188,71090,1,2,0:0:0:0:
88,260,71485,2,0,P|160:244|220:256,1,135,0|4,1:0|0:0,0:0:0:0:
288,316,72471,1,2,0:0:0:0:
372,352,72866,2,0,P|444:360|500:332,1,135,2|0,0:0|0:0,0:0:0:0:
472,248,73853,5,4,0:0:0:0:
400,192,74248,2,0,L|376:104,1,90,0|2,0:0|0:0,0:0:0:0:
296,64,75037,2,0,L|308:16,2,45,0|0|2,0:0|0:0|0:0,0:0:0:0:
220,116,75827,5,0,1:0:0:0:
244,200,76221,1,0,1:0:0:0:
268,284,76616,1,0,0:0:0:0:
216,356,77011,6,0,P|171:355|128:340,1,90,6|8,0:0|0:0,0:0:0:0:
68,276,77800,2,0,P|52:232|52:188,2,90,2|8|2,0:0|0:0|0:0,0:0:0:0:
156,256,78985,1,8,0:0:0:0:
228,204,79379,2,0,P|272:196|320:204,1,90,2|8,0:0|0:0,0:0:0:0:
388,256,80169,6,0,P|476:240|492:160,1,180,6|2,0:0|0:0,0:0:0:0:
448,84,81353,1,8,0:0:0:0:
364,56,81748,2,0,L|276:72,1,90,2|8,0:0|0:0,0:0:0:0:
200,120,82537,2,0,L|148:116,2,45,0|4|0,0:0|3:0|1:0,0:0:0:0:
280,160,83327,5,4,0:0:0:0:
312,244,83721,1,8,0:0:0:0:
240,300,84116,1,2,0:0:0:0:
160,256,84511,2,8,P|112:272|68:268,2,90,4|0|8,0:0|0:0|0:0,0:0:0:0:
192,172,85695,2,0,P|196:116|188:80,1,90,4|8,0:0|0:0,0:0:0:0:
108,44,86485,5,4,0:0:0:0:
40,100,86879,1,8,0:0:0:0:
68,184,87274,2,0,L|56:276,1,90,2|8,0:0|0:0,0:0:0:0:
256,192,88064,12,4,89643,0:0:0:0:
256,328,90432,6,0,P|304:336|348:328,2,90,2|8|2,0:0|0:0|0:0,0:0:0:0:
204,252,91616,1,8,0:0:0:0:
256,176,92011,2,0,P|252:128|228:96,1,90,2|8,0:0|0:0,0:0:0:0:
148,52,92800,6,0,P|56:60|8:128,1,180,6|2,0:0|0:0,0:0:0:0:
28,216,93985,1,8,0:0:0:0:
64,300,94379,2,0,P|112:308|156:304,1,90,2|8,0:0|0:0,0:0:0:0:
224,248,95169,2,0,L|216:200,2,45,2|4|0,0:0|3:0|1:0,0:0:0:0:
296,304,95958,5,4,0:0:0:0:
380,336,96353,1,8,0:0:0:0:
432,264,96748,1,2,0:0:0:0:
380,192,97143,2,0,P|392:148|388:100,2,90,4|0|8,0:0|0:0|0:0,0:0:0:0:
292,212,98327,2,0,L|200:204,1,90,4|8,0:0|0:0,0:0:0:0:
120,244,99116,5,4,0:0:0:0:
44,196,99511,1,8,0:0:0:0:
32,108,99906,2,0,P|52:68|88:40,1,90,2|8,0:0|0:0,0:0:0:0:
176,32,100695,2,0,L|268:40,1,90,6|12,0:0|0:0,0:0:0:0:
344,84,101485,1,2,0:0:0:0:
428,52,101879,1,2,0:0:0:0:
416,140,102274,6,0,L|432:232,1,90,6|2,0:0|0:0,0:0:0:0:
340,216,103064,2,0,L|356:308,1,90,2|2,0:0|0:0,0:0:0:0:
284,360,103853,2,0,P|240:340|196:340,1,90,2|0,0:0|1:0,0:0:0:0:
112,320,104643,2,0,L|68:336,2,45,2|0|0,0:0|0:0|3:0,0:0:0:0:
128,232,105432,5,4,0:0:0:0:
