osu file format v14

[General]
AudioFilename: Love no Shirushi.mp3
AudioLeadIn: 0
PreviewTime: 76600
Countdown: 0
SampleSet: Soft
StackLeniency: 0.7
Mode: 3
LetterboxInBreaks: 0
SpecialStyle: 0
WidescreenStoryboard: 1

[Editor]
Bookmarks: 13852
DistanceSpacing: 0.8
BeatDivisor: 4
GridSize: 4
TimelineZoom: 1

[Metadata]
Title:LOVE no Shirushi
TitleUnicode:LOVE no Shirushi
Artist:Silent Siren
ArtistUnicode:Silent Siren
Creator:Valentrixe
Version:NM
Source:
Tags:Fantastica
BeatmapID:517016
BeatmapSetID:220948

[Difficulty]
HPDrainRate:7
CircleSize:4
OverallDifficulty:8
ApproachRate:5
SliderMultiplier:1.4
SliderTickRate:1

[Events]
//Background and Video events
0,0,"underwater-world-313675.jpg",0,0
//Break Periods
//Storyboard Layer 0 (Background)
//Storyboard Layer 1 (Fail)
//Storyboard Layer 2 (Pass)
//Storyboard Layer 3 (Foreground)
//Storyboard Sound Samples

[TimingPoints]
1221,394.736842105263,4,2,0,20,1,0
77010,-100,4,2,0,20,0,1
105431,-100,4,2,0,20,0,0

[HitObjects]
448,192,1221,5,0,0:0:0:0:
320,192,1418,1,0,0:0:0:0:
192,192,1615,1,0,0:0:0:26:
64,192,1813,1,0,0:0:0:26:
448,192,2207,1,0,0:0:0:26:
64,192,2799,1,0,0:0:0:0:
192,192,2997,1,0,0:0:0:0:
320,192,3194,1,0,0:0:0:26:
448,192,3392,1,0,0:0:0:26:
64,192,3786,1,0,0:0:0:26:
448,192,4378,1,0,0:0:0:0:
320,192,4576,1,0,0:0:0:0:
64,192,4773,1,0,0:0:0:0:
192,192,4970,1,0,0:0:0:0:
448,192,5365,1,0,0:0:0:26:
64,192,5957,128,0,7536:0:0:0:26:
320,192,6352,1,0,0:0:0:26:
192,192,6549,1,0,0:0:0:26:
448,192,6944,1,0,0:0:0:26:
320,192,7142,1,0,0:0:0:26:
192,192,7339,1,0,0:0:0:26:
320,192,7536,1,0,0:0:0:26:
320,192,7931,1,0,0:0:0:26:
320,192,8326,1,0,0:0:0:26:
320,192,8720,1,0,0:0:0:26:
192,192,9115,1,0,0:0:0:26:
192,192,9510,1,0,0:0:0:26:
192,192,9905,1,0,0:0:0:26:
192,192,10299,1,0,0:0:0:26:
448,192,10694,1,0,0:0:0:26:
448,192,11089,1,0,0:0:0:26:
448,192,11484,1,0,0:0:0:26:
448,192,11878,1,0,0:0:0:26:
192,192,12076,1,0,0:0:0:26:
64,192,12076,1,0,0:0:0:0:
320,192,12273,128,0,12668:0:0:0:0:
64,192,12668,128,0,13063:0:0:0:0:
448,192,13063,1,0,0:0:0:0:
320,192,13260,1,0,0:0:0:0:
192,192,13457,128,0,13852:0:0:0:0:
64,192,13852,1,0,0:0:0:13:
448,192,13852,128,0,15036:0:0:0:13:
192,192,14247,1,0,0:0:0:26:
320,192,14642,1,0,0:0:0:26:
64,192,15036,1,0,0:0:0:26:
448,192,15431,1,0,0:0:0:13:
64,192,15431,128,0,16615:0:0:0:13:
320,192,15826,1,0,0:0:0:26:
192,192,16220,1,0,0:0:0:26:
320,192,16615,1,0,0:0:0:26:
448,192,17010,1,0,0:0:0:13:
192,192,17010,128,0,18194:0:0:0:13:
320,192,17405,1,0,0:0:0:26:
448,192,17799,1,0,0:0:0:26:
64,192,18194,1,0,0:0:0:26:
448,192,18589,1,0,0:0:0:13:
192,192,18589,128,0,18984:0:0:0:13:
320,192,18984,1,0,0:0:0:26:
64,192,19378,1,0,0:0:0:13:
320,192,19378,128,0,19773:0:0:0:13:
192,192,19773,1,0,0:0:0:26:
192,192,20168,1,0,0:0:0:13:
448,192,20168,128,0,21352:0:0:0:13:
64,192,20168,1,0,0:0:0:0:
320,192,20563,1,0,0:0:0:26:
192,192,20957,1,0,0:0:0:26:
64,192,21352,1,0,0:0:0:26:
448,192,21747,1,0,0:0:0:13:
192,192,21747,128,0,22931:0:0:0:13:
320,192,22142,1,0,0:0:0:26:
448,192,22536,1,0,0:0:0:26:
320,192,22931,1,0,0:0:0:26:
320,192,23326,1,0,0:0:0:13:
64,192,23326,128,0,24510:0:0:0:13:
192,192,23720,1,0,0:0:0:26:
320,192,24115,1,0,0:0:0:26:
448,192,24510,1,0,0:0:0:26:
64,192,24905,1,0,0:0:0:13:
320,192,24905,128,0,26089:0:0:0:13:
192,192,25299,1,0,0:0:0:26:
64,192,25694,1,0,0:0:0:26:
192,192,26089,1,0,0:0:0:26:
320,192,26484,1,0,0:0:0:13:
448,192,26484,1,0,0:0:0:13:
192,192,27865,1,0,0:0:0:0:
320,192,28063,1,0,0:0:0:0:
448,192,29049,1,0,0:0:0:26:
320,192,29247,1,0,0:0:0:26:
192,192,29444,1,0,0:0:0:26:
64,192,29642,128,0,31220:0:0:0:26:
448,192,29642,1,0,0:0:0:0:
448,192,31023,1,0,0:0:0:0:
448,192,31220,128,0,32010:0:0:0:0:
320,192,32010,1,0,0:0:0:0:
64,192,32207,1,0,0:0:0:26:
192,192,32405,1,0,0:0:0:26:
320,192,32602,1,0,0:0:0:26:
448,192,32799,128,0,34378:0:0:0:26:
64,192,32799,1,0,0:0:0:0:
64,192,34181,1,0,0:0:0:0:
64,192,34378,128,0,35957:0:0:0:0:
192,192,35365,1,0,0:0:0:0:
320,192,35563,1,0,0:0:0:26:
448,192,35760,1,0,0:0:0:0:
192,192,35957,128,0,37536:0:0:0:26:
320,192,35957,1,0,0:0:0:0:
320,192,36747,1,0,0:0:0:0:
64,192,37536,1,0,0:0:0:13:
320,192,37536,1,0,0:0:0:13:
448,192,37734,1,0,0:0:0:0:
320,192,37931,1,0,0:0:0:0:
192,192,38128,1,0,0:0:0:0:
448,192,38326,1,0,0:0:0:13:
320,192,38326,1,0,0:0:0:0:
187,192,38720,128,0,39115:0:0:0:26:
59,192,39115,1,0,0:0:0:13:
443,192,39115,1,0,0:0:0:13:
315,192,39313,1,0,0:0:0:26:
187,192,39510,1,0,0:0:0:26:
59,192,39707,1,0,0:0:0:26:
192,192,39905,1,0,0:0:0:26:
64,192,40102,1,0,0:0:0:0:
192,192,40299,1,0,0:0:0:26:
320,192,40497,1,0,0:0:0:0:
448,192,40694,1,0,0:0:0:26:
320,192,40892,1,0,0:0:0:26:
448,192,41089,1,0,0:0:0:26:
320,192,41286,1,0,0:0:0:0:
192,192,41484,1,0,0:0:0:0:
64,192,41681,1,0,0:0:0:0:
192,192,41878,1,0,0:0:0:26:
320,192,42076,1,0,0:0:0:0:
192,192,42273,1,0,0:0:0:0:
64,192,42470,1,0,0:0:0:0:
192,192,42668,1,0,0:0:0:0:
64,192,42865,1,0,0:0:0:0:
192,192,43063,1,0,0:0:0:0:
320,192,43260,1,0,0:0:0:0:
448,192,43457,1,0,0:0:0:26:
320,192,43655,1,0,0:0:0:0:
192,192,43852,1,0,0:0:0:0:
64,192,44049,1,0,0:0:0:0:
320,192,44247,1,0,0:0:0:0:
64,192,44444,1,0,0:0:0:0:
192,192,44642,1,0,0:0:0:26:
64,192,44839,1,0,0:0:0:0:
320,192,45036,1,0,0:0:0:0:
64,192,45234,1,0,0:0:0:0:
192,192,45431,1,0,0:0:0:13:
448,192,45431,1,0,0:0:0:13:
320,192,45628,1,0,0:0:0:0:
64,192,45826,1,0,0:0:0:0:
448,192,46023,1,0,0:0:0:0:
192,192,46220,1,0,0:0:0:0:
320,192,46418,1,0,0:0:0:0:
64,192,46615,1,0,0:0:0:0:
448,192,46813,1,0,0:0:0:0:
192,192,47010,1,0,0:0:0:0:
320,192,47207,1,0,0:0:0:0:
64,192,47405,1,0,0:0:0:26:
448,192,47602,1,0,0:0:0:0:
192,192,47799,1,0,0:0:0:0:
448,192,47997,1,0,0:0:0:0:
320,192,48194,1,0,0:0:0:26:
192,192,48392,1,0,0:0:0:0:
64,192,48589,128,0,48984:0:0:0:0:
192,192,48984,128,0,49378:0:0:0:0:
320,192,49378,128,0,49773:0:0:0:0:
448,192,49773,128,0,50168:0:0:0:0:
64,192,50168,1,0,0:0:0:0:
320,192,50365,1,0,0:0:0:0:
192,192,50563,1,0,0:0:0:26:
320,192,50760,1,0,0:0:0:0:
192,192,50957,1,0,0:0:0:0:
320,192,51155,1,0,0:0:0:0:
192,192,51352,1,0,0:0:0:26:
320,192,51549,1,0,0:0:0:0:
448,192,51747,1,0,0:0:0:13:
64,192,51747,1,0,0:0:0:0:
192,192,52142,1,0,0:0:0:0:
64,192,52339,1,0,0:0:0:0:
320,192,52536,1,0,0:0:0:0:
64,192,52734,1,0,0:0:0:0:
320,192,52931,1,0,0:0:0:0:
64,192,53128,1,0,0:0:0:0:
192,192,53326,1,0,0:0:0:0:
448,192,53523,1,0,0:0:0:0:
192,192,53720,1,0,0:0:0:0:
448,192,53918,1,0,0:0:0:0:
192,192,54115,1,0,0:0:0:0:
64,192,54313,1,0,0:0:0:0:
320,192,54510,1,0,0:0:0:0:
64,192,54707,1,0,0:0:0:0:
320,192,54905,1,0,0:0:0:13:
448,192,54905,1,0,0:0:0:13:
320,192,55299,1,0,0:0:0:26:
192,192,55497,1,0,0:0:0:0:
448,192,55694,1,0,0:0:0:0:
192,192,55892,1,0,0:0:0:0:
448,192,56089,1,0,0:0:0:0:
192,192,56286,1,0,0:0:0:0:
448,192,56484,1,0,0:0:0:26:
64,192,56681,1,0,0:0:0:0:
320,192,56878,1,0,0:0:0:26:
64,192,57076,1,0,0:0:0:0:
320,192,57273,1,0,0:0:0:0:
64,192,57470,1,0,0:0:0:0:
320,192,57668,1,0,0:0:0:0:
64,192,57865,1,0,0:0:0:0:
448,192,58063,1,0,0:0:0:0:
320,192,58063,1,0,0:0:0:0:
192,192,58457,1,0,0:0:0:26:
64,192,58655,1,0,0:0:0:0:
320,192,58852,1,0,0:0:0:26:
64,192,59049,1,0,0:0:0:0:
320,192,59247,1,0,0:0:0:0:
64,192,59444,1,0,0:0:0:0:
448,192,59642,1,0,0:0:0:26:
192,192,59839,1,0,0:0:0:0:
448,192,60036,1,0,0:0:0:0:
192,192,60234,1,0,0:0:0:0:
320,192,60431,1,0,0:0:0:0:
64,192,60628,1,0,0:0:0:0:
320,192,60826,1,0,0:0:0:0:
64,192,61023,1,0,0:0:0:0:
192,192,61220,1,0,0:0:0:13:
320,192,61220,1,0,0:0:0:13:
192,192,61615,1,0,0:0:0:0:
448,192,61813,1,0,0:0:0:0:
192,192,62010,1,0,0:0:0:0:
448,192,62207,1,0,0:0:0:0:
192,192,62405,1,0,0:0:0:0:
448,192,62602,1,0,0:0:0:0:
192,192,62799,1,0,0:0:0:26:
320,192,62997,1,0,0:0:0:0:
448,192,63194,1,0,0:0:0:0:
320,192,63392,1,0,0:0:0:0:
192,192,63589,1,0,0:0:0:0:
320,192,63786,1,0,0:0:0:0:
448,192,63984,1,0,0:0:0:0:
320,192,64181,1,0,0:0:0:0:
64,192,64378,1,0,0:0:0:0:
192,192,64378,1,0,0:0:0:0:
64,192,64773,1,0,0:0:0:26:
448,192,64970,1,0,0:0:0:0:
192,192,65168,1,0,0:0:0:26:
448,192,65365,1,0,0:0:0:0:
192,192,65563,1,0,0:0:0:0:
448,192,65760,1,0,0:0:0:0:
192,192,65957,1,0,0:0:0:0:
320,192,66155,1,0,0:0:0:0:
64,192,66352,1,0,0:0:0:0:
320,192,66549,1,0,0:0:0:0:
64,192,66747,1,0,0:0:0:0:
320,192,66944,1,0,0:0:0:0:
64,192,67142,1,0,0:0:0:26:
320,192,67339,1,0,0:0:0:0:
64,192,67536,1,0,0:0:0:13:
192,192,67536,1,0,0:0:0:13:
448,192,67931,1,0,0:0:0:26:
64,192,68128,1,0,0:0:0:0:
320,192,68326,1,0,0:0:0:26:
64,192,68523,1,0,0:0:0:0:
320,192,68720,1,0,0:0:0:0:
64,192,68918,1,0,0:0:0:0:
320,192,69115,1,0,0:0:0:0:
448,192,69313,1,0,0:0:0:0:
192,192,69510,1,0,0:0:0:26:
448,192,69707,1,0,0:0:0:0:
192,192,69905,1,0,0:0:0:0:
448,192,70102,1,0,0:0:0:0:
192,192,70299,1,0,0:0:0:0:
448,192,70497,1,0,0:0:0:0:
320,192,70694,1,0,0:0:0:13:
192,192,70694,1,0,0:0:0:0:
192,192,71089,1,0,0:0:0:26:
64,192,71286,1,0,0:0:0:0:
320,192,71484,1,0,0:0:0:26:
64,192,71681,1,0,0:0:0:0:
320,192,71878,1,0,0:0:0:0:
64,192,72076,1,0,0:0:0:0:
192,192,72076,1,0,0:0:0:0:
320,192,72470,1,0,0:0:0:0:
192,192,72668,1,0,0:0:0:26:
64,192,72865,1,0,0:0:0:0:
192,192,73063,1,0,0:0:0:0:
320,192,73260,1,0,0:0:0:0:
448,192,73457,1,0,0:0:0:26:
320,192,73655,1,0,0:0:0:0:
192,192,73852,1,0,0:0:0:13:
64,192,73852,1,0,0:0:0:13:
192,192,75431,1,0,0:0:0:0:
64,192,75628,1,0,0:0:0:0:
192,192,75826,1,0,0:0:0:0:
320,192,76023,1,0,0:0:0:0:
448,192,76220,1,0,0:0:0:0:
320,192,76418,1,0,0:0:0:0:
64,192,76615,128,0,77010:0:0:0:0:
448,192,77010,1,0,0:0:0:13:
192,192,77010,1,0,0:0:0:0:
320,192,77405,1,0,0:0:0:26:
192,192,77602,1,0,0:0:0:0:
448,192,77799,1,0,0:0:0:0:
320,192,77997,1,0,0:0:0:0:
192,192,78194,1,0,0:0:0:0:
64,192,78392,1,0,0:0:0:0:
192,192,78589,1,0,0:0:0:0:
448,192,78786,1,0,0:0:0:0:
192,192,78984,1,0,0:0:0:26:
320,192,79181,1,0,0:0:0:0:
448,192,79378,1,0,0:0:0:0:
320,192,79576,1,0,0:0:0:0:
192,192,79773,1,0,0:0:0:0:
64,192,79970,1,0,0:0:0:0:
320,192,80168,1,0,0:0:0:0:
192,192,80365,1,0,0:0:0:0:
320,192,80563,1,0,0:0:0:26:
192,192,80760,1,0,0:0:0:0:
64,192,80957,1,0,0:0:0:0:
192,192,81155,1,0,0:0:0:0:
320,192,81352,1,0,0:0:0:0:
448,192,81549,1,0,0:0:0:0:
64,192,81747,1,0,0:0:0:26:
448,192,81944,1,0,0:0:0:0:
192,192,82142,1,0,0:0:0:26:
320,192,82339,1,0,0:0:0:0:
192,192,82536,1,0,0:0:0:0:
448,192,82734,1,0,0:0:0:0:
192,192,82931,1,0,0:0:0:0:
448,192,83128,1,0,0:0:0:0:
64,192,83326,1,0,0:0:0:0:
192,192,83326,1,0,0:0:0:0:
448,192,83720,1,0,0:0:0:0:
192,192,83918,1,0,0:0:0:26:
64,192,83918,1,0,0:0:0:0:
64,192,84313,1,0,0:0:0:0:
320,192,84510,1,0,0:0:0:26:
448,192,84510,1,0,0:0:0:0:
448,192,84905,1,0,0:0:0:0:
64,192,85102,1,0,0:0:0:26:
192,192,85102,1,0,0:0:0:0:
64,192,85497,1,0,0:0:0:0:
320,192,85694,1,0,0:0:0:26:
448,192,85694,1,0,0:0:0:0:
448,192,86089,1,0,0:0:0:0:
320,192,86286,1,0,0:0:0:0:
192,192,86484,1,0,0:0:0:26:
64,192,86484,1,0,0:0:0:0:
320,192,86878,1,0,0:0:0:26:
448,192,87273,1,0,0:0:0:26:
320,192,87668,1,0,0:0:0:26:
192,192,88063,1,0,0:0:0:26:
64,192,88457,1,0,0:0:0:26:
192,192,88852,1,0,0:0:0:26:
320,192,89049,1,0,0:0:0:0:
448,192,89247,1,0,0:0:0:0:
320,192,89444,1,0,0:0:0:0:
64,192,89642,1,0,0:0:0:13:
192,192,89642,1,0,0:0:0:13:
192,192,90036,1,0,0:0:0:26:
320,192,90234,1,0,0:0:0:0:
448,192,90431,1,0,0:0:0:0:
320,192,90628,1,0,0:0:0:0:
192,192,90826,1,0,0:0:0:0:
64,192,91023,1,0,0:0:0:0:
448,192,91220,1,0,0:0:0:26:
320,192,91418,1,0,0:0:0:0:
192,192,91615,1,0,0:0:0:0:
64,192,91813,1,0,0:0:0:0:
192,192,92010,1,0,0:0:0:26:
320,192,92207,1,0,0:0:0:0:
448,192,92405,1,0,0:0:0:0:
320,192,92602,1,0,0:0:0:0:
64,192,92799,1,0,0:0:0:26:
192,192,92997,1,0,0:0:0:0:
320,192,93194,1,0,0:0:0:0:
448,192,93392,1,0,0:0:0:0:
320,192,93589,1,0,0:0:0:26:
192,192,93786,1,0,0:0:0:0:
64,192,93984,1,0,0:0:0:0:
192,192,94181,1,0,0:0:0:0:
320,192,94378,1,0,0:0:0:0:
192,192,94576,1,0,0:0:0:0:
320,192,94773,1,0,0:0:0:26:
192,192,94970,1,0,0:0:0:0:
320,192,95168,1,0,0:0:0:0:
192,192,95365,1,0,0:0:0:0:
64,192,95563,1,0,0:0:0:26:
192,192,95760,1,0,0:0:0:0:
320,192,95957,1,0,0:0:0:26:
448,192,95957,1,0,0:0:0:0:
320,192,96352,1,0,0:0:0:0:
191,192,96549,1,0,0:0:0:26:
64,192,96549,1,0,0:0:0:0:
192,192,96944,1,0,0:0:0:0:
320,192,97142,1,0,0:0:0:26:
448,192,97142,1,0,0:0:0:0:
320,192,97536,1,0,0:0:0:0:
192,192,97734,1,0,0:0:0:26:
64,192,97734,1,0,0:0:0:0:
192,192,98128,1,0,0:0:0:0:
320,192,98326,1,0,0:0:0:0:
448,192,98326,1,0,0:0:0:0:
192,192,98720,1,0,0:0:0:26:
64,192,98720,1,0,0:0:0:0:
192,192,99115,1,0,0:0:0:26:
64,192,99313,1,0,0:0:0:0:
320,192,99510,1,0,0:0:0:26:
192,192,99707,1,0,0:0:0:0:
448,192,99905,1,0,0:0:0:26:
320,192,100102,1,0,0:0:0:0:
192,192,100299,1,0,0:0:0:0:
64,192,100497,1,0,0:0:0:0:
192,192,100694,1,0,0:0:0:26:
64,192,100892,1,0,0:0:0:0:
192,192,101089,1,0,0:0:0:0:
64,192,101286,1,0,0:0:0:0:
320,192,101484,1,0,0:0:0:0:
64,192,101681,1,0,0:0:0:0:
320,192,101878,1,0,0:0:0:0:
64,192,102076,1,0,0:0:0:0:
320,192,102273,1,0,0:0:0:0:
448,192,102273,1,0,0:0:0:0:
192,192,102668,1,0,0:0:0:0:
192,192,103063,1,0,0:0:0:0:
192,192,103457,1,0,0:0:0:0:
64,192,103852,1,0,0:0:0:0:
320,192,104049,1,0,0:0:0:0:
192,192,104247,1,0,0:0:0:0:
448,192,104444,1,0,0:0:0:0:
192,192,104642,1,0,0:0:0:0:
320,192,104839,1,0,0:0:0:0:
64,192,105036,1,0,0:0:0:0:
192,192,105234,1,0,0:0:0:0:
320,192,105431,1,0,0:0:0:0:
448,192,105431,1,0,0:0:0:0:
