osu file format v14

[General]
AudioFilename: Koi Yuki.mp3
AudioLeadIn: 0
PreviewTime: 74965
Countdown: 0
SampleSet: None
StackLeniency: 0.7
Mode: 3
LetterboxInBreaks: 0
SpecialStyle: 1
WidescreenStoryboard: 0

[Editor]
DistanceSpacing: 1.1
BeatDivisor: 16
GridSize: 32
TimelineZoom: 2

[Metadata]
Title:Koi Yuki
TitleUnicode:恋い雪
Artist:Silent Siren
ArtistUnicode:サイレントサイレン
Creator:Hamids-
Version:Hitsound
Source:
Tags:Snow Love 「2015 Kiroro resort」CM Song
BeatmapID:966784
BeatmapSetID:450635

[Difficulty]
HPDrainRate:8.5
CircleSize:4
OverallDifficulty:8
ApproachRate:5
SliderMultiplier:1.4
SliderTickRate:1

[Events]
//Background and Video events
0,0,"bg.jpg",0,0
//Break Periods
//Storyboard Layer 0 (Background)
//Storyboard Layer 1 (Fail)
//Storyboard Layer 2 (Pass)
//Storyboard Layer 3 (Foreground)
//Storyboard Sound Samples

[TimingPoints]
859,545.454545454546,4,2,1,10,1,0
859,-100,4,2,1,10,0,0
2224,545.454545454546,4,2,1,10,1,0
13133,645.161290322581,4,2,1,10,1,0
13133,-85.4700854700855,4,2,1,10,0,0
14423,674.157303370787,4,2,1,10,1,0
14423,-82.6446280991736,4,2,1,10,0,0
15097,705.882352941176,4,2,1,10,1,0
15097,-81.3008130081301,4,2,1,10,0,0
15802,561.797752808989,4,2,1,10,1,0
15802,-96.1538461538461,4,2,1,10,0,0
17778,468.75,4,2,1,10,1,0
17778,-121.951219512195,4,2,1,10,0,0
18012,468.75,4,3,1,50,1,0
18012,-100,4,3,1,50,0,0
29262,-100,4,3,1,20,0,0
31137,-100,4,3,1,30,0,0
61137,-100,4,3,1,50,0,0
74027,-50,4,3,1,75,0,0
74262,-200,4,3,1,50,0,0
74496,-50,4,3,1,50,0,0
74730,-200,4,3,1,50,0,0
74965,-50,4,3,1,50,0,0
75082,-200,4,3,1,50,0,0
75140,-181.818181818182,4,3,1,50,0,0
75199,-166.666666666667,4,3,1,50,0,0
75258,-153.846153846154,4,3,1,50,0,0
75316,-142.857142857143,4,3,1,50,0,0
75375,-133.333333333333,4,3,1,50,0,0
75433,-125,4,3,1,50,0,0
75492,-117.647058823529,4,3,1,50,0,0
75551,-111.111111111111,4,3,1,50,0,0
75609,-105.263157894737,4,3,1,50,0,0
75668,-100,4,3,1,50,0,0
76137,-100,4,3,1,50,0,1
102387,-100,4,3,1,50,0,0

[HitObjects]
64,192,859,5,0,0:0:0:40:1#+.wav
64,192,1131,1,0,0:0:0:40:1#+.wav
64,192,1404,1,0,0:0:0:40:1#+.wav
192,192,1677,1,0,0:0:0:40:1#++.wav
320,192,1949,1,0,0:0:0:40:1++.wav
64,192,2222,1,0,0:0:0:10:1#+.wav
448,192,2224,1,0,0:0:0:10:1#+.wav
320,192,2496,1,0,0:0:0:25:1#+.wav
192,192,2496,1,0,0:0:0:25:1#+.wav
64,192,2769,1,0,0:0:0:20:4+.wav
448,192,2769,1,0,0:0:0:40:4+.wav
192,192,3042,1,0,0:0:0:40:1#++.wav
320,192,3314,1,0,0:0:0:40:1++.wav
64,192,3860,1,0,0:0:0:40:1#+.wav
448,192,4133,1,0,0:0:0:40:4+.wav
64,192,4405,1,0,0:0:0:10:5#+.wav
192,192,4405,1,0,0:0:0:10:5#+.wav
448,192,4678,1,0,0:0:0:40:1#++.wav
320,192,4678,1,0,0:0:0:20:1#++.wav
192,192,4951,1,0,0:0:0:20:1++.wav
320,192,4951,1,0,0:0:0:40:1++.wav
64,192,5224,1,0,0:0:0:10:1+.wav
448,192,5224,1,0,0:0:0:10:1+.wav
192,192,5496,1,0,0:0:0:40:5#+.wav
64,192,6587,1,0,0:0:0:10:1+.wav
320,192,6587,1,0,0:0:0:10:1+.wav
192,192,6860,1,0,0:0:0:20:1#+.wav
448,192,6860,1,0,0:0:0:20:1#+.wav
448,192,7133,1,0,0:0:0:20:4+.wav
64,192,7133,1,0,0:0:0:20:4+.wav
192,192,7405,1,0,0:0:0:20:1#++.wav
320,192,7405,1,0,0:0:0:20:1#++.wav
64,192,7678,1,0,0:0:0:20:1++.wav
192,192,8224,1,0,0:0:0:40:1#+.wav
448,192,8496,1,0,0:0:0:40:4+.wav
64,192,8769,1,0,0:0:0:10:5#+.wav
192,192,8769,1,0,0:0:0:10:5#+.wav
320,192,9042,1,0,0:0:0:20:1#++.wav
448,192,9042,1,0,0:0:0:20:1#++.wav
448,192,9314,1,0,0:0:0:20:1++.wav
64,192,9314,1,0,0:0:0:20:1++.wav
192,192,9587,1,0,0:0:0:10:1+.wav
320,192,9587,1,0,0:0:0:10:1+.wav
64,192,9860,1,0,0:0:0:40:5#+.wav
64,192,10678,1,0,0:0:0:70:4+.wav
192,192,10814,1,0,0:0:0:40:4#+.wav
320,192,10951,1,0,0:0:0:20:5#+.wav
448,192,10951,1,0,0:0:0:20:5#+.wav
192,192,11224,1,0,0:0:0:10:1#+.wav
64,192,11224,1,0,0:0:0:10:1#+.wav
448,192,11496,1,0,0:0:0:40:4#+.wav
64,192,11496,1,0,0:0:0:20:4#+.wav
192,192,11769,1,0,0:0:0:10:1#+.wav
320,192,11769,1,0,0:0:0:10:1#+.wav
64,192,12042,1,0,0:0:0:40:4+.wav
320,192,12587,1,0,0:0:0:40:4#+.wav
192,192,12860,1,0,0:0:0:40:4+.wav
448,192,13133,1,0,0:0:0:10:1#+.wav
320,192,13133,1,0,0:0:0:10:1#+.wav
192,192,13455,1,0,0:0:0:20:2#+.wav
64,192,13455,1,0,0:0:0:20:2#+.wav
448,192,14100,1,0,0:0:0:40:1#+.wav
448,192,14423,1,0,0:0:0:35:1#+.wav
320,192,15097,1,0,0:0:0:30:1+.wav
64,192,15802,128,0,17778:0:0:0:20:1#+.wav
192,192,15802,128,0,17778:0:0:0:20:1#+.wav
448,192,17778,128,0,18012:0:0:0:20:Symbal.wav
320,192,18012,1,0,0:0:0:40:Hit.wav
64,192,18012,1,0,0:0:0:40:Kick.wav
192,192,18012,1,0,0:0:0:30:Finish.wav
192,192,18246,1,0,0:0:0:30:Hit Hat.wav
448,192,18246,1,0,0:0:0:40:Kick.wav
320,192,18480,1,0,0:0:0:20:Kick2.wav
64,192,18480,1,0,0:0:0:20:Kick.wav
448,192,18715,1,0,0:0:0:40:Hit.wav
64,192,18715,1,0,0:0:0:40:Kick.wav
192,192,18949,1,0,0:0:0:40:Kick.wav
64,192,19183,1,0,0:0:0:20:Kick.wav
320,192,19183,1,0,0:0:0:20:Kick2.wav
192,192,19301,1,0,0:0:0:40:Kick.wav
320,192,19418,1,0,0:0:0:20:Kick.wav
448,192,19418,1,0,0:0:0:20:Kick2.wav
192,192,19652,1,0,0:0:0:20:Kick2.wav
64,192,19652,1,0,0:0:0:20:Kick.wav
320,192,19769,1,0,0:0:0:20:Kick2.wav
64,192,19887,1,0,0:0:0:40:Kick.wav
448,192,19887,1,0,0:0:0:30:Finish.wav
192,192,19887,1,0,0:0:0:40:Hit.wav
320,192,20121,1,0,0:0:0:40:Kick.wav
192,192,20355,1,0,0:0:0:20:Kick2.wav
64,192,20355,1,0,0:0:0:20:Kick.wav
320,192,20590,1,0,0:0:0:20:Kick.wav
448,192,20590,1,0,0:0:0:20:Kick2.wav
192,192,20707,1,0,0:0:0:20:Kick.wav
64,192,20824,1,0,0:0:0:20:Kick.wav
448,192,20824,1,0,0:0:0:20:Kick2.wav
448,192,21058,1,0,0:0:0:20:Kick2.wav
192,192,21058,1,0,0:0:0:20:Kick.wav
320,192,21293,1,0,0:0:0:20:Kick2.wav
64,192,21293,1,0,0:0:0:20:Kick.wav
192,192,21527,1,0,0:0:0:20:Kick.wav
448,192,21527,1,0,0:0:0:20:Kick2.wav
320,192,21644,1,0,0:0:0:40:Kick.wav
448,192,21762,1,0,0:0:0:30:Finish.wav
64,192,21762,1,0,0:0:0:40:Kick.wav
192,192,21762,1,0,0:0:0:40:Hit.wav
192,192,21996,1,0,0:0:0:40:Kick.wav
64,192,22230,1,0,0:0:0:20:Kick.wav
448,192,22230,1,0,0:0:0:20:Kick2.wav
320,192,22465,1,0,0:0:0:20:Kick2.wav
192,192,22465,1,0,0:0:0:20:Kick.wav
448,192,22699,1,0,0:0:0:20:Kick2.wav
192,192,22699,1,0,0:0:0:20:Kick.wav
64,192,22933,1,0,0:0:0:20:Kick.wav
320,192,22933,1,0,0:0:0:20:Kick2.wav
192,192,23051,1,0,0:0:0:40:Kick.wav
64,192,23168,1,0,0:0:0:20:Kick.wav
448,192,23168,1,0,0:0:0:20:Kick2.wav
192,192,23402,1,0,0:0:0:20:Kick.wav
448,192,23402,1,0,0:0:0:20:Kick2.wav
320,192,23519,1,0,0:0:0:40:Kick.wav
64,192,23637,1,0,0:0:0:40:Kick.wav
192,192,23637,1,0,0:0:0:40:Hit.wav
448,192,23637,1,0,0:0:0:30:Finish.wav
320,192,23871,1,0,0:0:0:40:Kick.wav
192,192,24105,1,0,0:0:0:20:Kick.wav
448,192,24105,1,0,0:0:0:20:Kick2.wav
64,192,24340,1,0,0:0:0:20:Kick.wav
320,192,24340,1,0,0:0:0:20:Kick2.wav
192,192,24457,1,0,0:0:0:40:Kick.wav
320,192,24574,1,0,0:0:0:20:Kick.wav
448,192,24574,1,0,0:0:0:20:Kick2.wav
192,192,24808,1,0,0:0:0:20:Kick.wav
64,192,24808,1,0,0:0:0:30:Hit.wav
320,192,25043,1,0,0:0:0:20:Kick.wav
64,192,25043,1,0,0:0:0:30:Hit.wav
192,192,25277,1,0,0:0:0:20:Kick.wav
448,192,25277,1,0,0:0:0:20:Kick2.wav
320,192,25394,1,0,0:0:0:40:Kick.wav
64,192,25512,1,0,0:0:0:40:Kick.wav
192,192,25512,1,0,0:0:0:40:Hit.wav
448,192,25512,1,0,0:0:0:30:Finish.wav
192,192,25746,1,0,0:0:0:20:Kick.wav
320,192,25746,1,0,0:0:0:20:Kick2.wav
64,192,25980,1,0,0:0:0:20:Kick.wav
448,192,25980,1,0,0:0:0:20:Kick2.wav
192,192,26215,1,0,0:0:0:20:Kick.wav
448,192,26215,1,0,0:0:0:20:Kick2.wav
320,192,26449,1,0,0:0:0:20:Kick2.wav
64,192,26449,1,0,0:0:0:30:Kick.wav
192,192,26683,1,0,0:0:0:20:Kick.wav
448,192,26683,1,0,0:0:0:20:Kick2.wav
320,192,26801,1,0,0:0:0:40:Kick.wav
192,192,26918,1,0,0:0:0:20:Kick2.wav
64,192,26918,1,0,0:0:0:20:Kick.wav
320,192,27152,1,0,0:0:0:20:Kick.wav
448,192,27152,1,0,0:0:0:20:Kick2.wav
192,192,27269,1,0,0:0:0:40:Kick.wav
320,192,27387,1,0,0:0:0:40:Hit.wav
448,192,27387,1,0,0:0:0:30:Finish.wav
64,192,27387,1,0,0:0:0:40:Kick.wav
192,192,27621,1,0,0:0:0:20:Kick2.wav
64,192,27621,1,0,0:0:0:20:Kick.wav
320,192,27855,1,0,0:0:0:20:Kick.wav
448,192,27855,1,0,0:0:0:20:Kick2.wav
192,192,28090,1,0,0:0:0:20:Kick2.wav
64,192,28090,1,0,0:0:0:20:Kick.wav
320,192,28207,1,0,0:0:0:40:Kick.wav
448,192,28324,1,0,0:0:0:20:Kick2.wav
192,192,28324,1,0,0:0:0:20:Kick.wav
64,192,28558,1,0,0:0:0:20:Kick.wav
320,192,28558,1,0,0:0:0:20:Kick2.wav
192,192,28676,1,0,0:0:0:40:Kick.wav
320,192,28793,1,0,0:0:0:20:Kick.wav
448,192,28793,1,0,0:0:0:20:Kick2.wav
64,192,29027,1,0,0:0:0:40:Hit Hat.wav
192,192,29027,1,0,0:0:0:20:Hit.wav
448,192,29027,1,0,0:0:0:20:Hit.wav
320,192,29262,128,0,29496:0:0:0:40:1+.wav
192,192,29496,128,0,29730:0:0:0:40:1#+.wav
448,192,29730,128,0,29965:0:0:0:40:5#+.wav
64,192,29965,128,0,30199:0:0:0:40:1+.wav
192,192,30199,128,0,30433:0:0:0:40:1#+.wav
448,192,30433,128,0,30668:0:0:0:40:5#+.wav
192,192,30668,128,0,30902:0:0:0:40:1+.wav
320,192,30902,128,0,31137:0:0:0:40:1#+.wav
448,192,31137,1,0,0:0:0:20:Kick.wav
64,192,31137,128,0,33012:0:0:0:20:Symbal.wav
192,192,31137,1,0,0:0:0:20:Hit.wav
320,192,31605,1,0,0:0:0:20:Click.wav
448,192,31605,1,0,0:0:0:20:Click.wav
192,192,31840,1,0,0:0:0:20:Fast Hit.wav
448,192,32074,1,0,0:0:0:20:Fast Hit.wav
320,192,32308,1,0,0:0:0:20:Fast Hit.wav
448,192,32543,1,0,0:0:0:20:Click.wav
192,192,32543,1,0,0:0:0:20:Click.wav
320,192,32777,1,0,0:0:0:20:Fast Hit.wav
448,192,33012,128,0,34887:0:0:0:20:Kick.wav
192,192,33012,1,0,0:0:0:20:Kick2.wav
320,192,33246,1,0,0:0:0:20:Fast Hit.wav
192,192,33480,1,0,0:0:0:20:Click.wav
64,192,33480,1,0,0:0:0:20:Click.wav
320,192,33715,1,0,0:0:0:20:Fast Hit.wav
192,192,33949,1,0,0:0:0:20:Fast Hit.wav
64,192,34183,1,0,0:0:0:20:Fast Hit.wav
320,192,34418,1,0,0:0:0:20:Click.wav
192,192,34418,1,0,0:0:0:20:Click.wav
64,192,34652,1,0,0:0:0:20:Kick.wav
192,192,34652,1,0,0:0:0:20:Fast Hit.wav
64,192,34887,128,0,36762:0:0:0:20:Kick.wav
320,192,34887,1,0,0:0:0:20:Kick2.wav
192,192,35121,1,0,0:0:0:20:Fast Hit.wav
320,192,35355,1,0,0:0:0:20:Click.wav
448,192,35355,1,0,0:0:0:20:Click.wav
192,192,35590,1,0,0:0:0:20:Fast Hit.wav
448,192,35824,1,0,0:0:0:20:Fast Hit.wav
320,192,36058,1,0,0:0:0:20:Fast Hit.wav
448,192,36293,1,0,0:0:0:20:Click.wav
192,192,36293,1,0,0:0:0:20:Click.wav
320,192,36527,1,0,0:0:0:20:Fast Hit.wav
192,192,36762,1,0,0:0:0:20:Kick2.wav
320,192,36762,128,0,38637:0:0:0:20:Kick.wav
448,192,36996,1,0,0:0:0:20:Fast Hit.wav
192,192,37230,1,0,0:0:0:20:Click.wav
64,192,37230,1,0,0:0:0:20:Click.wav
448,192,37465,1,0,0:0:0:20:Fast Hit.wav
192,192,37699,1,0,0:0:0:20:Fast Hit.wav
64,192,37933,1,0,0:0:0:20:Fast Hit.wav
192,192,38168,1,0,0:0:0:20:Click.wav
448,192,38168,1,0,0:0:0:20:Click.wav
64,192,38402,1,0,0:0:0:20:Kick.wav
192,192,38402,1,0,0:0:0:20:Fast Hit.wav
448,192,38637,1,0,0:0:0:20:Kick2.wav
64,192,38637,128,0,40512:0:0:0:20:Kick.wav
192,192,38871,1,0,0:0:0:20:Fast Hit.wav
448,192,39105,1,0,0:0:0:20:Click.wav
320,192,39105,1,0,0:0:0:20:Click.wav
192,192,39340,1,0,0:0:0:20:Fast Hit.wav
448,192,39574,1,0,0:0:0:20:Fast Hit.wav
320,192,39808,1,0,0:0:0:20:Fast Hit.wav
448,192,40043,1,0,0:0:0:20:Click.wav
192,192,40043,1,0,0:0:0:20:Click.wav
320,192,40277,1,0,0:0:0:20:Fast Hit.wav
192,192,40512,1,0,0:0:0:20:Kick2.wav
448,192,40512,128,0,42387:0:0:0:20:Kick.wav
320,192,40746,1,0,0:0:0:20:Fast Hit.wav
192,192,40980,1,0,0:0:0:20:Click.wav
64,192,40980,1,0,0:0:0:20:Click.wav
320,192,41215,1,0,0:0:0:20:Fast Hit.wav
192,192,41449,1,0,0:0:0:20:Fast Hit.wav
64,192,41683,1,0,0:0:0:20:Fast Hit.wav
320,192,41918,1,0,0:0:0:20:Click.wav
192,192,41918,1,0,0:0:0:20:Click.wav
64,192,42152,1,0,0:0:0:20:Kick.wav
192,192,42152,1,0,0:0:0:20:Fast Hit.wav
320,192,42387,1,0,0:0:0:20:Kick2.wav
64,192,42387,128,0,44262:0:0:0:20:Kick.wav
192,192,42621,1,0,0:0:0:20:Fast Hit.wav
320,192,42855,1,0,0:0:0:20:Click.wav
448,192,42855,1,0,0:0:0:20:Click.wav
192,192,43090,1,0,0:0:0:20:Fast Hit.wav
448,192,43324,1,0,0:0:0:20:Fast Hit.wav
320,192,43558,1,0,0:0:0:20:Fast Hit.wav
192,192,43793,1,0,0:0:0:20:Click.wav
448,192,43793,1,0,0:0:0:20:Click.wav
320,192,44027,1,0,0:0:0:20:Fast Hit.wav
448,192,44262,128,0,46137:0:0:0:20:Kick.wav
192,192,44262,1,0,0:0:0:20:Kick2.wav
320,192,44496,1,0,0:0:0:20:Fast Hit.wav
64,192,44730,1,0,0:0:0:20:Click.wav
192,192,44730,1,0,0:0:0:20:Click.wav
320,192,44965,1,0,0:0:0:20:Fast Hit.wav
64,192,45199,1,0,0:0:0:20:Fast Hit.wav
320,192,45433,1,0,0:0:0:20:1+.wav
192,192,45551,1,0,0:0:0:20:1#+.wav
64,192,45668,1,0,0:0:0:20:Click.wav
320,192,45668,1,0,0:0:0:20:1+.wav
64,192,45902,1,0,0:0:0:20:Kick.wav
192,192,45902,1,0,0:0:0:20:Kick.wav
320,192,46137,1,0,0:0:0:40:Hit.wav
192,192,46137,1,0,0:0:0:40:Kick.wav
64,192,46137,128,0,48012:0:0:0:30:Finish.wav
320,192,46605,1,0,0:0:0:20:Fast Hit.wav
192,192,46840,1,0,0:0:0:20:Hit.wav
448,192,46840,1,0,0:0:0:20:Kick.wav
320,192,46840,1,0,0:0:0:20:Kick2.wav
192,192,47074,1,0,0:0:0:20:Fast Hit.wav
192,192,47543,1,0,0:0:0:20:Hit.wav
448,192,47543,1,0,0:0:0:20:Kick.wav
320,192,47543,1,0,0:0:0:20:Kick2.wav
192,192,47777,1,0,0:0:0:20:Kick.wav
320,192,47777,1,0,0:0:0:20:Kick2.wav
320,192,48012,1,0,0:0:0:20:Kick2.wav
448,192,48012,128,0,49887:0:0:0:20:Kick.wav
64,192,48246,1,0,0:0:0:10:Fast Hit.wav
192,192,48480,1,0,0:0:0:20:Fast Hit.wav
192,192,48715,1,0,0:0:0:20:Kick2.wav
64,192,48715,1,0,0:0:0:20:Hit.wav
320,192,48715,1,0,0:0:0:20:Kick.wav
320,192,48949,1,0,0:0:0:20:Fast Hit.wav
320,192,49418,1,0,0:0:0:20:Kick.wav
64,192,49418,1,0,0:0:0:20:Hit.wav
192,192,49418,1,0,0:0:0:20:Kick2.wav
320,192,49652,1,0,0:0:0:20:Kick.wav
192,192,49652,1,0,0:0:0:20:Kick2.wav
64,192,49887,1,0,0:0:0:20:Kick2.wav
192,192,49887,128,0,51762:0:0:0:20:Kick.wav
320,192,50355,1,0,0:0:0:20:Fast Hit.wav
64,192,50590,1,0,0:0:0:20:Kick.wav
448,192,50590,1,0,0:0:0:20:Hit.wav
320,192,50590,1,0,0:0:0:20:Kick2.wav
320,192,50824,1,0,0:0:0:20:Fast Hit.wav
448,192,51293,1,0,0:0:0:20:Hit.wav
64,192,51293,1,0,0:0:0:20:Kick.wav
320,192,51293,1,0,0:0:0:20:Kick2.wav
448,192,51527,1,0,0:0:0:20:Kick.wav
320,192,51527,1,0,0:0:0:20:Kick2.wav
64,192,51762,1,0,0:0:0:20:Kick2.wav
320,192,51762,128,0,53637:0:0:0:20:Kick.wav
448,192,51996,1,0,0:0:0:10:Fast Hit.wav
192,192,52230,1,0,0:0:0:20:Fast Hit.wav
64,192,52465,1,0,0:0:0:20:Hit.wav
448,192,52465,1,0,0:0:0:20:Kick.wav
192,192,52465,1,0,0:0:0:20:Kick2.wav
64,192,52699,1,0,0:0:0:20:Fast Hit.wav
64,192,53168,1,0,0:0:0:20:Hit.wav
448,192,53168,1,0,0:0:0:20:Kick.wav
192,192,53168,1,0,0:0:0:20:Kick2.wav
64,192,53402,1,0,0:0:0:20:Kick.wav
192,192,53402,1,0,0:0:0:20:Kick2.wav
448,192,53637,1,0,0:0:0:20:Kick2.wav
64,192,53637,128,0,55512:0:0:0:20:Kick.wav
192,192,54105,1,0,0:0:0:20:Fast Hit.wav
448,192,54340,1,0,0:0:0:20:Kick.wav
320,192,54340,1,0,0:0:0:20:Kick2.wav
192,192,54340,1,0,0:0:0:20:Hit.wav
320,192,54574,1,0,0:0:0:20:Fast Hit.wav
320,192,55043,1,0,0:0:0:20:Kick2.wav
448,192,55043,1,0,0:0:0:20:Kick.wav
192,192,55043,1,0,0:0:0:20:Hit.wav
448,192,55277,1,0,0:0:0:20:Kick.wav
320,192,55277,1,0,0:0:0:20:Kick2.wav
192,192,55512,1,0,0:0:0:20:Kick2.wav
448,192,55512,128,0,57387:0:0:0:20:Kick.wav
320,192,55746,1,0,0:0:0:10:Fast Hit.wav
64,192,55980,1,0,0:0:0:20:Fast Hit.wav
64,192,56215,1,0,0:0:0:20:Kick.wav
320,192,56215,1,0,0:0:0:20:Hit.wav
192,192,56215,1,0,0:0:0:20:Kick2.wav
192,192,56449,1,0,0:0:0:20:Fast Hit.wav
320,192,56918,1,0,0:0:0:20:Hit.wav
64,192,56918,1,0,0:0:0:20:Kick.wav
192,192,56918,1,0,0:0:0:20:Kick2.wav
64,192,57152,1,0,0:0:0:20:Kick.wav
192,192,57152,1,0,0:0:0:20:Kick2.wav
320,192,57387,1,0,0:0:0:20:Kick2.wav
192,192,57387,128,0,59262:0:0:0:20:Kick.wav
448,192,57855,1,0,0:0:0:20:Fast Hit.wav
448,192,58090,1,0,0:0:0:20:Hit.wav
64,192,58090,1,0,0:0:0:20:Kick.wav
320,192,58090,1,0,0:0:0:20:Kick2.wav
320,192,58324,1,0,0:0:0:20:Fast Hit.wav
64,192,58793,1,0,0:0:0:20:Kick.wav
448,192,58793,1,0,0:0:0:20:Hit.wav
320,192,58793,1,0,0:0:0:20:Kick2.wav
448,192,59027,1,0,0:0:0:20:Kick.wav
320,192,59027,1,0,0:0:0:20:Kick2.wav
64,192,59262,1,0,0:0:0:20:Kick2.wav
320,192,59262,128,0,60199:0:0:0:20:Kick.wav
192,192,59730,1,0,0:0:0:20:Fast Hit.wav
64,192,59965,1,0,0:0:0:20:Hit.wav
192,192,59965,1,0,0:0:0:20:Kick2.wav
448,192,59965,1,0,0:0:0:20:Kick.wav
448,192,60199,1,0,0:0:0:20:Kick2.wav
64,192,60199,128,0,60902:0:0:0:20:Kick.wav
192,192,60433,1,0,0:0:0:20:Kick.wav
320,192,60668,1,0,0:0:0:20:Kick2.wav
448,192,60668,1,0,0:0:0:20:Hit.wav
448,192,60902,1,0,0:0:0:20:Kick2.wav
192,192,60902,1,0,0:0:0:20:Kick.wav
320,192,61019,1,0,0:0:0:20:Kick.wav
448,192,61137,1,0,0:0:0:40:Kick.wav
192,192,61137,1,0,0:0:0:20:Symbal.wav
64,192,61137,1,0,0:0:0:20:Kick.wav
192,192,61605,1,0,0:0:0:20:Fast Hit.wav
320,192,61840,1,0,0:0:0:20:Kick.wav
448,192,61840,1,0,0:0:0:20:Kick2.wav
64,192,61840,1,0,0:0:0:20:Hit.wav
192,192,62074,1,0,0:0:0:20:Fast Hit.wav
320,192,62308,1,0,0:0:0:20:Kick.wav
192,192,62543,1,0,0:0:0:20:Kick2.wav
448,192,62543,1,0,0:0:0:20:Kick.wav
64,192,62543,1,0,0:0:0:20:Hit.wav
320,192,62777,1,0,0:0:0:20:Kick2.wav
64,192,62777,1,0,0:0:0:20:Kick.wav
192,192,63012,1,0,0:0:0:20:Kick.wav
448,192,63012,1,0,0:0:0:20:Kick2.wav
320,192,63246,1,0,0:0:0:20:Hit.wav
64,192,63480,1,0,0:0:0:20:Fast Hit.wav
192,192,63715,1,0,0:0:0:20:Hit.wav
320,192,63715,1,0,0:0:0:20:Kick2.wav
448,192,63715,1,0,0:0:0:20:Kick.wav
320,192,63949,1,0,0:0:0:20:Fast Hit.wav
192,192,64183,1,0,0:0:0:20:Kick2.wav
64,192,64183,1,0,0:0:0:20:Kick.wav
448,192,64418,1,0,0:0:0:20:Hit.wav
320,192,64418,1,0,0:0:0:20:Kick2.wav
64,192,64418,1,0,0:0:0:20:Kick.wav
192,192,64652,1,0,0:0:0:20:Kick.wav
448,192,64652,1,0,0:0:0:20:Kick2.wav
320,192,64887,1,0,0:0:0:20:Kick2.wav
64,192,64887,1,0,0:0:0:20:Kick.wav
192,192,65121,1,0,0:0:0:20:Hit.wav
448,192,65355,1,0,0:0:0:20:Fast Hit.wav
320,192,65590,1,0,0:0:0:20:Hit.wav
192,192,65590,1,0,0:0:0:20:Kick2.wav
64,192,65590,1,0,0:0:0:20:Kick.wav
448,192,65824,1,0,0:0:0:20:Fast Hit.wav
64,192,66058,1,0,0:0:0:20:Kick.wav
320,192,66058,1,0,0:0:0:20:Kick2.wav
448,192,66293,1,0,0:0:0:20:Hit.wav
64,192,66293,1,0,0:0:0:20:Kick.wav
192,192,66293,1,0,0:0:0:20:Kick2.wav
320,192,66527,1,0,0:0:0:20:Kick.wav
192,192,66762,1,0,0:0:0:20:Kick2.wav
64,192,66762,1,0,0:0:0:20:Kick.wav
448,192,66996,1,0,0:0:0:20:Hit.wav
320,192,67230,1,0,0:0:0:20:Fast Hit.wav
192,192,67465,1,0,0:0:0:20:Kick2.wav
64,192,67465,1,0,0:0:0:20:Kick.wav
448,192,67465,1,0,0:0:0:20:Hit.wav
320,192,67699,1,0,0:0:0:20:Fast Hit.wav
64,192,67933,1,0,0:0:0:20:Kick.wav
448,192,67933,1,0,0:0:0:20:Kick2.wav
320,192,68168,1,0,0:0:0:20:Kick2.wav
192,192,68168,1,0,0:0:0:20:Hit.wav
64,192,68168,1,0,0:0:0:20:Kick.wav
448,192,68402,1,0,0:0:0:20:Kick2.wav
192,192,68402,1,0,0:0:0:20:Kick.wav
320,192,68637,1,0,0:0:0:40:Hit.wav
64,192,68637,1,0,0:0:0:40:Kick.wav
448,192,68637,1,0,0:0:0:30:Symbal.wav
192,192,69105,1,0,0:0:0:20:Hit.wav
448,192,69105,1,0,0:0:0:20:Kick2.wav
64,192,69105,1,0,0:0:0:20:Kick.wav
320,192,69574,1,0,0:0:0:20:Kick.wav
448,192,69574,1,0,0:0:0:20:Kick2.wav
192,192,69808,1,0,0:0:0:20:Kick2.wav
64,192,69808,1,0,0:0:0:20:Kick.wav
64,192,70043,1,0,0:0:0:20:Kick.wav
320,192,70043,1,0,0:0:0:20:Kick2.wav
448,192,70043,1,0,0:0:0:20:Hit.wav
192,192,70277,1,0,0:0:0:20:Fast Hit.wav
320,192,70512,1,0,0:0:0:20:Kick.wav
448,192,70512,1,0,0:0:0:20:Kick2.wav
64,192,70746,1,0,0:0:0:20:Fast Hit.wav
192,192,70980,1,0,0:0:0:20:Kick.wav
320,192,70980,1,0,0:0:0:20:Hit.wav
448,192,70980,1,0,0:0:0:20:Kick2.wav
192,192,71449,1,0,0:0:0:20:Kick.wav
64,192,71449,1,0,0:0:0:20:Kick2.wav
320,192,71683,1,0,0:0:0:20:Kick.wav
448,192,71683,1,0,0:0:0:20:Kick2.wav
64,192,71918,1,0,0:0:0:20:Hit.wav
192,192,71918,1,0,0:0:0:20:Kick2.wav
448,192,71918,1,0,0:0:0:20:Kick.wav
320,192,72152,1,0,0:0:0:20:Fast Hit.wav
192,192,72387,1,0,0:0:0:40:Hit.wav
64,192,72387,1,0,0:0:0:30:Symbal.wav
448,192,72387,1,0,0:0:0:40:Kick.wav
448,192,72855,1,0,0:0:0:20:Kick2.wav
320,192,72855,1,0,0:0:0:20:Hit.wav
192,192,72855,1,0,0:0:0:30:Hit Open.wav
64,192,73090,1,0,0:0:0:20:Kick.wav
320,192,73090,1,0,0:0:0:20:Kick2.wav
448,192,73324,1,0,0:0:0:20:Kick2.wav
64,192,73324,1,0,0:0:0:40:Kick.wav
320,192,73558,1,0,0:0:0:30:Hit Open.wav
64,192,73793,1,0,0:0:0:20:Kick2.wav
192,192,73793,1,0,0:0:0:20:Hit.wav
448,192,73793,1,0,0:0:0:20:Kick.wav
320,192,74027,1,0,0:0:0:40:Kick.wav
448,192,74027,1,0,0:0:0:30:Hit Hat.wav
192,192,74027,1,0,0:0:0:40:Hit.wav
64,192,74496,1,0,0:0:0:30:Hit Hat.wav
320,192,74496,1,0,0:0:0:40:Hit.wav
192,192,74496,1,0,0:0:0:40:Kick.wav
64,192,74965,1,0,0:0:0:40:Hit.wav
320,192,74965,1,0,0:0:0:40:Kick.wav
448,192,74965,1,0,0:0:0:30:Hit Hat.wav
448,192,75668,1,0,0:0:0:40:Kick.wav
320,192,75785,1,0,0:0:0:40:Kick.wav
64,192,75902,1,0,0:0:0:40:Hit.wav
192,192,76019,1,0,0:0:0:40:Hit.wav
448,192,76137,1,0,0:0:0:40:Hit.wav
320,192,76137,1,0,0:0:0:30:Hit Open.wav
64,192,76137,1,0,0:0:0:40:Kick.wav
320,192,76371,1,0,0:0:0:20:Kick2.wav
192,192,76371,1,0,0:0:0:20:Kick.wav
192,192,76605,1,0,0:0:0:30:Hit Open.wav
448,192,76605,1,0,0:0:0:20:Kick.wav
64,192,76605,1,0,0:0:0:40:Hit.wav
320,192,76840,1,0,0:0:0:20:Fast Hit.wav
192,192,77074,1,0,0:0:0:30:Hit Open.wav
64,192,77074,1,0,0:0:0:40:Kick.wav
320,192,77308,1,0,0:0:0:20:Kick2.wav
448,192,77308,1,0,0:0:0:20:Kick.wav
192,192,77543,1,0,0:0:0:30:Hit Open.wav
64,192,77543,1,0,0:0:0:40:Hit.wav
448,192,77543,1,0,0:0:0:40:Kick.wav
320,192,77777,1,0,0:0:0:20:Fast Hit.wav
192,192,78012,1,0,0:0:0:30:Hit Open.wav
448,192,78012,1,0,0:0:0:40:Kick.wav
320,192,78246,1,0,0:0:0:20:Kick2.wav
64,192,78246,1,0,0:0:0:20:Kick.wav
64,192,78480,1,0,0:0:0:40:Hit.wav
192,192,78480,1,0,0:0:0:30:Hit Open.wav
448,192,78480,1,0,0:0:0:40:Kick.wav
320,192,78715,1,0,0:0:0:20:Fast Hit.wav
64,192,78949,1,0,0:0:0:40:Kick.wav
192,192,78949,128,0,79418:0:0:0:30:Hit Open.wav
320,192,79183,1,0,0:0:0:20:Kick2.wav
448,192,79183,1,0,0:0:0:20:Kick.wav
448,192,79418,1,0,0:0:0:40:Hit.wav
64,192,79418,128,0,79887:0:0:0:30:Hit Open.wav
192,192,79652,1,0,0:0:0:20:Fast Hit.wav
320,192,79887,1,0,0:0:0:20:Kick.wav
448,192,79887,128,0,81762:0:0:0:30:Hit Open.wav
192,192,80121,1,0,0:0:0:20:Kick2.wav
64,192,80121,1,0,0:0:0:20:Kick.wav
320,192,80355,1,0,0:0:0:30:Hit Open.wav
64,192,80355,1,0,0:0:0:40:Hit.wav
192,192,80590,1,0,0:0:0:20:Fast Hit.wav
320,192,80824,1,0,0:0:0:30:Hit Open.wav
64,192,80824,1,0,0:0:0:40:Kick.wav
192,192,81058,1,0,0:0:0:20:Kick2.wav
320,192,81058,1,0,0:0:0:20:Kick.wav
64,192,81293,1,0,0:0:0:30:Hit Open.wav
192,192,81293,1,0,0:0:0:40:Hit.wav
320,192,81527,1,0,0:0:0:20:Fast Hit.wav
64,192,81762,1,0,0:0:0:30:Hit Open.wav
192,192,81762,1,0,0:0:0:40:Kick.wav
320,192,81996,1,0,0:0:0:20:Kick2.wav
192,192,81996,1,0,0:0:0:20:Kick.wav
320,192,82230,1,0,0:0:0:20:Kick2.wav
448,192,82230,1,0,0:0:0:20:Hit.wav
64,192,82230,1,0,0:0:0:30:Hit Open.wav
192,192,82465,1,0,0:0:0:20:Fast Hit.wav
320,192,82699,1,0,0:0:0:40:Kick.wav
64,192,82699,1,0,0:0:0:30:Hit Open.wav
448,192,82933,1,0,0:0:0:20:Kick2.wav
192,192,82933,1,0,0:0:0:20:Kick.wav
64,192,83168,1,0,0:0:0:30:Hit Open.wav
448,192,83168,1,0,0:0:0:20:Hit.wav
320,192,83168,1,0,0:0:0:20:Kick2.wav
320,192,83402,1,0,0:0:0:20:Fast Hit.wav
192,192,83637,1,0,0:0:0:30:Hit Open.wav
448,192,83637,1,0,0:0:0:40:Kick.wav
320,192,83871,1,0,0:0:0:20:Kick2.wav
64,192,83871,1,0,0:0:0:20:Kick.wav
192,192,84105,1,0,0:0:0:30:Hit Open.wav
448,192,84105,1,0,0:0:0:20:Kick2.wav
64,192,84105,1,0,0:0:0:20:Hit.wav
320,192,84340,1,0,0:0:0:20:Fast Hit.wav
192,192,84574,1,0,0:0:0:30:Hit Open.wav
64,192,84574,1,0,0:0:0:40:Kick.wav
448,192,84808,1,0,0:0:0:20:Kick2.wav
320,192,84808,1,0,0:0:0:20:Kick.wav
320,192,85043,1,0,0:0:0:30:Hit Open.wav
192,192,85043,1,0,0:0:0:20:Kick2.wav
64,192,85043,1,0,0:0:0:20:Hit.wav
192,192,85277,1,0,0:0:0:20:Fast Hit.wav
320,192,85512,1,0,0:0:0:40:Kick.wav
448,192,85512,1,0,0:0:0:30:Hit Open.wav
192,192,85746,1,0,0:0:0:20:Kick2.wav
64,192,85746,1,0,0:0:0:20:Kick.wav
448,192,85980,1,0,0:0:0:30:Hit Open.wav
320,192,85980,1,0,0:0:0:20:Kick2.wav
64,192,85980,1,0,0:0:0:20:Hit.wav
320,192,86215,1,0,0:0:0:20:Fast Hit.wav
192,192,86449,1,0,0:0:0:40:Kick.wav
448,192,86449,1,0,0:0:0:30:Hit Open.wav
64,192,86683,1,0,0:0:0:20:Kick.wav
320,192,86683,1,0,0:0:0:20:Kick2.wav
448,192,86918,1,0,0:0:0:20:Hit.wav
192,192,86918,1,0,0:0:0:20:Kick2.wav
64,192,86918,1,0,0:0:0:30:Hit Open.wav
192,192,87152,1,0,0:0:0:20:Fast Hit.wav
320,192,87387,1,0,0:0:0:40:Kick.wav
448,192,87387,1,0,0:0:0:30:Hit Open.wav
192,192,87621,1,0,0:0:0:20:Kick2.wav
64,192,87621,1,0,0:0:0:20:Kick.wav
320,192,87855,1,0,0:0:0:20:Kick2.wav
64,192,87855,1,0,0:0:0:20:Hit.wav
448,192,87855,1,0,0:0:0:30:Hit Open.wav
192,192,88090,1,0,0:0:0:20:Fast Hit.wav
320,192,88324,1,0,0:0:0:40:Kick.wav
64,192,88324,1,0,0:0:0:30:Hit Open.wav
448,192,88558,1,0,0:0:0:20:Kick2.wav
192,192,88558,1,0,0:0:0:20:Kick.wav
448,192,88793,1,0,0:0:0:30:Hit Open.wav
320,192,88793,1,0,0:0:0:20:Kick2.wav
64,192,88793,1,0,0:0:0:20:Hit.wav
192,192,89027,1,0,0:0:0:20:Fast Hit.wav
320,192,89262,1,0,0:0:0:40:Kick.wav
448,192,89262,1,0,0:0:0:30:Hit Open.wav
192,192,89496,1,0,0:0:0:20:Kick2.wav
64,192,89496,1,0,0:0:0:20:Kick.wav
320,192,89730,1,0,0:0:0:20:Kick2.wav
448,192,89730,1,0,0:0:0:30:Hit Open.wav
64,192,89730,1,0,0:0:0:20:Hit.wav
320,192,89965,1,0,0:0:0:20:Fast Hit.wav
192,192,90199,1,0,0:0:0:20:Kick2.wav
64,192,90199,1,0,0:0:0:20:Kick.wav
320,192,90433,1,0,0:0:0:20:Kick2.wav
448,192,90433,1,0,0:0:0:20:Kick.wav
192,192,90551,1,0,0:0:0:40:Kick.wav
320,192,90668,1,0,0:0:0:20:Kick2.wav
64,192,90668,1,0,0:0:0:20:Hit.wav
448,192,90785,1,0,0:0:0:40:Kick.wav
192,192,90902,1,0,0:0:0:20:Kick2.wav
64,192,90902,1,0,0:0:0:20:Kick.wav
320,192,91019,1,0,0:0:0:40:Hit.wav
64,192,91137,1,0,0:0:0:20:Kick.wav
192,192,91137,1,0,0:0:0:20:Kick2.wav
448,192,91137,128,0,93949:0:0:0:30:Hit Open.wav
192,192,91371,1,0,0:0:0:20:Kick.wav
320,192,91371,1,0,0:0:0:20:Kick2.wav
64,192,91605,1,0,0:0:0:40:Hit.wav
320,192,91605,1,0,0:0:0:30:Hit Open.wav
192,192,91840,1,0,0:0:0:20:Fast Hit.wav
320,192,92074,1,0,0:0:0:30:Hit Open.wav
64,192,92074,1,0,0:0:0:40:Kick.wav
192,192,92308,1,0,0:0:0:20:Kick2.wav
64,192,92308,1,0,0:0:0:20:Kick.wav
320,192,92543,1,0,0:0:0:30:Hit Open.wav
192,192,92543,1,0,0:0:0:40:Hit.wav
64,192,92777,1,0,0:0:0:20:Fast Hit.wav
192,192,93012,1,0,0:0:0:40:Kick.wav
320,192,93012,1,0,0:0:0:30:Hit Open.wav
192,192,93246,1,0,0:0:0:20:Kick2.wav
64,192,93246,1,0,0:0:0:20:Kick.wav
320,192,93480,1,0,0:0:0:30:Hit Open.wav
64,192,93480,1,0,0:0:0:40:Hit.wav
192,192,93715,1,0,0:0:0:20:Fast Hit.wav
64,192,93949,128,0,94418:0:0:0:30:Hit Open.wav
320,192,93949,1,0,0:0:0:40:Kick.wav
192,192,94183,1,0,0:0:0:20:Kick.wav
448,192,94183,1,0,0:0:0:20:Kick2.wav
192,192,94418,128,0,94887:0:0:0:30:Hit Open.wav
320,192,94418,1,0,0:0:0:40:Hit.wav
64,192,94652,1,0,0:0:0:20:Fast Hit.wav
448,192,94887,128,0,96762:0:0:0:30:Hit Open.wav
320,192,94887,1,0,0:0:0:40:Kick.wav
192,192,95121,1,0,0:0:0:20:Kick2.wav
64,192,95121,1,0,0:0:0:20:Kick.wav
320,192,95355,1,0,0:0:0:30:Hit Open.wav
64,192,95355,1,0,0:0:0:40:Hit.wav
192,192,95590,1,0,0:0:0:20:Fast Hit.wav
64,192,95824,1,0,0:0:0:40:Kick.wav
320,192,95824,1,0,0:0:0:30:Hit Open.wav
320,192,96058,1,0,0:0:0:20:Kick.wav
192,192,96058,1,0,0:0:0:20:Kick2.wav
64,192,96293,1,0,0:0:0:30:Hit Open.wav
192,192,96293,1,0,0:0:0:40:Hit.wav
320,192,96527,1,0,0:0:0:20:Fast Hit.wav
64,192,96762,1,0,0:0:0:30:Hit Open.wav
192,192,96762,1,0,0:0:0:40:Kick.wav
320,192,96996,1,0,0:0:0:20:Kick2.wav
448,192,96996,1,0,0:0:0:20:Kick.wav
192,192,97230,1,0,0:0:0:20:Kick2.wav
64,192,97230,1,0,0:0:0:30:Hit Open.wav
448,192,97230,1,0,0:0:0:20:Hit.wav
320,192,97465,1,0,0:0:0:20:Fast Hit.wav
192,192,97699,1,0,0:0:0:40:Kick.wav
448,192,97699,128,0,97933:0:0:0:30:Hit Open.wav
64,192,97933,1,0,0:0:0:20:Kick2.wav
320,192,97933,128,0,98168:0:0:0:20:Kick.wav
64,192,98168,1,0,0:0:0:20:Hit.wav
448,192,98168,1,0,0:0:0:20:Kick2.wav
192,192,98168,128,0,98402:0:0:0:30:Hit Open.wav
320,192,98402,128,0,98637:0:0:0:10:Fast Hit.wav
448,192,98637,1,0,0:0:0:30:Hit Open.wav
64,192,98637,1,0,0:0:0:20:Kick.wav
192,192,98871,1,0,0:0:0:40:Kick.wav
320,192,98871,1,0,0:0:0:20:Kick2.wav
448,192,99105,1,0,0:0:0:30:Hit Open.wav
64,192,99105,1,0,0:0:0:20:Hit.wav
192,192,99105,1,0,0:0:0:20:Kick2.wav
320,192,99340,1,0,0:0:0:20:Fast Hit.wav
192,192,99457,1,0,0:0:0:20:Fast Hit.wav
448,192,99574,1,0,0:0:0:30:Hit Open.wav
64,192,99574,1,0,0:0:0:40:Kick.wav
320,192,99808,1,0,0:0:0:20:Kick2.wav
192,192,99808,1,0,0:0:0:20:Kick.wav
448,192,100043,1,0,0:0:0:30:Hit Open.wav
64,192,100043,1,0,0:0:0:20:Hit.wav
192,192,100043,1,0,0:0:0:20:Kick2.wav
320,192,100277,1,0,0:0:0:20:Fast Hit.wav
192,192,100512,1,0,0:0:0:40:Kick.wav
448,192,100512,1,0,0:0:0:30:Hit Open.wav
320,192,100746,1,0,0:0:0:20:Kick2.wav
64,192,100746,1,0,0:0:0:20:Kick.wav
64,192,100980,1,0,0:0:0:20:Hit.wav
192,192,100980,1,0,0:0:0:20:Kick2.wav
448,192,100980,1,0,0:0:0:30:Hit Open.wav
320,192,101215,1,0,0:0:0:20:Fast Hit.wav
192,192,101332,1,0,0:0:0:20:Fast Hit.wav
448,192,101449,1,0,0:0:0:40:Kick.wav
64,192,101449,1,0,0:0:0:30:Hit Open.wav
320,192,101683,1,0,0:0:0:20:Kick2.wav
192,192,101683,1,0,0:0:0:20:Kick.wav
64,192,101918,1,0,0:0:0:30:Hit Open.wav
448,192,101918,1,0,0:0:0:20:Hit.wav
320,192,101918,1,0,0:0:0:20:Kick2.wav
192,192,102035,1,0,0:0:0:20:Kick.wav
320,192,102152,1,0,0:0:0:20:Kick2.wav
448,192,102152,1,0,0:0:0:20:Kick.wav
64,192,102387,1,0,0:0:0:20:Hit.wav
448,192,102387,1,0,0:0:0:20:Kick2.wav
192,192,102387,1,0,0:0:0:30:Finish.wav
320,192,102621,1,0,0:0:0:20:Fast Hit.wav
64,192,102855,1,0,0:0:0:20:Fast Hit.wav
320,192,103090,1,0,0:0:0:20:Kick.wav
448,192,103090,1,0,0:0:0:20:Kick2.wav
192,192,103324,1,0,0:0:0:20:Hit.wav
448,192,103324,1,0,0:0:0:20:Kick2.wav
64,192,103324,1,0,0:0:0:20:Hit Hat.wav
320,192,103558,1,0,0:0:0:20:Kick2.wav
64,192,103558,1,0,0:0:0:20:Kick.wav
192,192,103793,1,0,0:0:0:20:Kick.wav
448,192,103793,1,0,0:0:0:20:Kick2.wav
320,192,104027,1,0,0:0:0:20:Hit.wav
448,192,104027,1,0,0:0:0:20:Kick2.wav
64,192,104027,1,0,0:0:0:30:Symbal.wav
64,192,104496,1,0,0:0:0:20:Kick.wav
192,192,104496,1,0,0:0:0:20:Kick2.wav
320,192,104730,1,0,0:0:0:20:Hit.wav
448,192,104730,1,0,0:0:0:20:Kick2.wav
320,192,104965,1,0,0:0:0:20:Kick2.wav
192,192,104965,1,0,0:0:0:20:Kick.wav
448,192,105199,1,0,0:0:0:20:Kick2.wav
64,192,105199,1,0,0:0:0:20:Kick.wav
320,192,105316,1,0,0:0:0:20:Kick2.wav
192,192,105316,1,0,0:0:0:10:Kick.wav
64,192,105433,1,0,0:0:0:20:Kick.wav
448,192,105433,1,0,0:0:0:20:Kick2.wav
320,192,105668,1,0,0:0:0:20:Kick2.wav
192,192,105668,1,0,0:0:0:20:Kick.wav
64,192,105902,1,0,0:0:0:20:Kick.wav
192,192,105902,1,0,0:0:0:20:Kick2.wav
320,192,106137,1,0,0:0:0:30:Kick.wav
64,192,106137,1,0,0:0:0:20:Hit.wav
448,192,106137,128,0,108012:0:0:0:30:Finish.wav
320,192,108012,1,0,0:0:0:30:Kick.wav
192,192,108012,1,0,0:0:0:40:Hit.wav
64,192,108012,128,0,109418:0:0:0:30:Symbal.wav
320,192,109418,1,0,0:0:0:20:Kick2.wav
192,192,109418,1,0,0:0:0:20:Kick.wav
64,192,109887,1,0,0:0:0:30:Fast Hit.wav
448,192,109887,1,0,0:0:0:40:Kick.wav
448,192,109887,1,0,0:0:0:0:
64,192,109887,1,0,0:0:0:0:
192,192,109887,1,0,0:0:0:0:
320,192,109887,1,0,0:0:0:0:
448,192,109887,1,0,0:0:0:0:
320,192,109887,1,0,0:0:0:0:
448,192,109887,1,0,0:0:0:0:
64,192,109887,1,0,0:0:0:0:
192,192,109887,1,0,0:0:0:0:
320,192,109887,1,0,0:0:0:0:
448,192,109887,1,0,0:0:0:0:
64,192,109887,1,0,0:0:0:0:
192,192,109887,1,0,0:0:0:0:
320,192,109887,1,0,0:0:0:0:
448,192,109887,1,0,0:0:0:0:
64,192,109887,1,0,0:0:0:0:
192,192,109887,1,0,0:0:0:0:
320,192,109887,1,0,0:0:0:0:
448,192,109887,1,0,0:0:0:0:
192,192,109887,1,0,0:0:0:0:
64,192,109887,1,0,0:0:0:0:
320,192,109887,1,0,0:0:0:0:
448,192,109887,1,0,0:0:0:0:
192,192,109887,1,0,0:0:0:0:
64,192,109887,1,0,0:0:0:0:
320,192,109887,1,0,0:0:0:0:
448,192,109887,1,0,0:0:0:0:
192,192,109887,1,0,0:0:0:0:
64,192,109887,1,0,0:0:0:0:
192,192,109887,1,0,0:0:0:0:
64,192,109887,1,0,0:0:0:0:
320,192,109887,1,0,0:0:0:0:
448,192,109887,1,0,0:0:0:0:
192,192,109887,1,0,0:0:0:0:
64,192,109887,1,0,0:0:0:0:
320,192,109887,1,0,0:0:0:0:
448,192,109887,1,0,0:0:0:0:
192,192,109887,1,0,0:0:0:0:
64,192,109887,1,0,0:0:0:0:
320,192,109887,1,0,0:0:0:0:
448,192,109887,1,0,0:0:0:0:
192,192,109887,1,0,0:0:0:0:
64,192,109887,1,0,0:0:0:0:
320,192,109887,1,0,0:0:0:0:
448,192,109887,1,0,0:0:0:0:
64,192,109887,1,0,0:0:0:0:
192,192,109887,1,0,0:0:0:0:
448,192,109887,1,0,0:0:0:0:
320,192,109887,1,0,0:0:0:0:
64,192,109887,1,0,0:0:0:0:
192,192,109887,1,0,0:0:0:0:
448,192,109887,1,0,0:0:0:0:
320,192,109887,1,0,0:0:0:0:
64,192,109887,1,0,0:0:0:0:
192,192,109887,1,0,0:0:0:0:
448,192,109887,1,0,0:0:0:0:
320,192,109887,1,0,0:0:0:0:
192,192,109887,1,0,0:0:0:0:
64,192,109887,1,0,0:0:0:0:
320,192,109887,1,0,0:0:0:0:
448,192,109887,1,0,0:0:0:0:
192,192,109887,1,0,0:0:0:0:
64,192,109887,1,0,0:0:0:0:
320,192,109887,1,0,0:0:0:0:
448,192,109887,1,0,0:0:0:0:
448,192,109887,1,0,0:0:0:0:
320,192,109887,1,0,0:0:0:0:
192,192,109887,1,0,0:0:0:0:
64,192,109887,1,0,0:0:0:0:
448,192,109887,1,0,0:0:0:0:
320,192,109887,1,0,0:0:0:0:
192,192,109887,1,0,0:0:0:0:
64,192,109887,1,0,0:0:0:0:
448,192,109887,1,0,0:0:0:0:
320,192,109887,1,0,0:0:0:0:
192,192,109887,1,0,0:0:0:0:
64,192,109887,1,0,0:0:0:0:
192,192,109887,1,0,0:0:0:0:
64,192,109887,1,0,0:0:0:0:
320,192,109887,1,0,0:0:0:0:
448,192,109887,1,0,0:0:0:0:
320,192,109887,1,0,0:0:0:0:
192,192,109887,1,0,0:0:0:0:
64,192,109887,1,0,0:0:0:0:
192,192,109887,1,0,0:0:0:0:
64,192,109887,1,0,0:0:0:0:
320,192,109887,1,0,0:0:0:0:
448,192,109887,1,0,0:0:0:0:
192,192,109887,1,0,0:0:0:0:
64,192,109887,1,0,0:0:0:0:
320,192,109887,1,0,0:0:0:0:
448,192,109887,1,0,0:0:0:0:
192,192,109887,1,0,0:0:0:0:
64,192,109887,1,0,0:0:0:0:
320,192,109887,1,0,0:0:0:0:
448,192,109887,1,0,0:0:0:0:
448,192,109887,1,0,0:0:0:0:
320,192,109887,1,0,0:0:0:0:
192,192,109887,1,0,0:0:0:0:
64,192,109887,1,0,0:0:0:0:
448,192,109887,1,0,0:0:0:0:
320,192,109887,1,0,0:0:0:0:
192,192,109887,1,0,0:0:0:0:
64,192,109887,1,0,0:0:0:0:
448,192,109887,1,0,0:0:0:0:
320,192,109887,1,0,0:0:0:0:
192,192,109887,1,0,0:0:0:0:
64,192,109887,1,0,0:0:0:0:
