osu file format v14

[General]
AudioFilename: 01. Koiyuki.mp3
AudioLeadIn: 2000
PreviewTime: 74789
Countdown: 0
SampleSet: Soft
StackLeniency: 0.7
Mode: 0
LetterboxInBreaks: 0
WidescreenStoryboard: 0

[Editor]
DistanceSpacing: 1.5
BeatDivisor: 4
GridSize: 4
TimelineZoom: 1.8

[Metadata]
Title:Koi Yuki
TitleUnicode:恋い雪
Artist:Silent Siren
ArtistUnicode:Silent Siren
Creator:-Hakurei-
Version:Yuki
Source:
Tags:サイレント サイレン あいにゃん クボナオキ サイサイ lit120 full version snow in love
BeatmapID:710753
BeatmapSetID:319303

[Difficulty]
HPDrainRate:6
CircleSize:4
OverallDifficulty:7
ApproachRate:8
SliderMultiplier:1.6
SliderTickRate:1

[Events]
//Background and Video events
0,0,"BG.jpg",0,0
//Break Periods
2,203426,206461
//Storyboard Layer 0 (Background)
//Storyboard Layer 1 (Fail)
//Storyboard Layer 2 (Pass)
//Storyboard Layer 3 (Foreground)
//Storyboard Sound Samples

[TimingPoints]
721,545.454545454546,4,2,3,40,1,0
721,-117.647058823529,4,2,3,40,0,0
2085,545.454545454546,4,2,3,40,1,0
2085,-117.647058823529,4,2,3,40,0,0
5903,-117.647058823529,4,2,3,20,0,0
6448,-117.647058823529,4,2,3,40,0,0
10266,-117.647058823529,4,2,3,20,0,0
10539,-117.647058823529,4,2,3,40,0,0
12994,645.161290322581,4,2,3,40,1,0
14284,674.157303370787,4,2,3,30,1,0
14958,705.882352941176,4,2,3,20,1,0
15663,561.797752808989,4,2,3,20,1,0
17634,468.75,4,2,1,50,1,0
17836,468.75,4,2,1,70,1,0
20882,-100,4,2,1,55,0,0
21117,-100,4,2,1,70,0,0
26507,-100,4,2,1,55,0,0
26742,-100,4,2,1,70,0,0
29086,-100,4,2,3,70,0,0
30961,-100,4,2,2,55,0,0
45961,-117.647058823529,4,2,1,70,0,0
60961,-100,4,2,1,70,0,0
73851,-100,4,2,1,65,0,0
74320,-100,4,2,1,70,0,0
74789,-100,4,2,1,75,0,0
75961,-83.3333333333333,4,2,1,80,0,1
105961,-200,4,2,1,80,0,0
109711,-100,4,2,1,70,0,0
137601,-100,4,2,1,65,0,0
138070,-100,4,2,1,70,0,0
138539,-100,4,2,1,75,0,0
139007,-100,4,2,1,80,0,0
139711,-83.3333333333333,4,2,1,80,0,1
169711,-200,4,2,1,80,0,0
171586,-100,4,2,1,50,0,0
171820,-100,4,2,1,55,0,0
172054,-100,4,2,1,60,0,0
172289,-100,4,2,1,65,0,0
172523,-100,4,2,1,70,0,0
173461,-100,4,2,1,80,0,0
207211,-117.647058823529,4,2,3,40,0,0
221507,-117.647058823529,4,2,3,20,0,0
222211,-117.647058823529,4,2,3,40,0,0
235336,-100,4,2,1,80,0,0
237211,-83.3333333333333,4,2,1,80,0,1
267211,-200,4,2,1,80,0,0
269086,-100,4,2,1,40,0,0
270961,-100,4,2,1,80,0,0
300961,472.44094488189,4,2,3,40,1,0
308283,-100,4,2,3,20,0,0

[Colours]
Combo1 : 255,128,192
Combo2 : 177,114,211
Combo3 : 248,197,101
Combo4 : 183,177,235

[HitObjects]
144,200,721,5,0,0:0:0:0:
144,200,993,1,0,0:0:0:0:
144,200,1266,1,0,0:0:0:0:
193,293,1539,1,2,0:0:0:0:
91,295,1812,1,2,0:0:0:0:
144,200,2085,6,0,L|200:108,1,68.0000012969971
324,200,2630,2,0,L|268:108,1,68.0000012969971,2|2,0:0|0:0,0:0:0:0:
232,84,3175,2,0,P|160:60|76:132,1,136.000002593994,2|0,0:0|0:0,0:0:0:0:
52,144,3994,1,0,0:0:0:0:
28,220,4266,5,2,0:0:0:0:
60,296,4539,2,0,P|88:324|124:336,1,68.0000012969971,2|2,0:0|0:0,0:0:0:0:
196,324,5085,1,0,0:0:0:0:
244,256,5357,2,0,B|289:197|245:153|201:173|201:173|157:153|117:197|156:255,1,272.000005187988,2|2,0:0|0:0,0:0:0:0:
196,324,6721,21,0,0:0:0:0:
272,348,6994,1,0,0:0:0:0:
352,328,7266,1,2,0:0:0:0:
396,260,7539,2,0,P|404:148|380:116,1,136.000002593994,2|0,0:0|0:0,0:0:0:0:
320,104,8357,1,0,0:0:0:0:
320,104,8630,5,2,0:0:0:0:
221,222,8903,1,2,0:0:0:0:
369,182,9176,1,2,0:0:0:0:
226,127,9448,1,0,0:0:0:0:
309,255,9721,2,0,P|332:316|216:328,1,204.000003890991,2|0,0:0|0:0,0:0:0:0:
200,316,10675,1,0,0:0:0:0:
176,284,10812,6,0,L|124:216,1,68.0000012969971,2|0,0:0|0:0,0:0:0:0:
212,208,11357,2,0,L|200:123,1,68.0000012969971,2|0,0:0|0:0,0:0:0:0:
284,160,11903,2,0,P|340:100|396:100,1,136.000002593994,2|2,0:0|0:0,0:0:0:0:
452,148,12721,1,2,0:0:0:0:
452,148,12994,22,0,L|464:240,1,80,0|2,0:0|0:0,0:0:0:0:
292,312,13961,1,0,0:0:0:0:
292,312,14284,6,0,P|216:304|164:240,1,160,2|2,0:0|0:0,0:0:0:0:
364,72,15663,1,2,0:0:0:0:
92,120,17634,6,0,L|92:168,1,40
148,72,17836,22,0,L|228:56,1,80,6|0,0:0|0:0,0:0:0:0:
348,148,18304,2,0,L|268:132,1,80,2|8,0:0|0:3,0:0:0:0:
173,223,18773,1,2,0:0:0:0:
56,304,19007,1,0,0:0:0:0:
173,223,19242,1,10,0:0:0:0:
40,188,19476,1,8,0:3:0:0:
173,223,19711,6,0,P|228:205|241:168,1,80,6|0,0:0|0:0,0:0:0:0:
159,28,20179,2,0,P|119:30|93:59,1,80,2|8,0:0|0:3,0:0:0:0:
268,116,20648,2,0,P|265:76|236:50,1,80,2|8,0:0|3:0,0:0:0:0:
67,130,21117,2,0,P|84:185|121:198,1,80,10|0,0:0|0:0,0:0:0:0:
208,232,21586,5,6,0:0:0:0:
343,180,21820,1,0,0:0:0:0:
229,91,22054,1,2,0:0:0:0:
208,232,22289,2,0,P|248:312|332:304,1,160,8|8,3:0|3:0,0:0:0:0:
396,268,22992,1,10,0:0:0:0:
412,176,23226,1,0,0:0:0:0:
392,84,23461,22,0,P|368:40|340:24,1,80,6|0,0:0|0:0,0:0:0:0:
228,52,23929,2,0,P|204:83|199:123,1,80,2|8,0:0|0:3,0:0:0:0:
204,240,24398,1,2,0:0:0:0:
376,288,24632,1,8,3:0:0:0:
264,340,24866,1,10,0:0:0:0:
312,168,25101,1,0,0:0:0:0:
288,60,25336,6,0,P|232:48|200:64,1,80,6|0,0:0|0:0,0:0:0:0:
120,120,25804,2,0,P|110:176|128:207,1,80,2|8,0:0|0:3,0:0:0:0:
204,268,26273,1,2,0:0:0:0:
380,304,26507,1,8,3:0:0:0:
268,368,26742,1,10,0:0:0:0:
320,204,26976,1,8,3:0:0:0:
224,80,27211,6,0,L|148:40,1,80,6|0,0:0|0:0,0:0:0:0:
40,88,27679,1,2,0:0:0:0:
24,184,27914,1,8,0:3:0:0:
24,280,28148,1,2,0:0:0:0:
188,308,28382,1,0,0:0:0:0:
128,212,28617,1,2,0:0:0:0:
84,376,28851,1,12,0:0:0:0:
280,252,29086,22,0,P|328:232|364:232,2,80,2|0|0,0:0|0:0|0:0,0:0:0:0:
188,140,29789,2,0,P|140:120|104:120,2,80,2|0|0,0:0|0:0|0:0,0:0:0:0:
316,88,30492,2,0,P|364:68|400:68,1,80,2|0,0:0|0:0,0:0:0:0:
472,124,30961,5,4,0:0:0:0:
85,222,31429,6,0,P|61:302|108:360,2,160,8|0|8,0:0|0:0|0:0,0:0:0:0:
168,176,32601,1,0,0:0:0:0:
256,144,32836,1,2,0:0:0:0:
344,176,33070,1,0,0:0:0:0:
427,222,33304,2,0,P|451:302|404:360,1,160,8|0,0:0|0:0,0:0:0:0:
320,316,34007,22,0,L|280:232,1,80,0|8,0:0|0:0,0:0:0:0:
256,144,34476,1,2,0:0:0:0:
256,32,34711,1,2,0:0:0:0:
368,32,34945,5,0,0:0:0:0:
467,86,35179,1,8,0:0:0:0:
368,145,35414,1,0,0:0:0:0:
144,352,35882,5,0,0:0:0:0:
45,298,36116,1,8,0:0:0:0:
144,239,36351,1,0,0:0:0:0:
321,228,36586,21,2,0:0:0:0:
451,241,36820,1,0,0:0:0:0:
373,347,37054,1,8,0:0:0:0:
321,228,37289,1,0,0:0:0:0:
451,241,37523,2,0,P|446:313|363:345,1,160,0|8,0:0|0:0,0:0:0:0:
321,228,38226,1,2,0:0:0:0:
243,333,38460,1,2,0:0:0:0:
344,80,38929,6,0,P|288:26|212:40,2,160,8|0|8,0:0|0:0|0:0,0:0:0:0:
368,172,40101,1,0,0:0:0:0:
344,264,40336,1,2,0:0:0:0:
264,316,40570,1,0,0:0:0:0:
168,308,40804,2,0,P|102:268|95:191,1,160,8|0,0:0|0:0,0:0:0:0:
116,96,41507,5,0,0:0:0:0:
180,22,41742,1,8,0:0:0:0:
209,115,41976,1,2,0:0:0:0:
116,96,42211,21,2,0:0:0:0:
144,188,42445,2,0,L|172:284,2,80,0|8|0,0:0|0:0|0:0,0:0:0:0:
256,192,43148,1,0,0:0:0:0:
368,196,43382,2,0,L|340:100,2,80,0|8|0,0:0|0:0|0:0,0:0:0:0:
312,276,44086,5,2,0:0:0:0:
171,342,44320,1,0,0:0:0:0:
247,206,44555,1,8,0:0:0:0:
266,360,44789,1,0,0:0:0:0:
160,247,45023,2,0,P|160:160|229:113,1,160,0|8,0:0|0:0,0:0:0:0:
309,230,45726,1,2,0:0:0:0:
160,247,45961,1,6,0:0:0:0:
312,100,46429,5,0,0:0:0:0:
433,48,46664,1,8,0:0:0:0:
417,179,46898,2,0,P|388:252|336:284,1,136.000002593994,0|8,0:0|0:0,0:0:0:0:
244,316,47601,1,2,0:0:0:0:
156,264,47836,1,2,0:0:0:0:
112,172,48070,22,0,P|91:96|108:40,2,136.000002593994,0|8|0,0:0|0:0|0:0,0:0:0:0:
222,281,49242,1,8,0:0:0:0:
337,281,49476,1,0,0:0:0:0:
337,166,49711,2,0,P|278:98|222:168,2,204.000003890991,2|8|8,0:0|0:0|0:0,0:0:0:0:
260,296,51351,1,2,0:0:0:0:
114,229,51586,5,2,0:0:0:0:
162,61,51820,1,0,0:0:0:0:
53,119,52054,1,0,0:0:0:0:
221,167,52289,1,8,0:0:0:0:
221,167,52523,2,0,P|282:221|330:213,1,136.000002593994,0|8,0:0|0:0,0:0:0:0:
442,147,53226,1,2,0:0:0:0:
330,81,53461,1,2,0:0:0:0:
152,108,53929,6,0,P|92:140|64:212,2,136.000002593994,0|0|8,0:0|0:0|0:0,0:0:0:0:
232,92,55101,1,2,0:0:0:0:
208,172,55336,2,0,L|184:244,1,68.0000012969971,2|0,0:0|0:0,0:0:0:0:
164,336,55804,2,0,P|204:340|236:328,1,68.0000012969971,0|8,0:0|0:0,0:0:0:0:
312,248,56273,1,0,0:0:0:0:
421,357,56507,1,0,0:0:0:0:
397,205,56742,1,8,0:0:0:0:
326,341,56976,1,2,0:0:0:0:
462,272,57211,21,2,0:0:0:0:
312,248,57445,2,0,L|232:236,2,68.0000012969971,0|0|8,0:0|0:0|0:0,0:0:0:0:
368,168,58148,1,0,0:0:0:0:
416,88,58382,2,0,L|448:28,2,68.0000012969971,0|8|2,0:0|0:0|0:0,0:0:0:0:
392,216,59086,5,2,0:0:0:0:
262,260,59320,1,0,0:0:0:0:
289,127,59554,1,0,0:0:0:0:
392,216,59789,1,8,0:0:0:0:
262,260,60023,2,0,P|204:264|168:252,1,68.0000012969971
136,204,60492,2,0,P|141:146|158:112,1,68.0000012969971,8|2,0:0|0:0,0:0:0:0:
176,108,60843,1,0,0:0:0:0:
176,108,60961,5,6,0:0:0:0:
240,32,61195,1,0,0:0:0:0:
313,97,61429,1,0,0:0:0:0:
249,170,61664,2,0,P|232:232|320:224,1,160,8|0,0:0|0:0,0:0:0:0:
376,176,62367,1,8,0:0:0:0:
313,97,62601,1,2,0:0:0:0:
220,68,62836,21,2,0:0:0:0:
176,256,63070,1,0,0:0:0:0:
112,148,63304,1,0,0:0:0:0:
296,212,63539,2,0,B|340:224|340:224|392:200|388:124,1,160,8|2,0:0|0:0,0:0:0:0:
296,68,64242,1,8,0:0:0:0:
196,112,64476,1,2,0:0:0:0:
115,237,64711,5,2,0:0:0:0:
255,181,64946,1,0,0:0:0:0:
108,144,65180,1,0,0:0:0:0:
203,259,65414,2,0,P|289:282|329:210,1,160,8|2,0:0|0:0,0:0:0:0:
340,148,66117,1,8,0:0:0:0:
304,68,66351,1,2,0:0:0:0:
220,44,66586,6,0,L|128:28,1,80,2|0,0:0|0:0,0:0:0:0:
140,216,67054,2,0,L|232:232,1,80,0|8,0:0|0:0,0:0:0:0:
376,260,67523,1,0,0:0:0:0:
481,279,67757,1,2,0:0:0:0:
502,171,67992,1,8,0:0:0:0:
395,149,68226,1,2,0:0:0:0:
376,260,68461,22,0,P|288:296|248:244,1,160,6|8,0:0|0:0,0:0:0:0:
232,172,69164,1,0,0:0:0:0:
236,84,69398,2,0,P|256:44|292:24,2,80,2|2|8,0:0|0:0|0:0,0:0:0:0:
232,172,70101,1,0,0:0:0:0:
77,192,70336,5,2,0:0:0:0:
256,13,70804,1,8,0:0:0:0:
434,192,71273,1,2,0:0:0:0:
256,370,71742,1,8,0:0:0:0:
184,160,72211,6,0,L|96:132,2,80,6|0|8,0:0|0:0|0:0,0:0:0:0:
256,236,72914,1,2,0:0:0:0:
328,160,73148,2,0,L|416:132,2,80,2|0|8,0:0|0:0|0:0,0:0:0:0:
111,301,73851,21,4,0:0:0:0:
402,302,74320,1,4,0:0:0:0:
256,50,74788,1,4,0:0:0:0:
180,101,75961,6,0,P|234:53|262:49,1,95.9999970703126,6|2,0:0|0:0,0:0:0:0:
348,69,76429,1,8,0:0:0:0:
384,157,76664,1,0,0:0:0:0:
356,249,76898,2,0,P|302:297|274:301,1,95.9999970703126,2|2,0:0|0:0,0:0:0:0:
188,269,77367,1,8,0:0:0:0:
128,196,77601,1,0,0:0:0:0:
128,100,77836,5,2,0:0:0:0:
28,40,78070,1,2,0:0:0:0:
28,158,78304,2,0,L|28:264,1,95.9999970703126,8|0,0:0|0:0,0:0:0:0:
32,352,78773,2,0,P|80:371|136:352,1,95.9999970703126,2|2,0:0|0:0,0:0:0:0:
224,312,79242,1,8,0:0:0:0:
283,213,79476,1,0,0:0:0:0:
284,80,79711,21,2,0:0:0:0:
202,204,79945,1,2,0:0:0:0:
284,80,80179,1,8,0:0:0:0:
361,204,80414,1,0,0:0:0:0:
284,80,80648,2,0,P|204:60|188:72,1,95.9999970703126,2|2,0:0|0:0,0:0:0:0:
160,288,81117,2,0,P|240:308|256:296,1,95.9999970703126,8|0,0:0|0:0,0:0:0:0:
288,228,81586,5,2,0:0:0:0:
308,144,81820,1,2,0:0:0:0:
348,68,82054,2,0,P|412:52|476:148,1,191.999994140625,8|2,0:0|0:0,0:0:0:0:
456,228,82757,1,2,0:0:0:0:
372,240,82992,1,8,0:0:0:0:
308,180,83226,1,0,0:0:0:0:
244,118,83461,6,0,P|180:112|152:124,1,95.9999970703126,2|2,0:0|0:0,0:0:0:0:
160,240,83929,2,0,P|224:246|252:234,1,95.9999970703126,8|0,0:0|0:0,0:0:0:0:
88,60,84398,2,0,P|61:118|63:148,1,95.9999970703126,2|2,0:0|0:0,0:0:0:0:
324,300,84866,2,0,P|350:241|348:211,1,95.9999970703126,8|0,0:0|0:0,0:0:0:0:
299,64,85336,21,2,0:0:0:0:
299,64,85571,1,2,0:0:0:0:
156,120,85805,1,8,0:0:0:0:
156,120,86039,1,0,0:0:0:0:
136,264,86273,2,0,P|140:320|172:344,1,95.9999970703126,2|2,0:0|0:0,0:0:0:0:
343,342,86742,2,0,P|376:310|376:264,1,95.9999970703126,8|0,0:0|0:0,0:0:0:0:
284,76,87211,5,2,0:0:0:0:
279,231,87445,1,2,0:0:0:0:
416,304,87679,1,8,0:0:0:0:
416,150,87914,1,0,0:0:0:0:
284,76,88148,2,0,P|212:52|164:60,1,95.9999970703126,2|2,0:0|0:0,0:0:0:0:
156,220,88617,2,0,P|228:244|276:236,1,95.9999970703126,8|0,0:0|0:0,0:0:0:0:
352,112,89086,5,2,0:0:0:0:
464,168,89320,1,2,0:0:0:0:
352,220,89554,1,8,0:0:0:0:
464,276,89789,1,0,0:0:0:0:
352,328,90023,1,2,0:0:0:0:
240,276,90257,1,2,0:0:0:0:
240,168,90492,1,8,0:0:0:0:
240,140,90609,1,8,0:0:0:0:
240,112,90726,1,8,0:0:0:0:
240,84,90843,1,8,0:0:0:0:
240,56,90961,22,0,P|196:32|152:44,1,95.9999970703126,6|2,0:0|0:0,0:0:0:0:
140,196,91429,2,0,P|184:220|228:208,1,95.9999970703126,8|0,0:0|0:0,0:0:0:0:
80,136,91898,2,0,P|53:178|63:223,1,95.9999970703126,2|2,0:0|0:0,0:0:0:0:
136,316,92366,2,0,L|240:300,1,95.9999970703126,8|0,0:0|0:0,0:0:0:0:
296,184,92836,5,2,0:0:0:0:
296,48,93070,1,2,0:0:0:0:
412,114,93304,2,0,P|440:204|356:244,1,191.999994140625,8|2,0:0|0:0,0:0:0:0:
272,248,94007,2,0,L|152:296,2,95.9999970703126,2|8|0,0:0|0:0|0:0,0:0:0:0:
312,96,94711,5,2,0:0:0:0:
400,248,94945,1,2,0:0:0:0:
452,128,95179,1,8,0:0:0:0:
320,192,95414,1,0,0:0:0:0:
196,132,95648,2,0,P|160:100|108:104,1,95.9999970703126,2|2,0:0|0:0,0:0:0:0:
68,236,96117,2,0,P|104:268|156:264,1,95.9999970703126,8|0,0:0|0:0,0:0:0:0:
224,224,96586,21,2,0:0:0:0:
292,172,96820,1,2,0:0:0:0:
380,168,97054,2,0,L|480:200,1,95.9999970703126,8|0,0:0|0:0,0:0:0:0:
468,332,97523,2,0,L|368:300,1,95.9999970703126,2|2,0:0|0:0,0:0:0:0:
296,268,97992,1,8,0:0:0:0:
232,208,98226,1,0,0:0:0:0:
220,124,98461,6,0,P|232:68|280:48,1,95.9999970703126,2|2,0:0|0:0,0:0:0:0:
396,112,98929,2,0,P|384:168|336:188,1,95.9999970703126,8|0,0:0|0:0,0:0:0:0:
206,241,99398,2,0,P|169:269|164:316,1,95.9999970703126,2|2,0:0|0:0,0:0:0:0:
268,364,99866,2,0,P|305:336|311:290,1,95.9999970703126,8|0,0:0|0:0,0:0:0:0:
199,172,100336,5,2,0:0:0:0:
104,141,100570,1,2,0:0:0:0:
104,43,100804,1,8,0:0:0:0:
199,13,101039,1,0,0:0:0:0:
256,93,101273,1,2,0:0:0:0:
312,13,101507,1,2,0:0:0:0:
407,43,101742,1,8,0:0:0:0:
407,141,101976,1,2,0:0:0:0:
312,172,102211,22,0,L|304:268,2,95.9999970703126,4|0|0,0:0|0:0|0:0,0:0:0:0:
248,100,102914,2,0,P|184:71|136:83,1,95.9999970703126,2|8,0:0|0:0,0:0:0:0:
76,120,103382,2,0,P|47:184|59:232,1,95.9999970703126,8|8,3:0|3:0,0:0:0:0:
84,316,103851,6,0,P|156:344|264:304,1,191.999994140625,12|8,0:0|3:0,0:0:0:0:
320,208,104554,1,8,3:0:0:0:
368,104,104789,1,8,3:0:0:0:
472,156,105023,1,4,3:0:0:0:
472,156,105140,1,4,3:0:0:0:
472,156,105257,1,4,3:0:0:0:
420,260,105492,2,4,P|372:304|312:300,1,95.9999970703126,8|8,3:0|3:0,0:3:0:0:
224,316,105961,22,0,B|156:332|156:332|132:280|144:176|196:128,1,280,6|0,0:0|0:0,0:0:0:0:
212,92,107836,2,0,P|249:49|328:92,1,160,6|0,0:0|0:0,0:0:0:0:
332,188,109242,2,0,L|334:271,1,80,8|4,3:0|3:0,0:0:0:0:
156,304,110179,5,0,0:0:0:0:
108,220,110414,1,8,0:0:0:0:
120,124,110648,1,0,0:0:0:0:
184,52,110882,2,0,P|228:32|276:28,2,80,0|8|2,0:0|0:0|0:0,0:0:0:0:
120,124,111586,5,2,0:0:0:0:
139,244,111820,1,0,0:0:0:0:
235,169,112055,1,0,0:0:0:0:
254,289,112289,1,8,0:0:0:0:
350,214,112523,2,0,L|420:164,2,80,0|0|8,0:0|0:0|0:0,0:0:0:0:
254,289,113226,1,2,0:0:0:0:
192,207,113461,1,2,0:0:0:0:
132,124,113695,6,0,L|76:56,2,80,0|0|8,0:0|0:0|0:0,0:0:0:0:
380,124,114632,2,0,L|436:56,2,80,0|8|2,0:0|0:0|0:0,0:0:0:0:
292,239,115336,21,2,0:0:0:0:
430,195,115570,1,0,0:0:0:0:
293,148,115804,1,0,0:0:0:0:
376,267,116039,1,8,0:0:0:0:
380,124,116273,2,0,P|360:60|324:40,1,80
264,16,116742,2,0,P|200:36|180:72,1,80,8|2,0:0|0:0,0:0:0:0:
148,124,117211,6,0,P|140:184|216:256,1,160,2|0,0:0|0:0,0:0:0:0:
335,229,117914,1,8,0:0:0:0:
288,354,118148,1,0,0:0:0:0:
203,253,118382,1,0,0:0:0:0:
335,229,118617,2,0,P|396:184|408:160,2,80,8|2|2,0:0|0:0|0:0,0:0:0:0:
213,322,119320,5,0,0:0:0:0:
257,174,119555,1,0,0:0:0:0:
306,320,119789,1,8,0:0:0:0:
181,231,120023,1,0,0:0:0:0:
335,229,120257,2,0,L|416:228,2,80,0|8|2,0:0|0:0|0:0,0:0:0:0:
240,228,120961,21,2,0:0:0:0:
149,231,121195,2,0,L|65:231,2,80,0|0|8,0:0|0:0|0:0,0:0:0:0:
444,165,122132,5,0,0:0:0:0:
336,228,122366,1,8,0:0:0:0:
444,290,122601,1,2,0:0:0:0:
336,228,122836,6,0,P|299:203|248:172,1,80,2|0,0:0|0:0,0:0:0:0:
136,100,123304,2,0,L|224:156,1,80,0|8,0:0|0:0,0:0:0:0:
359,233,123773,2,0,P|412:200|416:160,1,80
416,92,124242,2,0,P|395:58|358:45,1,80,8|2,0:0|0:0,0:0:0:0:
312,40,124593,1,0,0:0:0:0:
312,40,124711,21,6,0:0:0:0:
220,72,124945,1,0,0:0:0:0:
156,148,125179,2,0,L|140:232,1,80,0|8,0:0|0:0,0:0:0:0:
148,324,125648,2,0,P|211:324|255:305,1,80,0|2,0:0|0:0,0:0:0:0:
296,252,126117,2,0,P|316:192|312:144,1,80,8|2,0:0|0:0,0:0:0:0:
275,24,126586,5,2,0:0:0:0:
396,122,126820,1,0,0:0:0:0:
240,114,127055,1,0,0:0:0:0:
371,29,127289,1,8,0:0:0:0:
316,175,127523,2,0,P|288:236|264:260,1,80,0|2,0:0|0:0,0:0:0:0:
128,168,127992,2,0,P|156:107|180:83,1,80,8|2,0:0|0:0,0:0:0:0:
240,40,128461,5,2,0:0:0:0:
336,36,128695,1,0,0:0:0:0:
420,84,128929,2,0,L|460:168,1,80,0|8,0:0|0:0,0:0:0:0:
472,252,129398,1,0,0:0:0:0:
396,312,129632,1,2,0:0:0:0:
304,288,129866,2,0,P|260:260|240:228,1,80,8|2,0:0|0:0,0:0:0:0:
216,144,130336,22,0,P|168:144|144:172,1,80,2|0,0:0|0:0,0:0:0:0:
116,256,130804,2,0,P|52:256|36:240,1,80,0|8,0:0|0:0,0:0:0:0:
28,152,131273,2,0,P|28:108|44:72,1,80,0|2,0:0|0:0,0:0:0:0:
132,44,131742,2,0,L|220:52,1,80,8|2,0:0|0:0,0:0:0:0:
304,40,132211,6,0,P|367:19|403:31,1,80,6|0,0:0|0:0,0:0:0:0:
415,159,132679,2,0,P|352:180|316:168,1,80,8|0,0:0|0:0,0:0:0:0:
176,168,133148,2,0,P|136:168|101:187,1,80,2|2,0:0|0:0,0:0:0:0:
138,325,133616,2,0,P|177:324|212:305,1,80,8|0,0:0|0:0,0:0:0:0:
307,33,134086,5,2,0:0:0:0:
367,315,134555,1,8,0:0:0:0:
93,226,135023,1,2,0:0:0:0:
367,315,135492,1,8,0:0:0:0:
307,33,135961,21,4,0:0:0:0:
215,158,136195,1,0,0:0:0:0:
307,129,136429,1,8,0:0:0:0:
215,62,136664,1,2,0:0:0:0:
176,52,136781,1,0,0:0:0:0:
136,55,136898,1,2,0:0:0:0:
100,72,137015,1,0,0:0:0:0:
71,99,137132,1,0,0:0:0:0:
53,135,137249,1,0,0:0:0:0:
48,174,137367,1,8,0:0:0:0:
56,213,137484,1,0,0:0:0:0:
76,247,137601,5,4,0:0:0:0:
353,343,138069,1,4,0:0:0:0:
298,52,138538,1,4,0:0:0:0:
64,168,139007,5,8,0:0:0:0:
64,192,139125,1,8,0:0:0:0:
64,216,139242,1,8,0:0:0:0:
64,240,139359,1,8,0:0:0:0:
64,264,139476,1,8,0:0:0:0:
64,288,139593,1,8,0:0:0:0:
64,312,139711,22,0,P|92:364|152:360,1,95.9999970703126,6|2,0:0|0:0,0:0:0:0:
240,372,140179,2,0,P|283:356|300:313,1,95.9999970703126,8|0,0:0|0:0,0:0:0:0:
304,108,140648,1,2,0:0:0:0:
242,233,140882,1,2,0:0:0:0:
304,108,141117,1,8,0:0:0:0:
396,204,141351,1,0,0:0:0:0:
304,108,141586,6,0,P|248:52|208:40,1,95.9999970703126,2|2,0:0|0:0,0:0:0:0:
172,144,142054,2,0,P|116:200|104:240,1,95.9999970703126,8|0,0:0|0:0,0:0:0:0:
208,276,142523,2,0,P|264:332|304:344,1,95.9999970703126,2|2,0:0|0:0,0:0:0:0:
340,240,142992,2,0,P|396:184|408:144,1,95.9999970703126,8|0,0:0|0:0,0:0:0:0:
215,18,143461,5,2,0:0:0:0:
314,110,143695,1,2,0:0:0:0:
185,148,143929,1,8,0:0:0:0:
314,110,144164,1,0,0:0:0:0:
185,148,144398,2,0,L|68:188,1,95.9999970703126,2|2,0:0|0:0,0:0:0:0:
92,296,144867,2,0,L|209:256,1,95.9999970703126,8|0,0:0|0:0,0:0:0:0:
281,325,145336,21,2,0:0:0:0:
341,228,145570,1,2,0:0:0:0:
244,166,145804,1,8,0:0:0:0:
183,265,146039,1,0,0:0:0:0:
281,325,146273,2,0,P|340:336|376:320,1,95.9999970703126,2|2,0:0|0:0,0:0:0:0:
364,136,146742,2,0,P|305:125|269:141,1,95.9999970703126,8|0,0:0|0:0,0:0:0:0:
128,212,147211,6,0,P|111:256|117:304,1,95.9999970703126,2|2,0:0|0:0,0:0:0:0:
281,325,147679,2,0,P|297:280|291:232,1,95.9999970703126,8|0,0:0|0:0,0:0:0:0:
288,108,148148,2,0,P|247:82|200:76,1,95.9999970703126,2|2,0:0|0:0,0:0:0:0:
96,136,148617,2,0,P|83:182|93:228,1,95.9999970703126,8|0,0:0|0:0,0:0:0:0:
180,300,149086,5,2,0:0:0:0:
364,296,149320,1,2,0:0:0:0:
272,376,149554,1,8,0:0:0:0:
320,172,149789,1,0,0:0:0:0:
256,76,150023,2,0,P|200:72|168:104,1,95.9999970703126,2|2,0:0|0:0,0:0:0:0:
212,260,150492,2,0,P|268:264|300:232,1,95.9999970703126,8|0,0:0|0:0,0:0:0:0:
296,90,150961,21,2,0:0:0:0:
422,164,151195,1,2,0:0:0:0:
296,239,151429,1,8,0:0:0:0:
296,90,151664,1,0,0:0:0:0:
422,164,151898,2,0,P|464:212|472:268,1,95.9999970703126,2|2,0:0|0:0,0:0:0:0:
384,320,152367,2,0,P|322:301|286:258,1,95.9999970703126,8|0,0:0|0:0,0:0:0:0:
256,172,152836,5,2,0:0:0:0:
363,129,153070,1,2,0:0:0:0:
406,236,153304,2,0,P|412:308|352:352,1,143.999995605469,8|8,0:0|0:0,0:0:0:0:
316,352,153773,2,0,L|212:300,1,95.9999970703126,2|2,0:0|0:0,0:0:0:0:
172,192,154242,1,8,0:0:0:0:
172,164,154359,1,8,0:0:0:0:
172,136,154476,1,8,0:0:0:0:
172,108,154593,1,8,0:0:0:0:
172,80,154711,6,0,P|200:40|264:32,1,95.9999970703126,6|2,0:0|0:0,0:0:0:0:
360,28,155179,2,0,P|405:41|431:80,1,95.9999970703126,8|0,0:0|0:0,0:0:0:0:
432,264,155648,2,0,P|405:302|360:316,1,95.9999970703126,2|2,0:0|0:0,0:0:0:0:
244,316,156117,2,0,P|198:302|172:263,1,95.9999970703126,8|0,0:0|0:0,0:0:0:0:
168,168,156586,21,2,0:0:0:0:
124,84,156820,1,2,0:0:0:0:
32,104,157054,2,0,P|24:208|100:260,1,191.999994140625,8|2,0:0|0:0,0:0:0:0:
184,256,157757,1,2,0:0:0:0:
244,180,157992,2,0,P|256:138|272:84,1,95.9999970703126,8|0,0:0|0:0,0:0:0:0:
348,32,158461,6,0,P|411:19|461:35,1,95.9999970703126,2|2,0:0|0:0,0:0:0:0:
452,168,158929,2,0,P|388:180|338:164,1,95.9999970703126,8|0,0:0|0:0,0:0:0:0:
157,122,159398,2,0,P|110:115|63:128,1,95.9999970703126,2|2,0:0|0:0,0:0:0:0:
73,269,159866,2,0,P|120:276|167:264,1,95.9999970703126,8|0,0:0|0:0,0:0:0:0:
228,192,160336,5,2,0:0:0:0:
276,108,160570,1,2,0:0:0:0:
352,52,160804,2,0,P|416:52|452:96,1,95.9999970703126,8|0,0:0|0:0,0:0:0:0:
480,160,161273,1,2,0:0:0:0:
472,256,161507,1,2,0:0:0:0:
416,336,161742,2,0,P|352:336|316:292,1,95.9999970703126,8|0,0:0|0:0,0:0:0:0:
345,173,162211,21,2,0:0:0:0:
212,228,162445,1,2,0:0:0:0:
329,317,162680,1,8,0:0:0:0:
345,173,162914,1,0,0:0:0:0:
212,228,163148,2,0,P|136:204|128:176,1,95.9999970703126,2|2,0:0|0:0,0:0:0:0:
132,76,163617,2,0,P|165:42|211:44,1,95.9999970703126,8|0,0:0|0:0,0:0:0:0:
360,104,164086,5,2,0:0:0:0:
132,196,164320,1,2,0:0:0:0:
210,43,164554,1,8,0:0:0:0:
368,208,164788,1,0,0:0:0:0:
272,120,165023,2,0,P|196:120|160:136,1,95.9999970703126,2|2,0:0|0:0,0:0:0:0:
132,232,165492,2,0,P|179:291|214:308,1,95.9999970703126,8|2,0:0|0:0,0:0:0:0:
292,320,165961,5,4,0:0:0:0:
376,276,166195,1,0,0:0:0:0:
420,192,166429,1,0,0:0:0:0:
376,108,166664,1,2,0:0:0:0:
292,64,166898,1,8,0:0:0:0:
196,83,167132,2,0,P|158:111|132:152,1,95.9999970703126,8|8,3:0|3:0,0:0:0:0:
124,248,167601,22,0,P|168:336|264:344,2,191.999994140625,12|8|8,0:0|3:0|3:0,0:0:0:0:
128,152,168773,1,4,3:0:0:0:
128,152,168890,1,4,3:0:0:0:
128,152,169007,1,4,3:0:0:0:
156,60,169242,1,8,3:0:0:0:
248,32,169476,1,8,3:0:0:0:
340,60,169711,38,0,B|408:96|444:164|444:164|384:216|316:232,1,280,6|0,0:0|0:0,0:0:0:0:
187,297,171586,5,4,0:0:0:0:
262,156,171820,1,8,0:0:0:0:
284,314,172054,1,8,0:0:0:0:
174,199,172289,1,8,0:0:0:0:
331,227,172523,2,0,P|408:220|432:188,1,120,8|8,0:0|0:0,0:0:0:0:
444,152,172992,1,8,0:0:0:0:
444,112,173109,1,8,0:0:0:0:
428,76,173226,1,8,0:0:0:0:
396,52,173343,1,8,0:0:0:0:
356,40,173461,6,0,P|288:48|264:64,1,80,6|2,0:0|0:0,0:0:0:0:
304,212,173929,2,0,P|372:204|396:188,1,80,8|0,0:0|0:0,0:0:0:0:
244,136,174398,2,0,P|176:144|152:160,1,80,2|2,0:0|0:0,0:0:0:0:
200,316,174866,2,0,P|268:308|292:292,1,80,8|0,0:0|0:0,0:0:0:0:
428,188,175336,5,2,0:0:0:0:
364,120,175570,1,2,0:0:0:0:
280,72,175804,1,8,0:0:0:0:
184,84,176039,1,0,0:0:0:0:
109,144,176273,2,0,P|85:200|93:228,1,80,2|2,0:0|0:0,0:0:0:0:
236,248,176742,2,0,P|260:192|252:164,1,80,8|0,0:0|0:0,0:0:0:0:
205,28,177211,21,2,0:0:0:0:
333,117,177445,1,2,0:0:0:0:
178,119,177679,1,8,0:0:0:0:
302,26,177914,1,0,0:0:0:0:
256,175,178148,2,0,P|248:252|260:284,1,80,2|2,0:0|0:0,0:0:0:0:
372,340,178617,2,0,P|380:263|368:231,1,80,8|0,0:0|0:0,0:0:0:0:
369,120,179086,5,2,0:0:0:0:
251,195,179320,1,2,0:0:0:0:
379,261,179554,1,8,0:0:0:0:
369,120,179789,1,0,0:0:0:0:
251,195,180023,2,0,L|240:288,1,80,2|2,0:0|0:0,0:0:0:0:
264,108,180492,2,0,L|275:15,1,80,8|0,0:0|0:0,0:0:0:0:
251,195,180961,6,0,P|228:256|212:280,1,80,2|2,0:0|0:0,0:0:0:0:
108,280,181429,2,0,P|84:247|67:211,1,80,8|0,0:0|0:0,0:0:0:0:
60,116,181898,1,2,0:0:0:0:
128,48,182132,1,2,0:0:0:0:
224,40,182367,1,8,0:0:0:0:
312,80,182601,1,0,0:0:0:0:
336,172,182836,22,0,P|348:216|344:264,1,80,2|2,0:0|0:0,0:0:0:0:
254,370,183304,2,0,P|242:326|246:278,1,80,8|0,0:0|0:0,0:0:0:0:
189,232,183773,2,0,P|233:220|281:224,1,80,2|2,0:0|0:0,0:0:0:0:
394,312,184242,2,0,P|350:324|302:320,1,80,8|0,0:0|0:0,0:0:0:0:
232,280,184711,5,2,0:0:0:0:
164,212,184945,1,2,0:0:0:0:
152,116,185179,2,0,P|168:64|192:44,1,80,8|0,0:0|0:0,0:0:0:0:
320,32,185648,2,0,P|351:56|366:92,1,80,2|2,0:0|0:0,0:0:0:0:
368,188,186117,1,8,0:0:0:0:
328,276,186351,1,0,0:0:0:0:
328,276,186468,1,0,0:0:0:0:
328,276,186586,5,2,0:0:0:0:
244,320,186820,1,2,0:0:0:0:
148,308,187054,2,0,P|104:280|92:208,1,120,12|8,0:0|0:0,0:0:0:0:
92,192,187523,1,8,0:0:0:0:
208,68,187757,1,8,0:0:0:0:
243,50,187874,1,8,0:0:0:0:
283,43,187991,1,8,0:0:0:0:
322,46,188108,1,8,0:0:0:0:
360,60,188225,1,8,0:0:0:0:
392,83,188342,1,8,0:0:0:0:
418,114,188461,22,0,P|440:164|440:204,1,80,6|2,0:0|0:0,0:0:0:0:
444,232,188812,1,0,0:0:0:0:
440,276,188929,2,0,P|416:320|384:332,1,80,8|0,0:0|0:0,0:0:0:0:
248,324,189398,1,2,0:0:0:0:
136,280,189632,1,2,0:0:0:0:
136,144,189867,1,8,0:0:0:0:
248,100,190101,1,0,0:0:0:0:
339,225,190336,5,2,0:0:0:0:
192,178,190570,1,2,0:0:0:0:
340,130,190805,1,8,0:0:0:0:
248,256,191039,1,0,0:0:0:0:
248,100,191273,2,0,L|248:0,2,80,2|2|8,0:0|0:0|0:0,0:0:0:0:
248,220,191976,1,0,0:0:0:0:
204,332,192211,1,2,0:0:0:0:
104,284,192445,5,2,0:0:0:0:
104,284,192562,1,0,0:0:0:0:
104,284,192679,2,0,L|88:176,1,80,8|0,0:0|0:0,0:0:0:0:
88,108,193148,2,0,P|108:48|136:32,1,80,2|2,0:0|0:0,0:0:0:0:
240,28,193617,2,0,P|273:48|289:84,1,80,8|0,0:0|0:0,0:0:0:0:
296,242,194086,21,2,0:0:0:0:
153,169,194320,1,2,0:0:0:0:
289,84,194554,1,8,0:0:0:0:
296,242,194789,1,0,0:0:0:0:
153,169,195023,1,2,0:0:0:0:
376,88,195492,1,8,0:0:0:0:
459,39,195727,1,0,0:0:0:0:
459,135,195961,6,0,P|444:212|384:272,1,160,2|8,0:0|0:0,0:0:0:0:
296,299,196664,1,0,0:0:0:0:
314,204,196898,1,2,0:0:0:0:
136,88,197367,1,8,0:0:0:0:
53,39,197602,1,0,0:0:0:0:
53,135,197836,6,0,P|68:212|128:272,1,160,2|8,0:0|0:0,0:0:0:0:
216,299,198539,1,0,0:0:0:0:
198,204,198773,2,0,P|196:160|212:120,2,80,2|2|8,0:0|0:0|0:0,0:0:0:0:
216,299,199476,1,0,0:0:0:0:
308,320,199711,22,0,P|380:312|396:304,1,80,2|2,0:0|0:0,0:0:0:0:
340,92,200179,2,0,P|268:100|252:108,1,80,8|0,0:0|0:0,0:0:0:0:
432,224,200648,2,0,P|424:152|416:136,1,80,2|2,0:0|0:0,0:0:0:0:
216,188,201117,2,0,P|224:260|232:276,1,80,8|0,0:0|0:0,0:0:0:0:
252,308,201468,1,8,0:0:0:0:
252,308,201586,5,2,0:0:0:0:
402,339,201820,1,2,0:0:0:0:
352,194,202054,2,0,L|324:112,1,80,8|0,0:0|0:0,0:0:0:0:
316,92,202406,1,8,0:0:0:0:
316,92,202523,5,2,0:0:0:0:
162,17,202757,1,2,0:0:0:0:
173,187,202992,1,8,0:0:0:0:
173,187,203109,1,8,0:0:0:0:
173,187,203226,1,8,0:0:0:0:
87,45,207211,21,2,0:0:0:0:
87,176,207445,1,0,0:0:0:0:
165,70,207679,1,0,0:0:0:0:
40,111,207914,1,0,0:0:0:0:
165,152,208148,2,0,P|240:168|304:156,1,136.000002593994,2|0,0:0|0:0,0:0:0:0:
376,140,208851,1,0,0:0:0:0:
452,168,209086,5,2,0:0:0:0:
468,248,209320,1,0,0:0:0:0:
440,324,209554,2,0,P|412:356|372:368,1,68.0000012969971
308,360,210023,2,0,P|272:336|256:312,2,68.0000012969971,2|0|0,0:0|0:0|0:0,0:0:0:0:
384,144,210961,5,2,0:0:0:0:
364,64,211195,1,0,0:0:0:0:
433,21,211429,1,0,0:0:0:0:
497,74,211664,1,0,0:0:0:0:
466,149,211898,2,0,L|432:236,1,68.0000012969971,2|0,0:0|0:0,0:0:0:0:
404,284,212367,2,0,P|368:312|336:312,1,68.0000012969971
214,327,212836,21,2,0:0:0:0:
311,238,213070,1,0,0:0:0:0:
284,367,213304,1,0,0:0:0:0:
230,246,213539,1,0,0:0:0:0:
346,313,213773,2,0,L|420:348,2,68.0000012969971,2|0|0,0:0|0:0|0:0,0:0:0:0:
64,240,214711,6,0,P|36:180|76:104,1,136.000002593994,2|0,0:0|0:0,0:0:0:0:
204,40,215648,2,0,P|232:100|192:176,1,136.000002593994,2|0,0:0|0:0,0:0:0:0:
140,222,216351,1,0,0:0:0:0:
123,131,216585,5,2,0:0:0:0:
208,162,216820,1,0,0:0:0:0:
140,222,217054,1,0,0:0:0:0:
389,253,217523,21,2,0:0:0:0:
304,222,217758,1,0,0:0:0:0:
372,162,217992,1,0,0:0:0:0:
140,222,218461,5,2,0:0:0:0:
123,131,218695,2,0,P|146:54|197:37,2,136.000002593994
140,222,219867,1,0,0:0:0:0:
199,296,220101,1,0,0:0:0:0:
294,296,220336,6,0,P|370:268|394:240,2,102.000001945496,2|2|2,0:0|0:0|0:0,0:0:0:0:
199,296,221273,1,2,0:0:0:0:
140,222,221507,2,0,L|124:206,4,17.0000003242493,0|0|0|0|2,0:0|0:0|0:0|0:0|0:0,0:0:0:0:
392,220,222211,21,2,0:0:0:0:
391,352,222445,1,0,0:0:0:0:
469,245,222679,1,0,0:0:0:0:
344,286,222914,1,0,0:0:0:0:
469,326,223148,1,2,0:0:0:0:
376,192,223617,2,0,L|332:124,1,68.0000012969971
270,38,224086,5,2,0:0:0:0:
383,74,224320,1,0,0:0:0:0:
270,111,224555,1,0,0:0:0:0:
340,14,224789,1,0,0:0:0:0:
339,134,225023,2,0,P|310:208|272:250,1,136.000002593994,2|0,0:0|0:0,0:0:0:0:
100,353,225961,5,2,0:0:0:0:
120,252,226195,1,0,0:0:0:0:
22,285,226429,1,0,0:0:0:0:
120,252,226664,2,0,P|176:208|184:196,1,68.0000012969971,0|2,0:0|0:0,0:0:0:0:
204,136,227132,1,0,0:0:0:0:
268,84,227367,1,0,0:0:0:0:
348,84,227601,1,0,0:0:0:0:
416,128,227836,22,0,P|444:184|448:204,1,68.0000012969971,2|0,0:0|0:0,0:0:0:0:
432,268,228304,2,0,P|376:296|356:300,1,68.0000012969971
292,308,228773,2,0,L|220:316,2,68.0000012969971,2|0|0,0:0|0:0|0:0,0:0:0:0:
394,192,229711,6,0,P|389:98|278:65,2,204.000003890991,2|0|0,0:0|0:0|0:0,0:0:0:0:
298,324,231586,1,2,0:0:0:0:
143,273,232054,1,0,0:0:0:0:
143,110,232523,1,2,0:0:0:0:
298,59,232992,1,0,0:0:0:0:
394,192,233461,1,2,0:0:0:0:
256,192,233578,12,0,234867,0:0:0:0:
136,147,235336,5,2,0:0:0:0:
255,244,235570,1,8,0:0:0:0:
371,147,235804,1,12,0:0:0:0:
224,120,237211,22,0,P|256:88|312:64,1,95.9999970703126,6|2,0:0|0:0,0:0:0:0:
328,160,237679,2,0,P|360:192|384:248,1,95.9999970703126,8|0,0:0|0:0,0:0:0:0:
288,264,238148,2,0,P|256:296|200:320,1,95.9999970703126,2|2,0:0|0:0,0:0:0:0:
184,224,238617,2,0,P|152:192|128:136,1,95.9999970703126,8|0,0:0|0:0,0:0:0:0:
224,120,239086,5,2,0:0:0:0:
328,160,239320,1,2,0:0:0:0:
288,264,239554,1,8,0:0:0:0:
184,224,239789,1,0,0:0:0:0:
224,120,240023,2,0,P|280:72|328:52,1,95.9999970703126,2|2,0:0|0:0,0:0:0:0:
288,264,240492,2,0,P|232:312|184:332,1,95.9999970703126,8|0,0:0|0:0,0:0:0:0:
100,292,240961,5,2,0:0:0:0:
36,196,241195,1,2,0:0:0:0:
72,88,241429,1,8,0:0:0:0:
180,52,241664,1,0,0:0:0:0:
280,108,241898,2,0,P|320:160|324:216,1,95.9999970703126,2|2,0:0|0:0,0:0:0:0:
280,296,242367,2,0,P|215:306|163:284,1,95.9999970703126,8|0,0:0|0:0,0:0:0:0:
121,163,242836,21,2,0:0:0:0:
95,310,243070,1,2,0:0:0:0:
201,207,243304,1,8,0:0:0:0:
54,227,243539,1,0,0:0:0:0:
186,298,243773,2,0,P|233:307|280:296,1,95.9999970703126,2|2,0:0|0:0,0:0:0:0:
360,212,244242,1,8,0:0:0:0:
382,175,244359,1,0,0:0:0:0:
388,132,244476,1,0,0:0:0:0:
379,91,244593,1,0,0:0:0:0:
354,55,244711,6,0,P|292:24|248:40,1,95.9999970703126,2|2,0:0|0:0,0:0:0:0:
176,96,245179,2,0,P|238:127|282:111,1,95.9999970703126,8|0,0:0|0:0,0:0:0:0:
379,91,245648,1,2,0:0:0:0:
487,129,245882,1,2,0:0:0:0:
399,203,246117,2,0,L|305:259,1,95.9999970703126,8|0,0:0|0:0,0:0:0:0:
164,292,246586,5,2,0:0:0:0:
115,365,246820,1,2,0:0:0:0:
31,342,247054,1,8,0:0:0:0:
26,255,247289,1,0,0:0:0:0:
108,224,247523,2,0,L|204:184,1,95.9999970703126,2|2,0:0|0:0,0:0:0:0:
372,112,247992,2,0,L|276:152,1,95.9999970703126,8|0,0:0|0:0,0:0:0:0:
194,132,248461,21,2,0:0:0:0:
152,211,248695,1,2,0:0:0:0:
215,275,248930,1,8,0:0:0:0:
295,236,249164,1,0,0:0:0:0:
319,221,249281,1,0,0:0:0:0:
339,200,249398,1,2,0:0:0:0:
351,174,249515,1,0,0:0:0:0:
356,146,249632,1,2,0:0:0:0:
352,117,249749,1,0,0:0:0:0:
341,91,249867,1,8,0:0:0:0:
322,69,249984,1,0,0:0:0:0:
298,54,250101,1,0,0:0:0:0:
270,46,250218,1,0,0:0:0:0:
242,46,250336,6,0,P|176:64|144:116,1,95.9999970703126,2|2,0:0|0:0,0:0:0:0:
116,192,250804,2,0,P|182:174|214:122,1,95.9999970703126,8|0,0:0|0:0,0:0:0:0:
220,136,251156,1,8,0:0:0:0:
220,136,251273,1,2,0:0:0:0:
386,81,251507,1,8,0:0:0:0:
386,81,251625,1,8,0:0:0:0:
386,81,251742,1,8,0:0:0:0:
349,253,251976,1,8,0:0:0:0:
349,253,252093,1,8,0:0:0:0:
349,253,252211,6,0,P|300:320|272:336,1,95.9999970703126,6|2,0:0|0:0,0:0:0:0:
268,232,252679,2,0,P|199:278|167:283,1,95.9999970703126,8|0,0:0|0:0,0:0:0:0:
208,188,253148,2,0,P|127:207|95:202,1,95.9999970703126,2|2,0:0|0:0,0:0:0:0:
168,124,253617,2,0,P|85:115|57:98,1,95.9999970703126,8|0,0:0|0:0,0:0:0:0:
344,124,254086,22,0,P|391:125|437:109,1,95.9999970703126,2|2,0:0|0:0,0:0:0:0:
304,188,254554,2,0,P|348:205|396:206,1,95.9999970703126,8|0,0:0|0:0,0:0:0:0:
244,232,255023,2,0,P|279:263|324:281,1,95.9999970703126,2|2,0:0|0:0,0:0:0:0:
163,253,255492,2,0,P|185:294|221:326,1,95.9999970703126,8|0,0:0|0:0,0:0:0:0:
316,348,255961,5,2,0:0:0:0:
404,308,256195,1,2,0:0:0:0:
436,216,256429,1,8,0:0:0:0:
420,120,256664,1,0,0:0:0:0:
340,68,256898,2,0,P|292:52|244:56,1,95.9999970703126,2|2,0:0|0:0,0:0:0:0:
176,120,257367,2,0,P|224:136|272:132,1,95.9999970703126,8|0,0:0|0:0,0:0:0:0:
392,100,257836,5,2,0:0:0:0:
356,224,258070,1,2,0:0:0:0:
268,132,258304,1,8,0:0:0:0:
392,100,258539,1,0,0:0:0:0:
356,224,258773,2,0,P|304:284|284:292,1,95.9999970703126,2|2,0:0|0:0,0:0:0:0:
176,292,259242,1,8,0:0:0:0:
146,275,259359,1,0,0:0:0:0:
122,252,259476,1,0,0:0:0:0:
104,224,259593,1,0,0:0:0:0:
95,192,259710,21,2,0:0:0:0:
40,44,259945,1,2,0:0:0:0:
170,131,260180,1,8,0:0:0:0:
14,136,260414,1,0,0:0:0:0:
138,40,260648,2,0,P|196:28|240:52,1,95.9999970703126,2|2,0:0|0:0,0:0:0:0:
312,120,261117,1,8,0:0:0:0:
312,236,261351,1,0,0:0:0:0:
232,320,261586,6,0,P|168:352|40:328,2,191.999994140625,2|8|2,0:0|0:0|0:0,0:0:0:0:
272,212,262757,2,0,L|308:120,1,95.9999970703126,2|8,0:0|0:0,0:0:0:0:
380,32,263226,1,2,0:0:0:0:
492,60,263461,6,0,P|512:112|504:160,1,95.9999970703126,6|0,0:0|0:0,0:0:0:0:
484,264,263929,1,0,0:0:0:0:
396,188,264164,1,2,0:0:0:0:
484,264,264398,2,0,P|467:335|447:359,1,95.9999970703126,8|8,0:0|3:0,0:0:0:0:
340,352,264867,1,8,3:0:0:0:
232,312,265101,22,0,P|172:260|196:136,2,191.999994140625,12|8|8,0:0|3:0|3:0,0:0:0:0:
280,332,266156,1,8,3:0:0:0:
280,332,266273,1,8,3:0:0:0:
415,252,266507,1,4,3:0:0:0:
415,252,266625,1,4,3:0:0:0:
415,252,266742,1,4,3:0:0:0:
280,172,266976,1,8,3:0:0:0:
280,172,267211,38,0,B|232:116|160:164|196:224|196:224|160:280|232:328|280:268,1,320,4|0,0:0|0:0,0:0:0:0:
296,240,269554,5,0,0:0:0:0:
304,208,270023,1,0,0:0:0:0:
312,176,270492,1,0,0:0:0:0:
320,144,270961,6,0,P|344:100|372:76,1,80,6|2,0:0|0:0,0:0:0:0:
424,168,271429,2,0,P|400:212|372:236,1,80,8|0,0:0|0:0,0:0:0:0:
276,272,271898,1,2,0:0:0:0:
276,272,272132,1,2,0:0:0:0:
276,272,272367,2,0,L|216:192,1,80,8|0,0:0|0:0,0:0:0:0:
127,88,272836,5,2,0:0:0:0:
278,126,273070,1,2,0:0:0:0:
134,184,273304,1,8,0:0:0:0:
217,52,273539,1,0,0:0:0:0:
233,211,273773,2,0,P|253:259|297:275,1,80,2|2,0:0|0:0,0:0:0:0:
368,284,274242,2,0,P|405:273|429:242,1,80,8|0,0:0|0:0,0:0:0:0:
432,144,274711,21,2,0:0:0:0:
376,68,274945,1,2,0:0:0:0:
284,36,275179,1,8,0:0:0:0:
188,56,275414,1,0,0:0:0:0:
120,124,275648,2,0,L|96:204,1,80,2|2,0:0|0:0,0:0:0:0:
180,276,276117,2,0,L|204:196,1,80,8|0,0:0|0:0,0:0:0:0:
248,112,276586,5,2,0:0:0:0:
416,68,276820,1,2,0:0:0:0:
312,20,277054,1,8,0:0:0:0:
332,196,277289,1,0,0:0:0:0:
192,304,277523,2,0,L|132:240,1,80,2|2,0:0|0:0,0:0:0:0:
137,138,277992,2,0,L|192:80,1,80,8|0,0:0|0:0,0:0:0:0:
288,60,278461,5,2,0:0:0:0:
372,108,278695,1,2,0:0:0:0:
416,192,278929,1,8,0:0:0:0:
372,276,279164,1,0,0:0:0:0:
288,324,279398,2,0,L|204:276,1,80,2|2,0:0|0:0,0:0:0:0:
156,164,279867,2,0,L|226:125,1,80,8|0,0:0|0:0,0:0:0:0:
384,44,280336,22,0,P|436:84|440:104,1,80,2|2,0:0|0:0,0:0:0:0:
440,240,280804,2,0,P|420:274|385:290,1,80,8|0,0:0|0:0,0:0:0:0:
228,232,281273,2,0,L|92:252,2,120,2|0|0,0:0|0:0|0:0,0:0:0:0:
320,227,282211,5,2,0:0:0:0:
412,227,282445,1,2,0:0:0:0:
441,316,282680,1,8,0:0:0:0:
366,369,282914,1,0,0:0:0:0:
320,227,283148,2,0,L|252:159,1,80,2|2,0:0|0:0,0:0:0:0:
120,148,283617,2,0,L|188:216,1,80,8|0,0:0|0:0,0:0:0:0:
200,228,283968,1,0,0:0:0:0:
224,252,284086,5,2,0:0:0:0:
312,292,284320,1,2,0:0:0:0:
396,248,284554,2,0,P|456:200|460:148,1,120,8|8,0:0|0:0,0:0:0:0:
464,128,285023,1,2,0:0:0:0:
353,44,285257,1,8,0:0:0:0:
353,44,285375,1,8,0:0:0:0:
353,44,285492,1,8,0:0:0:0:
335,179,285726,1,8,0:0:0:0:
335,179,285843,1,8,0:0:0:0:
335,179,285961,22,0,L|312:308,2,120,6|0|0,0:0|0:0|0:0,0:0:0:0:
240,172,286898,2,0,L|148:268,2,120,2|0|0,0:0|0:0|0:0,0:0:0:0:
176,100,287836,2,0,L|48:137,2,120,2|0|0,0:0|0:0|0:0,0:0:0:0:
272,88,288773,6,0,L|423:140,2,160,2|8|2,0:0|0:0|0:0,0:0:0:0:
297,247,289945,5,2,0:0:0:0:
423,140,290179,1,8,0:0:0:0:
272,88,290414,1,0,0:0:0:0:
297,247,290648,2,0,L|404:308,2,120,2|0|0,0:0|0:0|0:0,0:0:0:0:
173,151,291586,21,2,0:0:0:0:
329,156,291820,1,2,0:0:0:0:
200,243,292054,1,8,0:0:0:0:
254,97,292289,1,0,0:0:0:0:
297,247,292523,2,0,P|344:292|376:296,1,80,2|2,0:0|0:0,0:0:0:0:
448,272,292992,2,0,P|401:227|369:223,1,80,8|0,0:0|0:0,0:0:0:0:
248,216,293461,5,2,0:0:0:0:
99,258,293695,1,2,0:0:0:0:
211,364,293929,1,8,0:0:0:0:
248,216,294164,1,0,0:0:0:0:
99,258,294398,2,0,P|60:288|40:360,2,120,2|0|0,0:0|0:0|0:0,0:0:0:0:
264,168,295336,5,2,0:0:0:0:
413,126,295570,1,2,0:0:0:0:
301,20,295804,1,8,0:0:0:0:
264,168,296039,1,0,0:0:0:0:
413,126,296273,2,0,P|452:96|472:24,2,120,2|0|0,0:0|0:0|0:0,0:0:0:0:
267,179,297211,21,2,0:0:0:0:
415,220,297445,1,2,0:0:0:0:
320,99,297679,1,8,0:0:0:0:
325,255,297913,1,0,0:0:0:0:
413,126,298148,2,0,P|428:96|421:48,2,80,2|2|8,0:0|0:0|0:0,0:0:0:0:
267,181,298851,1,0,0:0:0:0:
267,181,298968,1,8,0:0:0:0:
267,181,299086,6,0,L|216:280,1,80,2|2,0:0|0:0,0:0:0:0:
140,288,299554,2,0,P|108:200|120:164,1,120,8|8,0:0|0:0,0:0:0:0:
120,152,300023,1,2,0:0:0:0:
140,60,300257,2,0,P|200:48|232:52,1,80,0|8,0:0|0:0,0:0:0:0:
256,60,300609,1,8,0:0:0:0:
288,84,300726,1,8,0:0:0:0:
316,112,300843,1,8,0:0:0:0:
340,144,300961,6,0,P|368:180|388:240,1,80,2|0,0:0|0:0,0:0:0:0:
304,276,301433,2,0,P|268:304|208:324,1,80,2|0,0:0|0:0,0:0:0:0:
172,240,301905,2,0,P|144:204|124:144,1,80,2|0,0:0|0:0,0:0:0:0:
208,108,302378,2,0,P|244:80|304:60,1,80,2|0,0:0|0:0,0:0:0:0:
340,144,302850,21,2,0:0:0:0:
304,276,303087,1,0,0:0:0:0:
172,240,303323,1,2,0:0:0:0:
208,108,303559,1,0,0:0:0:0:
340,144,303795,2,0,P|372:180|380:236,1,80,2|0,0:0|0:0,0:0:0:0:
172,240,304268,2,0,P|140:204|132:148,1,80,2|0,0:0|0:0,0:0:0:0:
255,78,304740,5,2,0:0:0:0:
369,191,304976,1,0,0:0:0:0:
256,305,305213,1,2,0:0:0:0:
142,192,305449,1,0,0:0:0:0:
255,78,305685,2,0,P|292:68|336:80,1,80,2|0,0:0|0:0,0:0:0:0:
369,191,306157,2,0,P|380:228|368:272,1,80,2|0,0:0|0:0,0:0:0:0:
256,305,306630,2,0,P|220:316|176:304,1,80,2|0,0:0|0:0,0:0:0:0:
142,192,307102,2,0,P|132:156|144:112,1,80,2|0,0:0|0:0,0:0:0:0:
304,64,307575,5,2,0:0:0:0:
382,240,307811,1,0,0:0:0:0:
206,318,308047,1,2,0:0:0:0:
128,142,308283,1,0,0:0:0:0:
