osu file format v14

[General]
AudioFilename: kakumei.mp3
AudioLeadIn: 0
PreviewTime: -1
Countdown: 1
SampleSet: None
StackLeniency: 0.7
Mode: 3
LetterboxInBreaks: 1
SpecialStyle: 0
WidescreenStoryboard: 1

[Editor]
DistanceSpacing: 0.8
BeatDivisor: 4
GridSize: 4
TimelineZoom: 2.599999

[Metadata]
Title:Kakumei
TitleUnicode:Kakumei
Artist:Silent Siren
ArtistUnicode:Silent Siren
Creator:Imoera
Version:7K Duka
Source:
Tags:
BeatmapID:771378
BeatmapSetID:349820

[Difficulty]
HPDrainRate:5
CircleSize:7
OverallDifficulty:5
ApproachRate:5
SliderMultiplier:1.4
SliderTickRate:1

[Events]
//Background and Video events
//Break Periods
//Storyboard Layer 0 (Background)
//Storyboard Layer 1 (Fail)
//Storyboard Layer 2 (Pass)
//Storyboard Layer 3 (Foreground)
//Storyboard Sound Samples

[TimingPoints]
15771,375,4,1,0,100,1,0
27771,-133.333333333333,4,1,0,100,0,0
30021,-50,4,1,0,100,0,0
30208,-100,4,1,0,100,0,0
30396,-1000,4,1,0,100,0,0
30724,-50,4,1,0,100,0,0
30771,-100,4,1,0,100,0,0
65646,-66.6666666666667,4,1,0,100,0,0
65833,-100,4,1,0,100,0,0
66021,-66.6666666666667,4,1,0,100,0,0
66208,-100,4,1,0,100,0,0
66396,-66.6666666666667,4,1,0,100,0,0
66583,-100,4,1,0,100,0,0

[HitObjects]
182,192,15771,128,0,17271:0:0:0:0:
329,192,15771,1,0,0:0:0:0:
36,192,15771,1,0,0:0:0:0:
402,192,15771,1,0,0:0:0:0:
256,192,15958,1,0,0:0:0:0:
329,192,16052,1,0,0:0:0:0:
402,192,16146,1,0,0:0:0:0:
475,192,16146,1,0,0:0:0:0:
329,192,16333,1,0,0:0:0:0:
109,192,16427,1,0,0:0:0:0:
256,192,16521,1,0,0:0:0:0:
36,192,16521,1,0,0:0:0:0:
329,192,16708,1,0,0:0:0:0:
475,192,16802,1,0,0:0:0:0:
256,192,16896,1,0,0:0:0:0:
402,192,16896,1,0,0:0:0:0:
109,192,17083,1,0,0:0:0:0:
256,192,17177,1,0,0:0:0:0:
475,192,17271,128,0,18771:0:0:0:0:
402,192,17271,1,0,0:0:0:0:
329,192,17271,1,0,0:0:0:0:
256,192,17458,1,0,0:0:0:0:
36,192,17552,1,0,0:0:0:0:
182,192,17646,1,0,0:0:0:0:
109,192,17646,1,0,0:0:0:0:
402,192,17833,1,0,0:0:0:0:
329,192,17927,1,0,0:0:0:0:
182,192,18021,1,0,0:0:0:0:
256,192,18021,1,0,0:0:0:0:
36,192,18208,1,0,0:0:0:0:
109,192,18302,1,0,0:0:0:0:
329,192,18396,1,0,0:0:0:0:
402,192,18396,1,0,0:0:0:0:
329,192,18583,1,0,0:0:0:0:
109,192,18583,1,0,0:0:0:0:
36,192,18583,1,0,0:0:0:0:
256,192,18677,1,0,0:0:0:0:
329,192,18771,128,0,20271:0:0:0:0:
109,192,18771,1,0,0:0:0:0:
36,192,18771,1,0,0:0:0:0:
256,192,18958,1,0,0:0:0:0:
182,192,19052,1,0,0:0:0:0:
475,192,19146,1,0,0:0:0:0:
402,192,19146,1,0,0:0:0:0:
182,192,19333,1,0,0:0:0:0:
256,192,19427,1,0,0:0:0:0:
36,192,19521,1,0,0:0:0:0:
109,192,19521,1,0,0:0:0:0:
182,192,19708,1,0,0:0:0:0:
475,192,19802,1,0,0:0:0:0:
402,192,19896,1,0,0:0:0:0:
256,192,19896,1,0,0:0:0:0:
109,192,20083,1,0,0:0:0:0:
256,192,20177,1,0,0:0:0:0:
36,192,20271,128,0,21771:0:0:0:0:
182,192,20271,1,0,0:0:0:0:
402,192,20271,1,0,0:0:0:0:
402,192,20458,1,0,0:0:0:0:
182,192,20552,1,0,0:0:0:0:
109,192,20646,1,0,0:0:0:0:
256,192,20646,1,0,0:0:0:0:
329,192,20833,1,0,0:0:0:0:
182,192,20927,1,0,0:0:0:0:
402,192,21021,1,0,0:0:0:0:
329,192,21021,1,0,0:0:0:0:
182,192,21208,1,0,0:0:0:0:
329,192,21302,1,0,0:0:0:0:
256,192,21396,1,0,0:0:0:0:
475,192,21396,128,0,21771:0:0:0:0:
329,192,21583,1,0,0:0:0:0:
182,192,21583,1,0,0:0:0:0:
402,192,21583,1,0,0:0:0:0:
109,192,21583,1,0,0:0:0:0:
182,192,21771,128,0,22146:0:0:0:0:
329,192,21771,128,0,22146:0:0:0:0:
402,192,21771,1,0,0:0:0:0:
109,192,21771,1,0,0:0:0:0:
256,192,22146,1,0,0:0:0:0:
109,192,22146,1,0,0:0:0:0:
475,192,22146,128,0,22192:0:0:0:0:
256,192,22333,1,0,0:0:0:0:
109,192,22333,1,0,0:0:0:0:
475,192,22333,128,0,22380:0:0:0:0:
182,192,22521,1,0,0:0:0:0:
36,192,22521,1,0,0:0:0:0:
402,192,22521,128,0,22567:0:0:0:0:
182,192,22708,1,0,0:0:0:0:
36,192,22708,1,0,0:0:0:0:
402,192,22708,128,0,22755:0:0:0:0:
475,192,22896,1,0,0:0:0:0:
256,192,22896,1,0,0:0:0:0:
109,192,22896,128,0,22942:0:0:0:0:
402,192,23083,1,0,0:0:0:0:
109,192,23083,128,0,23130:0:0:0:0:
256,192,23177,1,0,0:0:0:0:
329,192,23271,128,0,23646:0:0:0:0:
182,192,23271,128,0,23646:0:0:0:0:
256,192,23646,1,0,0:0:0:0:
402,192,23646,1,0,0:0:0:0:
36,192,23646,128,0,23692:0:0:0:0:
256,192,23833,1,0,0:0:0:0:
402,192,23833,1,0,0:0:0:0:
36,192,23833,128,0,23880:0:0:0:0:
329,192,24021,1,0,0:0:0:0:
475,192,24021,1,0,0:0:0:0:
109,192,24021,128,0,24067:0:0:0:0:
329,192,24208,1,0,0:0:0:0:
475,192,24208,1,0,0:0:0:0:
109,192,24208,128,0,24255:0:0:0:0:
36,192,24396,1,0,0:0:0:0:
256,192,24396,1,0,0:0:0:0:
402,192,24396,128,0,24442:0:0:0:0:
36,192,24583,1,0,0:0:0:0:
256,192,24583,1,0,0:0:0:0:
402,192,24583,128,0,24630:0:0:0:0:
329,192,24771,128,0,25146:0:0:0:0:
182,192,24771,128,0,25146:0:0:0:0:
256,192,24771,1,0,0:0:0:0:
475,192,24771,1,0,0:0:0:0:
36,192,24771,1,0,0:0:0:0:
475,192,24958,128,0,25333:0:0:0:0:
36,192,24958,128,0,25333:0:0:0:0:
402,192,25146,1,0,0:0:0:0:
109,192,25146,1,0,0:0:0:0:
256,192,25146,1,0,0:0:0:0:
109,192,25333,1,0,0:0:0:0:
402,192,25333,1,0,0:0:0:0:
256,192,25521,1,0,0:0:0:0:
109,192,25521,1,0,0:0:0:0:
402,192,25521,1,0,0:0:0:0:
402,192,25708,1,0,0:0:0:0:
109,192,25708,1,0,0:0:0:0:
256,192,25896,1,0,0:0:0:0:
109,192,25896,1,0,0:0:0:0:
402,192,25896,1,0,0:0:0:0:
402,192,26083,1,0,0:0:0:0:
109,192,26083,1,0,0:0:0:0:
256,192,26271,1,0,0:0:0:0:
109,192,26271,1,0,0:0:0:0:
402,192,26271,1,0,0:0:0:0:
402,192,26458,1,0,0:0:0:0:
109,192,26458,1,0,0:0:0:0:
256,192,26646,1,0,0:0:0:0:
109,192,26646,1,0,0:0:0:0:
402,192,26646,1,0,0:0:0:0:
402,192,26833,1,0,0:0:0:0:
109,192,26833,1,0,0:0:0:0:
256,192,27021,1,0,0:0:0:0:
109,192,27021,1,0,0:0:0:0:
402,192,27021,1,0,0:0:0:0:
402,192,27208,1,0,0:0:0:0:
109,192,27208,1,0,0:0:0:0:
256,192,27396,1,0,0:0:0:0:
109,192,27396,1,0,0:0:0:0:
402,192,27396,1,0,0:0:0:0:
256,192,27583,1,0,0:0:0:0:
109,192,27583,1,0,0:0:0:0:
402,192,27583,1,0,0:0:0:0:
475,192,27583,1,0,0:0:0:0:
36,192,27583,1,0,0:0:0:0:
402,192,27771,128,0,28239:0:0:0:0:
182,192,27771,128,0,28427:0:0:0:0:
329,192,27958,128,0,28239:0:0:0:0:
256,192,28146,128,0,28427:0:0:0:0:
402,192,28333,128,0,28427:0:0:0:0:
329,192,28333,128,0,28427:0:0:0:0:
109,192,28896,128,0,29364:0:0:0:0:
329,192,28896,128,0,29552:0:0:0:0:
182,192,29083,128,0,29364:0:0:0:0:
256,192,29271,128,0,29552:0:0:0:0:
109,192,29458,128,0,29552:0:0:0:0:
182,192,29458,128,0,29552:0:0:0:0:
109,192,30021,1,0,0:0:0:0:
402,192,30021,1,0,0:0:0:0:
256,192,30021,128,0,30208:0:0:0:0:
182,192,30021,1,0,0:0:0:0:
329,192,30021,1,0,0:0:0:0:
36,192,30208,1,0,0:0:0:0:
475,192,30208,1,0,0:0:0:0:
329,192,30208,1,0,0:0:0:0:
182,192,30208,1,0,0:0:0:0:
182,192,30771,128,0,30958:0:0:0:0:
402,192,30771,1,0,0:0:0:0:
475,192,30771,1,0,0:0:0:0:
109,192,30771,1,0,0:0:0:0:
256,192,30771,1,0,0:0:0:0:
329,192,30958,128,0,31333:0:0:0:0:
256,192,30958,1,0,0:0:0:0:
36,192,31146,1,0,0:0:0:0:
109,192,31146,1,0,0:0:0:0:
402,192,31146,1,0,0:0:0:0:
475,192,31333,128,0,31708:0:0:0:0:
256,192,31333,1,0,0:0:0:0:
329,192,31521,1,0,0:0:0:0:
109,192,31521,1,0,0:0:0:0:
402,192,31708,128,0,32083:0:0:0:0:
182,192,31708,1,0,0:0:0:0:
109,192,31708,1,0,0:0:0:0:
36,192,31896,1,0,0:0:0:0:
109,192,31896,1,0,0:0:0:0:
256,192,31896,1,0,0:0:0:0:
329,192,32083,128,0,32458:0:0:0:0:
109,192,32083,1,0,0:0:0:0:
182,192,32083,1,0,0:0:0:0:
36,192,32271,1,0,0:0:0:0:
256,192,32458,128,0,32646:0:0:0:0:
402,192,32458,1,0,0:0:0:0:
182,192,32458,1,0,0:0:0:0:
109,192,32646,128,0,33021:0:0:0:0:
402,192,32646,1,0,0:0:0:0:
475,192,32646,1,0,0:0:0:0:
36,192,32646,1,0,0:0:0:0:
329,192,32833,1,0,0:0:0:0:
182,192,33021,128,0,33208:0:0:0:0:
475,192,33021,1,0,0:0:0:0:
256,192,33021,1,0,0:0:0:0:
329,192,33208,128,0,33396:0:0:0:0:
402,192,33208,1,0,0:0:0:0:
109,192,33208,1,0,0:0:0:0:
475,192,33396,128,0,33771:0:0:0:0:
256,192,33396,1,0,0:0:0:0:
36,192,33396,1,0,0:0:0:0:
182,192,33396,1,0,0:0:0:0:
109,192,33583,1,0,0:0:0:0:
36,192,33771,128,0,33958:0:0:0:0:
256,192,33771,1,0,0:0:0:0:
329,192,33771,1,0,0:0:0:0:
402,192,33771,1,0,0:0:0:0:
182,192,33958,128,0,34333:0:0:0:0:
475,192,33958,1,0,0:0:0:0:
109,192,34146,1,0,0:0:0:0:
256,192,34146,1,0,0:0:0:0:
329,192,34146,1,0,0:0:0:0:
402,192,34333,128,0,34708:0:0:0:0:
36,192,34333,1,0,0:0:0:0:
182,192,34521,1,0,0:0:0:0:
256,192,34521,1,0,0:0:0:0:
475,192,34708,128,0,35083:0:0:0:0:
36,192,34708,1,0,0:0:0:0:
182,192,34708,1,0,0:0:0:0:
256,192,34896,1,0,0:0:0:0:
402,192,34896,1,0,0:0:0:0:
109,192,34896,1,0,0:0:0:0:
329,192,35083,128,0,35458:0:0:0:0:
182,192,35083,1,0,0:0:0:0:
109,192,35083,128,0,35271:0:0:0:0:
36,192,35083,128,0,35271:0:0:0:0:
256,192,35458,128,0,35646:0:0:0:0:
402,192,35458,1,0,0:0:0:0:
475,192,35458,1,0,0:0:0:0:
182,192,35646,128,0,36021:0:0:0:0:
109,192,35646,1,0,0:0:0:0:
36,192,35646,1,0,0:0:0:0:
329,192,35833,1,0,0:0:0:0:
475,192,35833,128,0,36021:0:0:0:0:
402,192,35833,128,0,36021:0:0:0:0:
36,192,36021,128,0,36208:0:0:0:0:
182,192,36208,128,0,36396:0:0:0:0:
329,192,36208,1,0,0:0:0:0:
402,192,36208,1,0,0:0:0:0:
329,192,36396,128,0,36583:0:0:0:0:
109,192,36396,1,0,0:0:0:0:
256,192,36396,1,0,0:0:0:0:
475,192,36583,128,0,36771:0:0:0:0:
36,192,36583,1,0,0:0:0:0:
109,192,36677,1,0,0:0:0:0:
182,192,36771,128,0,37333:0:0:0:0:
402,192,36771,1,0,0:0:0:0:
36,192,36771,1,0,0:0:0:0:
329,192,36771,1,0,0:0:0:0:
329,192,36958,128,0,37333:0:0:0:0:
256,192,36958,1,0,0:0:0:0:
402,192,37146,1,0,0:0:0:0:
109,192,37146,1,0,0:0:0:0:
36,192,37146,1,0,0:0:0:0:
475,192,37333,128,0,37708:0:0:0:0:
256,192,37333,1,0,0:0:0:0:
109,192,37521,1,0,0:0:0:0:
329,192,37521,1,0,0:0:0:0:
402,192,37708,128,0,38083:0:0:0:0:
36,192,37708,1,0,0:0:0:0:
182,192,37708,1,0,0:0:0:0:
109,192,37896,1,0,0:0:0:0:
256,192,37896,1,0,0:0:0:0:
329,192,37896,1,0,0:0:0:0:
475,192,38083,1,0,0:0:0:0:
182,192,38083,128,0,38458:0:0:0:0:
329,192,38083,1,0,0:0:0:0:
109,192,38271,1,0,0:0:0:0:
256,192,38458,128,0,38646:0:0:0:0:
402,192,38458,1,0,0:0:0:0:
475,192,38458,1,0,0:0:0:0:
36,192,38646,128,0,39021:0:0:0:0:
109,192,38646,1,0,0:0:0:0:
329,192,38646,1,0,0:0:0:0:
182,192,38646,1,0,0:0:0:0:
329,192,38833,1,0,0:0:0:0:
402,192,39021,128,0,39208:0:0:0:0:
475,192,39021,1,0,0:0:0:0:
256,192,39021,1,0,0:0:0:0:
182,192,39208,128,0,39396:0:0:0:0:
329,192,39208,1,0,0:0:0:0:
36,192,39208,1,0,0:0:0:0:
256,192,39396,128,0,39771:0:0:0:0:
329,192,39396,1,0,0:0:0:0:
475,192,39396,1,0,0:0:0:0:
109,192,39396,1,0,0:0:0:0:
402,192,39583,1,0,0:0:0:0:
475,192,39771,128,0,41083:0:0:0:0:
109,192,39771,1,0,0:0:0:0:
182,192,39771,1,0,0:0:0:0:
36,192,39771,1,0,0:0:0:0:
329,192,39771,1,0,0:0:0:0:
256,192,39958,1,0,0:0:0:0:
182,192,40146,1,0,0:0:0:0:
329,192,40146,1,0,0:0:0:0:
109,192,40146,1,0,0:0:0:0:
256,192,40333,1,0,0:0:0:0:
182,192,40521,1,0,0:0:0:0:
329,192,40521,1,0,0:0:0:0:
36,192,40708,1,0,0:0:0:0:
256,192,40708,1,0,0:0:0:0:
109,192,40896,1,0,0:0:0:0:
182,192,40896,1,0,0:0:0:0:
329,192,40896,1,0,0:0:0:0:
36,192,41083,128,0,41458:0:0:0:0:
256,192,41083,1,0,0:0:0:0:
402,192,41083,1,0,0:0:0:0:
109,192,41458,128,0,41833:0:0:0:0:
402,192,41458,1,0,0:0:0:0:
182,192,41458,1,0,0:0:0:0:
329,192,41458,1,0,0:0:0:0:
402,192,41646,1,0,0:0:0:0:
475,192,41646,1,0,0:0:0:0:
256,192,41646,1,0,0:0:0:0:
182,192,41833,128,0,42208:0:0:0:0:
402,192,42021,1,0,0:0:0:0:
109,192,42114,1,0,0:0:0:0:
256,192,42208,128,0,42771:0:0:0:0:
402,192,42208,1,0,0:0:0:0:
109,192,42302,1,0,0:0:0:0:
475,192,42396,128,0,42771:0:0:0:0:
402,192,42396,128,0,42771:0:0:0:0:
36,192,42396,1,0,0:0:0:0:
329,192,42396,1,0,0:0:0:0:
109,192,42771,128,0,43521:0:0:0:0:
36,192,42771,1,0,0:0:0:0:
182,192,42771,1,0,0:0:0:0:
329,192,42958,1,0,0:0:0:0:
402,192,43146,1,0,0:0:0:0:
182,192,43146,1,0,0:0:0:0:
475,192,43146,1,0,0:0:0:0:
256,192,43333,1,0,0:0:0:0:
329,192,43521,1,0,0:0:0:0:
182,192,43521,1,0,0:0:0:0:
36,192,43521,1,0,0:0:0:0:
256,192,43708,1,0,0:0:0:0:
109,192,43708,1,0,0:0:0:0:
182,192,43896,1,0,0:0:0:0:
402,192,43896,1,0,0:0:0:0:
329,192,43896,1,0,0:0:0:0:
329,192,44083,1,0,0:0:0:0:
256,192,44271,1,0,0:0:0:0:
109,192,44271,1,0,0:0:0:0:
402,192,44271,1,0,0:0:0:0:
475,192,44271,128,0,45021:0:0:0:0:
182,192,44458,1,0,0:0:0:0:
329,192,44646,1,0,0:0:0:0:
36,192,44646,1,0,0:0:0:0:
109,192,44646,1,0,0:0:0:0:
256,192,44833,1,0,0:0:0:0:
182,192,45021,1,0,0:0:0:0:
329,192,45021,1,0,0:0:0:0:
109,192,45021,1,0,0:0:0:0:
182,192,45208,1,0,0:0:0:0:
256,192,45208,1,0,0:0:0:0:
109,192,45396,1,0,0:0:0:0:
329,192,45396,1,0,0:0:0:0:
402,192,45396,1,0,0:0:0:0:
256,192,45583,1,0,0:0:0:0:
329,192,45771,1,0,0:0:0:0:
475,192,45771,1,0,0:0:0:0:
109,192,45771,1,0,0:0:0:0:
182,192,45771,128,0,46521:0:0:0:0:
402,192,45958,1,0,0:0:0:0:
329,192,46146,1,0,0:0:0:0:
36,192,46146,1,0,0:0:0:0:
256,192,46146,1,0,0:0:0:0:
109,192,46333,1,0,0:0:0:0:
329,192,46521,1,0,0:0:0:0:
36,192,46521,1,0,0:0:0:0:
475,192,46708,1,0,0:0:0:0:
402,192,46708,1,0,0:0:0:0:
109,192,46896,1,0,0:0:0:0:
256,192,46896,1,0,0:0:0:0:
475,192,46896,1,0,0:0:0:0:
329,192,47083,1,0,0:0:0:0:
182,192,47271,1,0,0:0:0:0:
402,192,47271,1,0,0:0:0:0:
36,192,47271,1,0,0:0:0:0:
475,192,47271,1,0,0:0:0:0:
256,192,47271,128,0,48021:0:0:0:0:
329,192,47458,1,0,0:0:0:0:
109,192,47458,1,0,0:0:0:0:
402,192,47646,1,0,0:0:0:0:
475,192,47646,1,0,0:0:0:0:
182,192,47646,128,0,48021:0:0:0:0:
329,192,47833,1,0,0:0:0:0:
402,192,48021,1,0,0:0:0:0:
475,192,48021,1,0,0:0:0:0:
36,192,48021,1,0,0:0:0:0:
109,192,48021,128,0,48771:0:0:0:0:
182,192,48208,1,0,0:0:0:0:
329,192,48208,1,0,0:0:0:0:
402,192,48396,1,0,0:0:0:0:
475,192,48396,1,0,0:0:0:0:
256,192,48396,128,0,48771:0:0:0:0:
36,192,48583,1,0,0:0:0:0:
329,192,48771,1,0,0:0:0:0:
402,192,48771,1,0,0:0:0:0:
182,192,48771,1,0,0:0:0:0:
475,192,48771,128,0,49521:0:0:0:0:
109,192,48958,1,0,0:0:0:0:
256,192,49146,1,0,0:0:0:0:
36,192,49146,1,0,0:0:0:0:
402,192,49146,1,0,0:0:0:0:
182,192,49333,1,0,0:0:0:0:
109,192,49521,1,0,0:0:0:0:
329,192,49521,1,0,0:0:0:0:
36,192,49521,1,0,0:0:0:0:
182,192,49708,1,0,0:0:0:0:
475,192,49708,1,0,0:0:0:0:
256,192,49896,1,0,0:0:0:0:
329,192,49896,1,0,0:0:0:0:
402,192,49896,128,0,50271:0:0:0:0:
182,192,50083,1,0,0:0:0:0:
256,192,50271,1,0,0:0:0:0:
109,192,50271,1,0,0:0:0:0:
329,192,50271,1,0,0:0:0:0:
36,192,50271,128,0,51021:0:0:0:0:
329,192,50458,1,0,0:0:0:0:
182,192,50646,1,0,0:0:0:0:
402,192,50646,1,0,0:0:0:0:
475,192,50646,1,0,0:0:0:0:
256,192,50833,1,0,0:0:0:0:
329,192,51021,1,0,0:0:0:0:
182,192,51021,1,0,0:0:0:0:
402,192,51021,1,0,0:0:0:0:
329,192,51208,1,0,0:0:0:0:
475,192,51208,1,0,0:0:0:0:
109,192,51208,1,0,0:0:0:0:
256,192,51396,1,0,0:0:0:0:
36,192,51396,1,0,0:0:0:0:
182,192,51396,1,0,0:0:0:0:
109,192,51583,1,0,0:0:0:0:
329,192,51583,1,0,0:0:0:0:
182,192,51771,1,0,0:0:0:0:
256,192,51771,1,0,0:0:0:0:
402,192,51771,1,0,0:0:0:0:
475,192,51771,1,0,0:0:0:0:
329,192,51958,1,0,0:0:0:0:
402,192,52146,1,0,0:0:0:0:
36,192,52146,1,0,0:0:0:0:
182,192,52146,1,0,0:0:0:0:
329,192,52333,1,0,0:0:0:0:
182,192,52521,1,0,0:0:0:0:
109,192,52521,1,0,0:0:0:0:
182,192,52708,1,0,0:0:0:0:
256,192,52708,1,0,0:0:0:0:
36,192,52896,1,0,0:0:0:0:
402,192,52896,1,0,0:0:0:0:
329,192,52896,1,0,0:0:0:0:
256,192,53083,1,0,0:0:0:0:
329,192,53271,1,0,0:0:0:0:
36,192,53271,1,0,0:0:0:0:
182,192,53271,1,0,0:0:0:0:
109,192,53271,1,0,0:0:0:0:
402,192,53458,1,0,0:0:0:0:
256,192,53458,1,0,0:0:0:0:
182,192,53646,1,0,0:0:0:0:
402,192,53646,1,0,0:0:0:0:
329,192,53646,1,0,0:0:0:0:
475,192,53646,1,0,0:0:0:0:
329,192,53833,1,0,0:0:0:0:
402,192,53833,1,0,0:0:0:0:
109,192,53927,1,0,0:0:0:0:
182,192,53927,1,0,0:0:0:0:
256,192,54021,1,0,0:0:0:0:
329,192,54021,1,0,0:0:0:0:
475,192,54208,1,0,0:0:0:0:
329,192,54208,1,0,0:0:0:0:
36,192,54396,1,0,0:0:0:0:
109,192,54396,1,0,0:0:0:0:
402,192,54396,1,0,0:0:0:0:
256,192,54396,1,0,0:0:0:0:
182,192,54583,1,0,0:0:0:0:
329,192,54583,1,0,0:0:0:0:
256,192,54677,1,0,0:0:0:0:
402,192,54677,1,0,0:0:0:0:
109,192,54771,1,0,0:0:0:0:
329,192,54771,1,0,0:0:0:0:
182,192,54771,1,0,0:0:0:0:
475,192,54771,128,0,56271:0:0:0:0:
256,192,54958,1,0,0:0:0:0:
256,192,55146,1,0,0:0:0:0:
36,192,55146,1,0,0:0:0:0:
402,192,55146,1,0,0:0:0:0:
329,192,55333,1,0,0:0:0:0:
182,192,55521,1,0,0:0:0:0:
256,192,55521,1,0,0:0:0:0:
109,192,55708,1,0,0:0:0:0:
36,192,55708,1,0,0:0:0:0:
182,192,55896,1,0,0:0:0:0:
329,192,55896,1,0,0:0:0:0:
402,192,55896,1,0,0:0:0:0:
329,192,56083,1,0,0:0:0:0:
36,192,56271,128,0,57771:0:0:0:0:
109,192,56271,128,0,57771:0:0:0:0:
182,192,56271,1,0,0:0:0:0:
402,192,56271,1,0,0:0:0:0:
256,192,56271,1,0,0:0:0:0:
329,192,56458,1,0,0:0:0:0:
256,192,56646,1,0,0:0:0:0:
402,192,56646,1,0,0:0:0:0:
475,192,56646,1,0,0:0:0:0:
182,192,56833,1,0,0:0:0:0:
256,192,57021,1,0,0:0:0:0:
402,192,57021,1,0,0:0:0:0:
329,192,57208,1,0,0:0:0:0:
182,192,57208,1,0,0:0:0:0:
256,192,57396,1,0,0:0:0:0:
475,192,57396,1,0,0:0:0:0:
402,192,57396,1,0,0:0:0:0:
329,192,57583,1,0,0:0:0:0:
256,192,57771,128,0,59271:0:0:0:0:
402,192,57771,1,0,0:0:0:0:
475,192,57771,1,0,0:0:0:0:
182,192,57771,1,0,0:0:0:0:
36,192,57958,1,0,0:0:0:0:
182,192,58146,1,0,0:0:0:0:
109,192,58146,1,0,0:0:0:0:
329,192,58146,1,0,0:0:0:0:
402,192,58333,1,0,0:0:0:0:
475,192,58521,1,0,0:0:0:0:
329,192,58521,1,0,0:0:0:0:
182,192,58708,1,0,0:0:0:0:
475,192,58708,1,0,0:0:0:0:
109,192,58896,1,0,0:0:0:0:
36,192,58896,1,0,0:0:0:0:
402,192,58896,1,0,0:0:0:0:
475,192,59083,1,0,0:0:0:0:
402,192,59271,128,0,60771:0:0:0:0:
109,192,59271,1,0,0:0:0:0:
329,192,59271,1,0,0:0:0:0:
36,192,59271,1,0,0:0:0:0:
182,192,59458,1,0,0:0:0:0:
109,192,59646,1,0,0:0:0:0:
256,192,59646,1,0,0:0:0:0:
329,192,59646,1,0,0:0:0:0:
475,192,59646,1,0,0:0:0:0:
182,192,59833,1,0,0:0:0:0:
329,192,60021,128,0,60771:0:0:0:0:
109,192,60021,1,0,0:0:0:0:
256,192,60021,1,0,0:0:0:0:
36,192,60021,1,0,0:0:0:0:
475,192,60208,1,0,0:0:0:0:
475,192,60396,1,0,0:0:0:0:
256,192,60396,1,0,0:0:0:0:
109,192,60396,1,0,0:0:0:0:
182,192,60396,1,0,0:0:0:0:
256,192,60583,1,0,0:0:0:0:
182,192,60771,128,0,62271:0:0:0:0:
109,192,60771,128,0,62271:0:0:0:0:
36,192,60771,1,0,0:0:0:0:
475,192,60771,1,0,0:0:0:0:
402,192,60958,1,0,0:0:0:0:
329,192,61146,1,0,0:0:0:0:
475,192,61146,1,0,0:0:0:0:
256,192,61146,1,0,0:0:0:0:
402,192,61333,1,0,0:0:0:0:
36,192,61521,1,0,0:0:0:0:
329,192,61521,1,0,0:0:0:0:
36,192,61708,1,0,0:0:0:0:
402,192,61708,1,0,0:0:0:0:
329,192,61896,1,0,0:0:0:0:
475,192,61896,1,0,0:0:0:0:
256,192,61896,1,0,0:0:0:0:
329,192,62083,1,0,0:0:0:0:
36,192,62271,128,0,63771:0:0:0:0:
475,192,62271,1,0,0:0:0:0:
402,192,62271,1,0,0:0:0:0:
256,192,62271,1,0,0:0:0:0:
329,192,62458,1,0,0:0:0:0:
256,192,62646,1,0,0:0:0:0:
182,192,62646,1,0,0:0:0:0:
402,192,62646,1,0,0:0:0:0:
475,192,62833,1,0,0:0:0:0:
109,192,63021,1,0,0:0:0:0:
329,192,63021,1,0,0:0:0:0:
475,192,63208,1,0,0:0:0:0:
256,192,63208,1,0,0:0:0:0:
402,192,63396,1,0,0:0:0:0:
329,192,63396,1,0,0:0:0:0:
182,192,63396,1,0,0:0:0:0:
109,192,63583,1,0,0:0:0:0:
475,192,63771,128,0,65646:0:0:0:0:
182,192,63771,1,0,0:0:0:0:
402,192,63771,1,0,0:0:0:0:
256,192,63771,1,0,0:0:0:0:
256,192,63958,1,0,0:0:0:0:
182,192,64146,1,0,0:0:0:0:
329,192,64146,1,0,0:0:0:0:
109,192,64146,1,0,0:0:0:0:
402,192,64333,128,0,65646:0:0:0:0:
36,192,64333,1,0,0:0:0:0:
256,192,64521,1,0,0:0:0:0:
182,192,64521,1,0,0:0:0:0:
109,192,64708,1,0,0:0:0:0:
36,192,64708,1,0,0:0:0:0:
182,192,64896,1,0,0:0:0:0:
256,192,64896,1,0,0:0:0:0:
329,192,64896,1,0,0:0:0:0:
109,192,65083,1,0,0:0:0:0:
329,192,65271,128,0,65646:0:0:0:0:
182,192,65271,1,0,0:0:0:0:
36,192,65271,1,0,0:0:0:0:
109,192,65271,1,0,0:0:0:0:
109,192,65458,1,0,0:0:0:0:
182,192,65646,1,0,0:0:0:0:
109,192,65646,1,0,0:0:0:0:
36,192,65646,1,0,0:0:0:0:
256,192,66021,1,0,0:0:0:0:
402,192,66021,1,0,0:0:0:0:
475,192,66021,1,0,0:0:0:0:
182,192,66021,1,0,0:0:0:0:
402,192,66396,1,0,0:0:0:0:
329,192,66396,1,0,0:0:0:0:
182,192,66396,1,0,0:0:0:0:
109,192,66396,1,0,0:0:0:0:
256,192,66771,1,0,0:0:0:0:
329,192,66771,1,0,0:0:0:0:
109,192,66771,1,0,0:0:0:0:
36,192,66771,1,0,0:0:0:0:
475,192,66771,128,0,67333:0:0:0:0:
256,192,66958,1,0,0:0:0:0:
182,192,67146,1,0,0:0:0:0:
109,192,67146,1,0,0:0:0:0:
329,192,67146,1,0,0:0:0:0:
402,192,67146,1,0,0:0:0:0:
36,192,67333,128,0,68646:0:0:0:0:
402,192,67333,1,0,0:0:0:0:
182,192,67333,1,0,0:0:0:0:
109,192,67333,1,0,0:0:0:0:
329,192,67333,1,0,0:0:0:0:
256,192,67521,1,0,0:0:0:0:
109,192,67708,128,0,68646:0:0:0:0:
329,192,67708,128,0,67896:0:0:0:0:
402,192,67708,1,0,0:0:0:0:
475,192,67896,128,0,68083:0:0:0:0:
182,192,68083,128,0,68646:0:0:0:0:
256,192,68083,1,0,0:0:0:0:
402,192,68083,128,0,68646:0:0:0:0:
475,192,68271,1,0,0:0:0:0:
256,192,68458,1,0,0:0:0:0:
329,192,68458,1,0,0:0:0:0:
475,192,68646,1,0,0:0:0:0:
329,192,68646,1,0,0:0:0:0:
329,192,68833,1,0,0:0:0:0:
256,192,68927,1,0,0:0:0:0:
182,192,69021,1,0,0:0:0:0:
109,192,69208,1,0,0:0:0:0:
402,192,69208,1,0,0:0:0:0:
329,192,69208,1,0,0:0:0:0:
182,192,69208,1,0,0:0:0:0:
256,192,69396,1,0,0:0:0:0:
182,192,69396,1,0,0:0:0:0:
36,192,69396,1,0,0:0:0:0:
329,192,69396,1,0,0:0:0:0:
475,192,69396,1,0,0:0:0:0:
109,192,69583,1,0,0:0:0:0:
182,192,69677,1,0,0:0:0:0:
329,192,69771,1,0,0:0:0:0:
256,192,69771,1,0,0:0:0:0:
475,192,69771,128,0,70708:0:0:0:0:
182,192,69958,1,0,0:0:0:0:
402,192,69958,1,0,0:0:0:0:
109,192,69958,1,0,0:0:0:0:
36,192,69958,1,0,0:0:0:0:
182,192,70146,1,0,0:0:0:0:
402,192,70333,1,0,0:0:0:0:
256,192,70333,1,0,0:0:0:0:
329,192,70333,1,0,0:0:0:0:
182,192,70521,128,0,70708:0:0:0:0:
329,192,70521,1,0,0:0:0:0:
256,192,70708,1,0,0:0:0:0:
109,192,70708,1,0,0:0:0:0:
36,192,70708,128,0,71646:0:0:0:0:
182,192,70896,1,0,0:0:0:0:
329,192,70896,1,0,0:0:0:0:
402,192,70896,1,0,0:0:0:0:
182,192,71083,1,0,0:0:0:0:
109,192,71083,128,0,71646:0:0:0:0:
402,192,71083,1,0,0:0:0:0:
329,192,71083,1,0,0:0:0:0:
182,192,71458,1,0,0:0:0:0:
475,192,71458,1,0,0:0:0:0:
402,192,71458,1,0,0:0:0:0:
329,192,71646,1,0,0:0:0:0:
402,192,71646,1,0,0:0:0:0:
256,192,71646,128,0,72021:0:0:0:0:
182,192,71646,1,0,0:0:0:0:
36,192,72021,128,0,72208:0:0:0:0:
109,192,72021,1,0,0:0:0:0:
402,192,72021,128,0,72771:0:0:0:0:
329,192,72208,1,0,0:0:0:0:
182,192,72208,128,0,72396:0:0:0:0:
256,192,72396,1,0,0:0:0:0:
109,192,72396,128,0,72771:0:0:0:0:
475,192,72396,128,0,74271:0:0:0:0:
256,192,72771,1,0,0:0:0:0:
329,192,72771,1,0,0:0:0:0:
182,192,72771,128,0,73146:0:0:0:0:
36,192,72771,128,0,74271:0:0:0:0:
256,192,72958,1,0,0:0:0:0:
329,192,73146,1,0,0:0:0:0:
402,192,73146,1,0,0:0:0:0:
109,192,73146,1,0,0:0:0:0:
256,192,73333,1,0,0:0:0:0:
402,192,73521,1,0,0:0:0:0:
329,192,73521,1,0,0:0:0:0:
256,192,73708,1,0,0:0:0:0:
329,192,73708,1,0,0:0:0:0:
109,192,73896,1,0,0:0:0:0:
402,192,73896,1,0,0:0:0:0:
182,192,73896,1,0,0:0:0:0:
329,192,74083,1,0,0:0:0:0:
329,192,74271,128,0,75771:0:0:0:0:
182,192,74271,128,0,75771:0:0:0:0:
402,192,74271,1,0,0:0:0:0:
256,192,74271,1,0,0:0:0:0:
109,192,74271,1,0,0:0:0:0:
256,192,74458,1,0,0:0:0:0:
475,192,74646,1,0,0:0:0:0:
402,192,74646,1,0,0:0:0:0:
109,192,74646,1,0,0:0:0:0:
256,192,74833,1,0,0:0:0:0:
402,192,75021,1,0,0:0:0:0:
475,192,75021,1,0,0:0:0:0:
36,192,75208,1,0,0:0:0:0:
109,192,75208,1,0,0:0:0:0:
256,192,75396,1,0,0:0:0:0:
402,192,75396,1,0,0:0:0:0:
109,192,75396,1,0,0:0:0:0:
256,192,75583,1,0,0:0:0:0:
402,192,75771,128,0,78021:0:0:0:0:
109,192,75771,128,0,78021:0:0:0:0:
475,192,75771,128,0,76052:0:0:0:0:
36,192,75771,128,0,76052:0:0:0:0:
256,192,76146,1,0,0:0:0:0:
36,192,76146,1,0,0:0:0:0:
475,192,76146,1,0,0:0:0:0:
475,192,76333,1,0,0:0:0:0:
36,192,76333,1,0,0:0:0:0:
256,192,76521,1,0,0:0:0:0:
475,192,76521,1,0,0:0:0:0:
36,192,76521,1,0,0:0:0:0:
36,192,76708,1,0,0:0:0:0:
475,192,76708,1,0,0:0:0:0:
256,192,76896,1,0,0:0:0:0:
36,192,76896,1,0,0:0:0:0:
475,192,76896,1,0,0:0:0:0:
36,192,77083,1,0,0:0:0:0:
475,192,77083,1,0,0:0:0:0:
256,192,77271,1,0,0:0:0:0:
36,192,77271,1,0,0:0:0:0:
475,192,77271,1,0,0:0:0:0:
36,192,77458,1,0,0:0:0:0:
475,192,77458,1,0,0:0:0:0:
256,192,77646,1,0,0:0:0:0:
36,192,77646,1,0,0:0:0:0:
475,192,77646,1,0,0:0:0:0:
475,192,77833,1,0,0:0:0:0:
36,192,77833,1,0,0:0:0:0:
329,192,78021,1,0,0:0:0:0:
182,192,78114,1,0,0:0:0:0:
402,192,78208,1,0,0:0:0:0:
109,192,78302,1,0,0:0:0:0:
256,192,78396,1,0,0:0:0:0:
182,192,78583,1,0,0:0:0:0:
329,192,78583,1,0,0:0:0:0:
109,192,78583,1,0,0:0:0:0:
402,192,78958,128,0,79427:0:0:0:0:
256,192,79146,128,0,79614:0:0:0:0:
109,192,79333,128,0,79802:0:0:0:0:
402,192,79521,1,0,0:0:0:0:
329,192,79614,1,0,0:0:0:0:
256,192,79708,1,0,0:0:0:0:
182,192,79802,1,0,0:0:0:0:
109,192,79896,1,0,0:0:0:0:
182,192,79989,1,0,0:0:0:0:
256,192,80083,1,0,0:0:0:0:
329,192,80177,1,0,0:0:0:0:
402,192,80271,1,0,0:0:0:0:
36,192,80271,128,0,81583:0:0:0:0:
329,192,81583,128,0,83271:0:0:0:0:
182,192,83271,128,0,84583:0:0:0:0:
475,192,84583,128,0,85146:0:0:0:0:
475,192,85333,128,0,85896:0:0:0:0:
402,192,86083,1,0,0:0:0:0:
256,192,86177,1,0,0:0:0:0:
109,192,86271,128,0,87583:0:0:0:0:
36,192,86271,128,0,87583:0:0:0:0:
402,192,87583,128,0,89271:0:0:0:0:
475,192,87583,128,0,89271:0:0:0:0:
36,192,88896,128,0,89833:0:0:0:0:
256,192,89271,128,0,89833:0:0:0:0:
402,192,89833,128,0,90208:0:0:0:0:
256,192,90208,128,0,90583:0:0:0:0:
109,192,90583,128,0,90958:0:0:0:0:
256,192,90958,1,0,0:0:0:0:
109,192,91146,1,0,0:0:0:0:
182,192,91146,1,0,0:0:0:0:
329,192,91146,1,0,0:0:0:0:
402,192,91146,1,0,0:0:0:0:
256,192,91333,1,0,0:0:0:0:
36,192,91521,1,0,0:0:0:0:
109,192,91614,1,0,0:0:0:0:
182,192,91708,1,0,0:0:0:0:
256,192,91802,1,0,0:0:0:0:
475,192,91896,1,0,0:0:0:0:
402,192,91989,1,0,0:0:0:0:
329,192,92083,1,0,0:0:0:0:
256,192,92177,1,0,0:0:0:0:
182,192,92271,1,0,0:0:0:0:
36,192,92271,1,0,0:0:0:0:
402,192,92271,1,0,0:0:0:0:
256,192,92364,1,0,0:0:0:0:
329,192,92458,1,0,0:0:0:0:
402,192,92552,1,0,0:0:0:0:
256,192,92646,1,0,0:0:0:0:
475,192,92646,1,0,0:0:0:0:
329,192,92739,1,0,0:0:0:0:
256,192,92833,1,0,0:0:0:0:
182,192,92927,1,0,0:0:0:0:
36,192,93021,1,0,0:0:0:0:
329,192,93021,1,0,0:0:0:0:
402,192,93021,1,0,0:0:0:0:
109,192,93114,1,0,0:0:0:0:
329,192,93208,1,0,0:0:0:0:
402,192,93302,1,0,0:0:0:0:
475,192,93396,1,0,0:0:0:0:
256,192,93396,1,0,0:0:0:0:
182,192,93489,1,0,0:0:0:0:
256,192,93583,1,0,0:0:0:0:
329,192,93677,1,0,0:0:0:0:
182,192,93771,1,0,0:0:0:0:
109,192,93771,1,0,0:0:0:0:
402,192,93771,1,0,0:0:0:0:
329,192,93864,1,0,0:0:0:0:
256,192,93958,1,0,0:0:0:0:
182,192,94052,1,0,0:0:0:0:
329,192,94146,1,0,0:0:0:0:
36,192,94146,1,0,0:0:0:0:
109,192,94239,1,0,0:0:0:0:
329,192,94333,1,0,0:0:0:0:
402,192,94427,1,0,0:0:0:0:
109,192,94521,1,0,0:0:0:0:
256,192,94521,1,0,0:0:0:0:
475,192,94521,1,0,0:0:0:0:
182,192,94614,1,0,0:0:0:0:
329,192,94708,1,0,0:0:0:0:
256,192,94802,1,0,0:0:0:0:
182,192,94896,1,0,0:0:0:0:
402,192,94896,1,0,0:0:0:0:
