osu file format v14

[General]
AudioFilename: kakumei.mp3
AudioLeadIn: 0
PreviewTime: -1
Countdown: 1
SampleSet: None
StackLeniency: 0.7
Mode: 3
LetterboxInBreaks: 1
SpecialStyle: 0
WidescreenStoryboard: 1

[Editor]
Bookmarks: 113552
DistanceSpacing: 0.8
BeatDivisor: 4
GridSize: 4
TimelineZoom: 1.899999

[Metadata]
Title:Kakumei
TitleUnicode:Kakumei
Artist:Silent Siren
ArtistUnicode:Silent Siren
Creator:Imoera
Version:7K Aduka
Source:
Tags:
BeatmapID:771377
BeatmapSetID:349820

[Difficulty]
HPDrainRate:5
CircleSize:7
OverallDifficulty:5
ApproachRate:5
SliderMultiplier:1.4
SliderTickRate:1

[Events]
//Background and Video events
//Break Periods
//Storyboard Layer 0 (Background)
//Storyboard Layer 1 (Fail)
//Storyboard Layer 2 (Pass)
//Storyboard Layer 3 (Foreground)
//Storyboard Sound Samples

[TimingPoints]
15771,375,4,1,0,100,1,0
27771,-133.333333333333,4,1,0,100,0,0
30021,-50,4,1,0,100,0,0
30208,-100,4,1,0,100,0,0
30396,-1000,4,1,0,100,0,0
30724,-50,4,1,0,100,0,0
30771,-100,4,1,0,100,0,0
65646,-66.6666666666667,4,1,0,100,0,0
65833,-100,4,1,0,100,0,0
66021,-66.6666666666667,4,1,0,100,0,0
66208,-100,4,1,0,100,0,0
66396,-66.6666666666667,4,1,0,100,0,0
66583,-100,4,1,0,100,0,0

[HitObjects]
182,192,15771,128,0,17271:0:0:0:0:
329,192,15771,1,0,0:0:0:0:
36,192,15771,1,0,0:0:0:0:
402,192,15771,1,0,0:0:0:0:
256,192,15958,1,0,0:0:0:0:
109,192,15958,1,0,0:0:0:0:
329,192,16052,1,0,0:0:0:0:
402,192,16146,1,0,0:0:0:0:
475,192,16146,128,0,16192:0:0:0:0:
329,192,16333,1,0,0:0:0:0:
402,192,16333,1,0,0:0:0:0:
109,192,16427,1,0,0:0:0:0:
256,192,16521,1,0,0:0:0:0:
36,192,16521,128,0,16567:0:0:0:0:
329,192,16708,1,0,0:0:0:0:
402,192,16708,1,0,0:0:0:0:
475,192,16802,1,0,0:0:0:0:
256,192,16896,1,0,0:0:0:0:
402,192,16896,128,0,16942:0:0:0:0:
109,192,17083,1,0,0:0:0:0:
329,192,17083,1,0,0:0:0:0:
256,192,17177,1,0,0:0:0:0:
475,192,17271,128,0,18771:0:0:0:0:
402,192,17271,1,0,0:0:0:0:
329,192,17271,128,0,17317:0:0:0:0:
256,192,17458,1,0,0:0:0:0:
182,192,17458,1,0,0:0:0:0:
36,192,17552,1,0,0:0:0:0:
182,192,17646,1,0,0:0:0:0:
109,192,17646,128,0,17692:0:0:0:0:
402,192,17833,1,0,0:0:0:0:
256,192,17833,1,0,0:0:0:0:
329,192,17927,1,0,0:0:0:0:
182,192,18021,1,0,0:0:0:0:
256,192,18021,128,0,18067:0:0:0:0:
36,192,18208,1,0,0:0:0:0:
182,192,18208,1,0,0:0:0:0:
109,192,18302,1,0,0:0:0:0:
329,192,18396,1,0,0:0:0:0:
402,192,18396,128,0,18442:0:0:0:0:
329,192,18583,1,0,0:0:0:0:
109,192,18583,1,0,0:0:0:0:
36,192,18583,1,0,0:0:0:0:
256,192,18677,1,0,0:0:0:0:
329,192,18771,128,0,20271:0:0:0:0:
109,192,18771,1,0,0:0:0:0:
36,192,18771,1,0,0:0:0:0:
182,192,18771,128,0,18817:0:0:0:0:
256,192,18958,1,0,0:0:0:0:
182,192,18958,1,0,0:0:0:0:
109,192,19052,1,0,0:0:0:0:
475,192,19146,1,0,0:0:0:0:
402,192,19146,128,0,19192:0:0:0:0:
182,192,19333,1,0,0:0:0:0:
109,192,19333,1,0,0:0:0:0:
256,192,19427,1,0,0:0:0:0:
36,192,19521,1,0,0:0:0:0:
109,192,19521,128,0,19567:0:0:0:0:
182,192,19708,1,0,0:0:0:0:
402,192,19708,1,0,0:0:0:0:
475,192,19802,1,0,0:0:0:0:
402,192,19896,1,0,0:0:0:0:
256,192,19896,128,0,19942:0:0:0:0:
109,192,20083,1,0,0:0:0:0:
182,192,20083,1,0,0:0:0:0:
256,192,20177,1,0,0:0:0:0:
36,192,20271,128,0,21771:0:0:0:0:
182,192,20271,1,0,0:0:0:0:
402,192,20271,128,0,20317:0:0:0:0:
402,192,20458,1,0,0:0:0:0:
256,192,20458,1,0,0:0:0:0:
182,192,20552,1,0,0:0:0:0:
109,192,20646,1,0,0:0:0:0:
256,192,20646,128,0,20692:0:0:0:0:
329,192,20833,1,0,0:0:0:0:
475,192,20833,1,0,0:0:0:0:
182,192,20927,1,0,0:0:0:0:
402,192,21021,1,0,0:0:0:0:
329,192,21021,128,0,21067:0:0:0:0:
182,192,21208,1,0,0:0:0:0:
402,192,21208,1,0,0:0:0:0:
329,192,21302,1,0,0:0:0:0:
256,192,21396,1,0,0:0:0:0:
475,192,21396,128,0,21771:0:0:0:0:
329,192,21583,1,0,0:0:0:0:
182,192,21583,1,0,0:0:0:0:
402,192,21583,1,0,0:0:0:0:
109,192,21583,1,0,0:0:0:0:
256,192,21677,1,0,0:0:0:0:
182,192,21771,128,0,22146:0:0:0:0:
329,192,21771,128,0,22146:0:0:0:0:
402,192,21771,1,0,0:0:0:0:
109,192,21771,1,0,0:0:0:0:
36,192,21958,128,0,22146:0:0:0:0:
256,192,22146,1,0,0:0:0:0:
109,192,22146,1,0,0:0:0:0:
402,192,22146,1,0,0:0:0:0:
475,192,22146,128,0,22239:0:0:0:0:
256,192,22333,1,0,0:0:0:0:
109,192,22333,1,0,0:0:0:0:
402,192,22333,1,0,0:0:0:0:
475,192,22333,128,0,22427:0:0:0:0:
36,192,22521,1,0,0:0:0:0:
329,192,22521,1,0,0:0:0:0:
402,192,22521,128,0,22614:0:0:0:0:
109,192,22521,1,0,0:0:0:0:
36,192,22708,1,0,0:0:0:0:
329,192,22708,1,0,0:0:0:0:
402,192,22708,128,0,22802:0:0:0:0:
109,192,22708,1,0,0:0:0:0:
475,192,22896,1,0,0:0:0:0:
182,192,22896,1,0,0:0:0:0:
402,192,22896,1,0,0:0:0:0:
109,192,22896,128,0,22989:0:0:0:0:
475,192,23083,1,0,0:0:0:0:
182,192,23083,1,0,0:0:0:0:
402,192,23083,1,0,0:0:0:0:
109,192,23083,128,0,23177:0:0:0:0:
256,192,23177,1,0,0:0:0:0:
329,192,23271,128,0,23646:0:0:0:0:
182,192,23271,128,0,23646:0:0:0:0:
475,192,23458,128,0,23646:0:0:0:0:
256,192,23646,1,0,0:0:0:0:
402,192,23646,1,0,0:0:0:0:
109,192,23646,1,0,0:0:0:0:
36,192,23646,128,0,23739:0:0:0:0:
256,192,23833,1,0,0:0:0:0:
402,192,23833,1,0,0:0:0:0:
109,192,23833,1,0,0:0:0:0:
36,192,23833,128,0,23927:0:0:0:0:
475,192,24021,1,0,0:0:0:0:
182,192,24021,1,0,0:0:0:0:
402,192,24021,1,0,0:0:0:0:
109,192,24021,128,0,24114:0:0:0:0:
475,192,24208,1,0,0:0:0:0:
182,192,24208,1,0,0:0:0:0:
402,192,24208,1,0,0:0:0:0:
109,192,24208,128,0,24302:0:0:0:0:
36,192,24396,1,0,0:0:0:0:
329,192,24396,1,0,0:0:0:0:
402,192,24396,128,0,24489:0:0:0:0:
256,192,24396,1,0,0:0:0:0:
36,192,24583,1,0,0:0:0:0:
329,192,24583,1,0,0:0:0:0:
402,192,24583,128,0,24677:0:0:0:0:
256,192,24583,1,0,0:0:0:0:
109,192,24677,1,0,0:0:0:0:
329,192,24771,128,0,25146:0:0:0:0:
182,192,24771,128,0,25146:0:0:0:0:
256,192,24771,1,0,0:0:0:0:
475,192,24771,1,0,0:0:0:0:
36,192,24771,1,0,0:0:0:0:
475,192,24958,128,0,25333:0:0:0:0:
36,192,24958,128,0,25333:0:0:0:0:
402,192,25146,1,0,0:0:0:0:
109,192,25146,1,0,0:0:0:0:
256,192,25146,1,0,0:0:0:0:
109,192,25333,1,0,0:0:0:0:
402,192,25333,1,0,0:0:0:0:
256,192,25521,1,0,0:0:0:0:
109,192,25521,1,0,0:0:0:0:
402,192,25521,1,0,0:0:0:0:
475,192,25521,1,0,0:0:0:0:
36,192,25521,1,0,0:0:0:0:
402,192,25708,1,0,0:0:0:0:
109,192,25708,1,0,0:0:0:0:
475,192,25708,1,0,0:0:0:0:
36,192,25708,1,0,0:0:0:0:
256,192,25896,1,0,0:0:0:0:
109,192,25896,1,0,0:0:0:0:
402,192,25896,1,0,0:0:0:0:
36,192,25896,1,0,0:0:0:0:
475,192,25896,1,0,0:0:0:0:
402,192,26083,1,0,0:0:0:0:
109,192,26083,1,0,0:0:0:0:
475,192,26083,1,0,0:0:0:0:
36,192,26083,1,0,0:0:0:0:
256,192,26271,1,0,0:0:0:0:
109,192,26271,1,0,0:0:0:0:
402,192,26271,1,0,0:0:0:0:
475,192,26271,1,0,0:0:0:0:
36,192,26271,1,0,0:0:0:0:
402,192,26458,1,0,0:0:0:0:
109,192,26458,1,0,0:0:0:0:
36,192,26458,1,0,0:0:0:0:
475,192,26458,1,0,0:0:0:0:
256,192,26646,1,0,0:0:0:0:
109,192,26646,1,0,0:0:0:0:
402,192,26646,1,0,0:0:0:0:
36,192,26646,1,0,0:0:0:0:
475,192,26646,1,0,0:0:0:0:
402,192,26833,1,0,0:0:0:0:
109,192,26833,1,0,0:0:0:0:
475,192,26833,1,0,0:0:0:0:
36,192,26833,1,0,0:0:0:0:
256,192,27021,1,0,0:0:0:0:
109,192,27021,1,0,0:0:0:0:
402,192,27021,1,0,0:0:0:0:
475,192,27021,1,0,0:0:0:0:
36,192,27021,1,0,0:0:0:0:
402,192,27208,1,0,0:0:0:0:
109,192,27208,1,0,0:0:0:0:
36,192,27208,1,0,0:0:0:0:
475,192,27208,1,0,0:0:0:0:
256,192,27396,1,0,0:0:0:0:
109,192,27396,1,0,0:0:0:0:
402,192,27396,1,0,0:0:0:0:
36,192,27396,1,0,0:0:0:0:
475,192,27396,1,0,0:0:0:0:
256,192,27583,1,0,0:0:0:0:
109,192,27583,1,0,0:0:0:0:
402,192,27583,1,0,0:0:0:0:
475,192,27583,1,0,0:0:0:0:
36,192,27583,1,0,0:0:0:0:
402,192,27771,128,0,28239:0:0:0:0:
182,192,27771,128,0,28427:0:0:0:0:
256,192,27771,128,0,27958:0:0:0:0:
475,192,27771,1,0,0:0:0:0:
329,192,27958,128,0,28239:0:0:0:0:
109,192,27958,128,0,28146:0:0:0:0:
36,192,27958,1,0,0:0:0:0:
256,192,28146,128,0,28427:0:0:0:0:
36,192,28146,128,0,28333:0:0:0:0:
475,192,28146,1,0,0:0:0:0:
402,192,28333,128,0,28427:0:0:0:0:
329,192,28333,128,0,28427:0:0:0:0:
109,192,28333,1,0,0:0:0:0:
109,192,28896,128,0,29364:0:0:0:0:
329,192,28896,128,0,29552:0:0:0:0:
256,192,28896,128,0,29083:0:0:0:0:
36,192,28896,1,0,0:0:0:0:
182,192,29083,128,0,29364:0:0:0:0:
402,192,29083,128,0,29271:0:0:0:0:
475,192,29083,1,0,0:0:0:0:
256,192,29271,128,0,29552:0:0:0:0:
475,192,29271,128,0,29458:0:0:0:0:
36,192,29271,1,0,0:0:0:0:
109,192,29458,128,0,29552:0:0:0:0:
182,192,29458,128,0,29552:0:0:0:0:
402,192,29458,1,0,0:0:0:0:
109,192,30021,1,0,0:0:0:0:
402,192,30021,1,0,0:0:0:0:
256,192,30021,128,0,30208:0:0:0:0:
329,192,30021,128,0,30208:0:0:0:0:
182,192,30021,128,0,30208:0:0:0:0:
36,192,30208,1,0,0:0:0:0:
475,192,30208,1,0,0:0:0:0:
402,192,30208,1,0,0:0:0:0:
109,192,30208,1,0,0:0:0:0:
182,192,30771,128,0,30958:0:0:0:0:
475,192,30771,128,0,30864:0:0:0:0:
36,192,30771,1,0,0:0:0:0:
109,192,30771,1,0,0:0:0:0:
256,192,30771,1,0,0:0:0:0:
402,192,30864,128,0,30958:0:0:0:0:
329,192,30958,128,0,31333:0:0:0:0:
109,192,30958,128,0,31052:0:0:0:0:
182,192,31052,128,0,31146:0:0:0:0:
402,192,31146,128,0,31239:0:0:0:0:
475,192,31146,1,0,0:0:0:0:
256,192,31146,1,0,0:0:0:0:
36,192,31146,1,0,0:0:0:0:
182,192,31239,128,0,31333:0:0:0:0:
475,192,31333,128,0,31708:0:0:0:0:
256,192,31333,128,0,31427:0:0:0:0:
402,192,31427,128,0,31521:0:0:0:0:
329,192,31521,128,0,31614:0:0:0:0:
182,192,31521,1,0,0:0:0:0:
109,192,31521,1,0,0:0:0:0:
256,192,31614,128,0,31708:0:0:0:0:
402,192,31708,128,0,32083:0:0:0:0:
36,192,31708,128,0,31802:0:0:0:0:
329,192,31708,1,0,0:0:0:0:
182,192,31708,1,0,0:0:0:0:
182,192,31802,128,0,31896:0:0:0:0:
256,192,31896,128,0,31989:0:0:0:0:
109,192,31896,1,0,0:0:0:0:
36,192,31896,1,0,0:0:0:0:
475,192,31989,128,0,32083:0:0:0:0:
329,192,32083,128,0,32458:0:0:0:0:
182,192,32083,1,0,0:0:0:0:
109,192,32083,128,0,32177:0:0:0:0:
256,192,32083,1,0,0:0:0:0:
36,192,32083,1,0,0:0:0:0:
182,192,32177,128,0,32271:0:0:0:0:
475,192,32271,128,0,32364:0:0:0:0:
109,192,32364,128,0,32458:0:0:0:0:
256,192,32458,128,0,32646:0:0:0:0:
402,192,32458,1,0,0:0:0:0:
182,192,32458,128,0,32552:0:0:0:0:
475,192,32458,1,0,0:0:0:0:
329,192,32552,128,0,32646:0:0:0:0:
109,192,32646,128,0,33021:0:0:0:0:
402,192,32646,1,0,0:0:0:0:
36,192,32646,1,0,0:0:0:0:
475,192,32646,128,0,32739:0:0:0:0:
182,192,32739,128,0,32833:0:0:0:0:
36,192,32833,128,0,32927:0:0:0:0:
402,192,32927,128,0,33021:0:0:0:0:
182,192,33021,128,0,33208:0:0:0:0:
475,192,33021,1,0,0:0:0:0:
256,192,33021,128,0,33114:0:0:0:0:
329,192,33021,1,0,0:0:0:0:
475,192,33114,128,0,33208:0:0:0:0:
329,192,33208,128,0,33396:0:0:0:0:
402,192,33208,1,0,0:0:0:0:
109,192,33208,128,0,33302:0:0:0:0:
36,192,33208,1,0,0:0:0:0:
182,192,33302,128,0,33396:0:0:0:0:
475,192,33396,128,0,33771:0:0:0:0:
36,192,33396,1,0,0:0:0:0:
256,192,33396,128,0,33489:0:0:0:0:
109,192,33396,1,0,0:0:0:0:
402,192,33489,128,0,33583:0:0:0:0:
182,192,33583,128,0,33677:0:0:0:0:
256,192,33677,128,0,33771:0:0:0:0:
36,192,33771,128,0,33958:0:0:0:0:
329,192,33771,128,0,33864:0:0:0:0:
402,192,33771,1,0,0:0:0:0:
182,192,33771,1,0,0:0:0:0:
109,192,33864,128,0,33958:0:0:0:0:
182,192,33958,128,0,34333:0:0:0:0:
402,192,33958,128,0,34052:0:0:0:0:
475,192,34052,128,0,34146:0:0:0:0:
109,192,34146,1,0,0:0:0:0:
329,192,34146,128,0,34239:0:0:0:0:
36,192,34146,1,0,0:0:0:0:
402,192,34146,1,0,0:0:0:0:
256,192,34239,128,0,34333:0:0:0:0:
402,192,34333,128,0,34708:0:0:0:0:
109,192,34333,128,0,34427:0:0:0:0:
36,192,34427,128,0,34521:0:0:0:0:
256,192,34521,1,0,0:0:0:0:
109,192,34521,128,0,34614:0:0:0:0:
329,192,34521,1,0,0:0:0:0:
182,192,34614,128,0,34708:0:0:0:0:
475,192,34708,128,0,35083:0:0:0:0:
36,192,34708,1,0,0:0:0:0:
109,192,34708,1,0,0:0:0:0:
256,192,34708,128,0,34802:0:0:0:0:
182,192,34802,128,0,34896:0:0:0:0:
402,192,34896,1,0,0:0:0:0:
329,192,34896,1,0,0:0:0:0:
329,192,35083,128,0,35458:0:0:0:0:
109,192,35083,128,0,35271:0:0:0:0:
36,192,35083,128,0,35271:0:0:0:0:
256,192,35083,1,0,0:0:0:0:
182,192,35083,128,0,35130:0:0:0:0:
256,192,35458,128,0,35646:0:0:0:0:
402,192,35458,1,0,0:0:0:0:
475,192,35458,1,0,0:0:0:0:
109,192,35458,128,0,35505:0:0:0:0:
182,192,35646,128,0,36021:0:0:0:0:
109,192,35646,1,0,0:0:0:0:
36,192,35646,1,0,0:0:0:0:
402,192,35646,128,0,35692:0:0:0:0:
475,192,35833,128,0,36021:0:0:0:0:
402,192,35833,128,0,36021:0:0:0:0:
256,192,35833,1,0,0:0:0:0:
329,192,35833,128,0,35880:0:0:0:0:
36,192,36021,128,0,36208:0:0:0:0:
182,192,36208,128,0,36396:0:0:0:0:
329,192,36208,1,0,0:0:0:0:
402,192,36208,1,0,0:0:0:0:
475,192,36208,1,0,0:0:0:0:
329,192,36396,128,0,36583:0:0:0:0:
109,192,36396,1,0,0:0:0:0:
256,192,36396,1,0,0:0:0:0:
36,192,36396,1,0,0:0:0:0:
475,192,36583,128,0,36771:0:0:0:0:
36,192,36583,1,0,0:0:0:0:
182,192,36583,1,0,0:0:0:0:
109,192,36677,1,0,0:0:0:0:
256,192,36677,1,0,0:0:0:0:
36,192,36771,1,0,0:0:0:0:
329,192,36771,1,0,0:0:0:0:
402,192,36771,128,0,36864:0:0:0:0:
182,192,36771,128,0,36958:0:0:0:0:
475,192,36864,128,0,36958:0:0:0:0:
329,192,36958,128,0,37333:0:0:0:0:
256,192,36958,128,0,37052:0:0:0:0:
109,192,37052,128,0,37146:0:0:0:0:
36,192,37146,128,0,37239:0:0:0:0:
475,192,37146,1,0,0:0:0:0:
402,192,37146,1,0,0:0:0:0:
182,192,37146,1,0,0:0:0:0:
182,192,37239,128,0,37333:0:0:0:0:
475,192,37333,128,0,37708:0:0:0:0:
256,192,37333,128,0,37427:0:0:0:0:
402,192,37427,128,0,37521:0:0:0:0:
109,192,37521,1,0,0:0:0:0:
329,192,37521,128,0,37614:0:0:0:0:
36,192,37521,1,0,0:0:0:0:
182,192,37614,128,0,37708:0:0:0:0:
402,192,37708,128,0,38083:0:0:0:0:
109,192,37708,128,0,37802:0:0:0:0:
256,192,37708,1,0,0:0:0:0:
329,192,37708,1,0,0:0:0:0:
36,192,37802,128,0,37896:0:0:0:0:
182,192,37896,128,0,37989:0:0:0:0:
109,192,37896,1,0,0:0:0:0:
256,192,37896,1,0,0:0:0:0:
329,192,37989,128,0,38083:0:0:0:0:
475,192,38083,1,0,0:0:0:0:
182,192,38083,128,0,38458:0:0:0:0:
256,192,38083,128,0,38177:0:0:0:0:
36,192,38083,1,0,0:0:0:0:
402,192,38177,128,0,38271:0:0:0:0:
329,192,38271,128,0,38364:0:0:0:0:
36,192,38364,128,0,38458:0:0:0:0:
256,192,38458,128,0,38646:0:0:0:0:
402,192,38458,1,0,0:0:0:0:
475,192,38458,1,0,0:0:0:0:
109,192,38458,128,0,38552:0:0:0:0:
329,192,38552,128,0,38646:0:0:0:0:
36,192,38646,128,0,39021:0:0:0:0:
109,192,38646,1,0,0:0:0:0:
182,192,38646,1,0,0:0:0:0:
402,192,38646,128,0,38739:0:0:0:0:
475,192,38739,128,0,38833:0:0:0:0:
329,192,38833,128,0,38927:0:0:0:0:
182,192,38927,128,0,39021:0:0:0:0:
402,192,39021,128,0,39208:0:0:0:0:
475,192,39021,1,0,0:0:0:0:
256,192,39021,1,0,0:0:0:0:
109,192,39021,128,0,39114:0:0:0:0:
256,192,39114,128,0,39208:0:0:0:0:
182,192,39208,128,0,39396:0:0:0:0:
36,192,39208,1,0,0:0:0:0:
329,192,39208,128,0,39302:0:0:0:0:
109,192,39208,1,0,0:0:0:0:
475,192,39302,128,0,39396:0:0:0:0:
256,192,39396,128,0,39771:0:0:0:0:
329,192,39396,1,0,0:0:0:0:
109,192,39396,1,0,0:0:0:0:
402,192,39396,128,0,39489:0:0:0:0:
475,192,39489,128,0,39583:0:0:0:0:
109,192,39583,128,0,39677:0:0:0:0:
36,192,39677,128,0,39771:0:0:0:0:
475,192,39771,128,0,41083:0:0:0:0:
109,192,39771,1,0,0:0:0:0:
329,192,39771,1,0,0:0:0:0:
182,192,39771,128,0,39864:0:0:0:0:
256,192,39864,128,0,39958:0:0:0:0:
402,192,39958,128,0,40052:0:0:0:0:
329,192,40052,128,0,40146:0:0:0:0:
256,192,40146,128,0,40239:0:0:0:0:
36,192,40146,1,0,0:0:0:0:
182,192,40146,1,0,0:0:0:0:
109,192,40239,128,0,40333:0:0:0:0:
36,192,40333,128,0,40427:0:0:0:0:
109,192,40427,128,0,40521:0:0:0:0:
182,192,40521,1,0,0:0:0:0:
256,192,40521,1,0,0:0:0:0:
329,192,40521,128,0,40614:0:0:0:0:
402,192,40614,128,0,40708:0:0:0:0:
109,192,40708,1,0,0:0:0:0:
182,192,40708,128,0,40802:0:0:0:0:
36,192,40708,1,0,0:0:0:0:
256,192,40802,128,0,40896:0:0:0:0:
329,192,40896,1,0,0:0:0:0:
109,192,40896,128,0,40989:0:0:0:0:
402,192,40896,1,0,0:0:0:0:
182,192,40989,128,0,41083:0:0:0:0:
256,192,41083,1,0,0:0:0:0:
36,192,41083,128,0,41646:0:0:0:0:
329,192,41083,1,0,0:0:0:0:
402,192,41458,1,0,0:0:0:0:
182,192,41458,1,0,0:0:0:0:
329,192,41458,1,0,0:0:0:0:
109,192,41458,128,0,42021:0:0:0:0:
256,192,41458,1,0,0:0:0:0:
402,192,41646,1,0,0:0:0:0:
475,192,41646,1,0,0:0:0:0:
256,192,41646,1,0,0:0:0:0:
329,192,41646,1,0,0:0:0:0:
182,192,41833,128,0,42208:0:0:0:0:
329,192,42021,1,0,0:0:0:0:
475,192,42021,1,0,0:0:0:0:
256,192,42114,1,0,0:0:0:0:
402,192,42114,1,0,0:0:0:0:
329,192,42208,128,0,42771:0:0:0:0:
109,192,42302,1,0,0:0:0:0:
256,192,42302,1,0,0:0:0:0:
475,192,42396,128,0,42771:0:0:0:0:
402,192,42396,128,0,42771:0:0:0:0:
36,192,42396,1,0,0:0:0:0:
182,192,42396,1,0,0:0:0:0:
109,192,42771,128,0,43521:0:0:0:0:
36,192,42771,1,0,0:0:0:0:
182,192,42771,1,0,0:0:0:0:
256,192,42771,1,0,0:0:0:0:
329,192,42958,1,0,0:0:0:0:
182,192,43146,1,0,0:0:0:0:
475,192,43146,1,0,0:0:0:0:
402,192,43146,1,0,0:0:0:0:
256,192,43146,1,0,0:0:0:0:
402,192,43333,1,0,0:0:0:0:
329,192,43521,1,0,0:0:0:0:
36,192,43521,1,0,0:0:0:0:
256,192,43521,1,0,0:0:0:0:
109,192,43708,1,0,0:0:0:0:
402,192,43708,1,0,0:0:0:0:
329,192,43708,1,0,0:0:0:0:
182,192,43896,1,0,0:0:0:0:
329,192,43896,128,0,44271:0:0:0:0:
36,192,43896,1,0,0:0:0:0:
109,192,43896,1,0,0:0:0:0:
256,192,44083,1,0,0:0:0:0:
109,192,44271,1,0,0:0:0:0:
402,192,44271,1,0,0:0:0:0:
475,192,44271,128,0,45021:0:0:0:0:
182,192,44271,1,0,0:0:0:0:
182,192,44458,1,0,0:0:0:0:
329,192,44646,1,0,0:0:0:0:
36,192,44646,1,0,0:0:0:0:
109,192,44646,1,0,0:0:0:0:
402,192,44646,1,0,0:0:0:0:
256,192,44833,1,0,0:0:0:0:
182,192,45021,1,0,0:0:0:0:
329,192,45021,1,0,0:0:0:0:
109,192,45021,1,0,0:0:0:0:
182,192,45208,1,0,0:0:0:0:
256,192,45208,1,0,0:0:0:0:
36,192,45208,1,0,0:0:0:0:
109,192,45396,1,0,0:0:0:0:
402,192,45396,1,0,0:0:0:0:
329,192,45396,128,0,45583:0:0:0:0:
475,192,45396,1,0,0:0:0:0:
256,192,45583,1,0,0:0:0:0:
109,192,45583,128,0,45771:0:0:0:0:
329,192,45771,1,0,0:0:0:0:
475,192,45771,1,0,0:0:0:0:
182,192,45771,128,0,46521:0:0:0:0:
402,192,45771,1,0,0:0:0:0:
402,192,45958,1,0,0:0:0:0:
329,192,46146,1,0,0:0:0:0:
36,192,46146,1,0,0:0:0:0:
256,192,46146,1,0,0:0:0:0:
475,192,46146,1,0,0:0:0:0:
329,192,46333,1,0,0:0:0:0:
36,192,46521,1,0,0:0:0:0:
109,192,46521,1,0,0:0:0:0:
256,192,46521,1,0,0:0:0:0:
475,192,46708,1,0,0:0:0:0:
329,192,46708,128,0,47083:0:0:0:0:
402,192,46708,1,0,0:0:0:0:
109,192,46896,1,0,0:0:0:0:
36,192,46896,1,0,0:0:0:0:
182,192,46896,1,0,0:0:0:0:
256,192,46896,1,0,0:0:0:0:
182,192,47083,1,0,0:0:0:0:
36,192,47271,1,0,0:0:0:0:
475,192,47271,1,0,0:0:0:0:
402,192,47271,128,0,48021:0:0:0:0:
109,192,47271,1,0,0:0:0:0:
329,192,47271,1,0,0:0:0:0:
256,192,47271,1,0,0:0:0:0:
182,192,47458,1,0,0:0:0:0:
475,192,47646,1,0,0:0:0:0:
182,192,47646,128,0,48021:0:0:0:0:
36,192,47646,1,0,0:0:0:0:
109,192,47646,1,0,0:0:0:0:
256,192,47646,1,0,0:0:0:0:
329,192,47833,1,0,0:0:0:0:
475,192,48021,1,0,0:0:0:0:
36,192,48021,1,0,0:0:0:0:
256,192,48021,128,0,48771:0:0:0:0:
329,192,48021,1,0,0:0:0:0:
182,192,48208,1,0,0:0:0:0:
475,192,48396,1,0,0:0:0:0:
36,192,48396,128,0,48771:0:0:0:0:
402,192,48396,1,0,0:0:0:0:
109,192,48396,1,0,0:0:0:0:
182,192,48583,1,0,0:0:0:0:
329,192,48771,1,0,0:0:0:0:
475,192,48771,128,0,49521:0:0:0:0:
402,192,48771,1,0,0:0:0:0:
109,192,48771,1,0,0:0:0:0:
182,192,48958,1,0,0:0:0:0:
256,192,49146,1,0,0:0:0:0:
36,192,49146,1,0,0:0:0:0:
402,192,49146,1,0,0:0:0:0:
109,192,49146,1,0,0:0:0:0:
329,192,49333,1,0,0:0:0:0:
109,192,49521,1,0,0:0:0:0:
36,192,49521,1,0,0:0:0:0:
256,192,49521,1,0,0:0:0:0:
182,192,49708,1,0,0:0:0:0:
475,192,49708,1,0,0:0:0:0:
402,192,49708,1,0,0:0:0:0:
256,192,49896,1,0,0:0:0:0:
329,192,49896,1,0,0:0:0:0:
402,192,49896,128,0,50271:0:0:0:0:
109,192,49896,1,0,0:0:0:0:
182,192,50083,1,0,0:0:0:0:
256,192,50271,1,0,0:0:0:0:
109,192,50271,1,0,0:0:0:0:
329,192,50271,1,0,0:0:0:0:
36,192,50271,128,0,51021:0:0:0:0:
329,192,50458,1,0,0:0:0:0:
182,192,50646,1,0,0:0:0:0:
402,192,50646,1,0,0:0:0:0:
475,192,50646,1,0,0:0:0:0:
256,192,50646,1,0,0:0:0:0:
256,192,50833,1,0,0:0:0:0:
329,192,51021,1,0,0:0:0:0:
182,192,51021,1,0,0:0:0:0:
402,192,51021,1,0,0:0:0:0:
329,192,51208,1,0,0:0:0:0:
109,192,51208,1,0,0:0:0:0:
475,192,51208,128,0,51396:0:0:0:0:
256,192,51396,1,0,0:0:0:0:
36,192,51396,1,0,0:0:0:0:
182,192,51396,1,0,0:0:0:0:
402,192,51396,128,0,51583:0:0:0:0:
109,192,51583,1,0,0:0:0:0:
329,192,51583,128,0,51771:0:0:0:0:
182,192,51771,1,0,0:0:0:0:
256,192,51771,1,0,0:0:0:0:
475,192,51771,1,0,0:0:0:0:
329,192,51958,1,0,0:0:0:0:
402,192,52146,1,0,0:0:0:0:
36,192,52146,1,0,0:0:0:0:
182,192,52146,1,0,0:0:0:0:
256,192,52146,1,0,0:0:0:0:
329,192,52333,1,0,0:0:0:0:
182,192,52521,1,0,0:0:0:0:
109,192,52521,1,0,0:0:0:0:
402,192,52521,128,0,52708:0:0:0:0:
182,192,52708,1,0,0:0:0:0:
256,192,52708,1,0,0:0:0:0:
475,192,52708,128,0,52896:0:0:0:0:
36,192,52896,1,0,0:0:0:0:
329,192,52896,1,0,0:0:0:0:
182,192,52896,128,0,53271:0:0:0:0:
109,192,52896,1,0,0:0:0:0:
256,192,53083,1,0,0:0:0:0:
329,192,53271,1,0,0:0:0:0:
36,192,53271,128,0,53646:0:0:0:0:
475,192,53271,1,0,0:0:0:0:
256,192,53458,1,0,0:0:0:0:
182,192,53646,1,0,0:0:0:0:
402,192,53646,1,0,0:0:0:0:
329,192,53646,1,0,0:0:0:0:
475,192,53646,1,0,0:0:0:0:
329,192,53833,1,0,0:0:0:0:
402,192,53833,1,0,0:0:0:0:
256,192,53833,1,0,0:0:0:0:
109,192,53927,1,0,0:0:0:0:
182,192,53927,1,0,0:0:0:0:
36,192,53927,1,0,0:0:0:0:
329,192,54021,1,0,0:0:0:0:
475,192,54021,1,0,0:0:0:0:
402,192,54021,1,0,0:0:0:0:
182,192,54208,1,0,0:0:0:0:
109,192,54208,1,0,0:0:0:0:
402,192,54208,1,0,0:0:0:0:
475,192,54208,1,0,0:0:0:0:
256,192,54208,1,0,0:0:0:0:
36,192,54396,1,0,0:0:0:0:
109,192,54396,1,0,0:0:0:0:
329,192,54396,1,0,0:0:0:0:
402,192,54396,1,0,0:0:0:0:
182,192,54396,1,0,0:0:0:0:
329,192,54583,1,0,0:0:0:0:
256,192,54583,1,0,0:0:0:0:
329,192,54677,1,0,0:0:0:0:
256,192,54677,1,0,0:0:0:0:
475,192,54771,128,0,56271:0:0:0:0:
36,192,54771,128,0,55521:0:0:0:0:
182,192,54771,1,0,0:0:0:0:
109,192,54771,1,0,0:0:0:0:
402,192,54771,1,0,0:0:0:0:
329,192,54958,1,0,0:0:0:0:
109,192,55146,128,0,55521:0:0:0:0:
256,192,55146,1,0,0:0:0:0:
402,192,55146,1,0,0:0:0:0:
182,192,55146,1,0,0:0:0:0:
329,192,55333,1,0,0:0:0:0:
182,192,55521,128,0,56271:0:0:0:0:
402,192,55521,1,0,0:0:0:0:
256,192,55521,1,0,0:0:0:0:
109,192,55708,1,0,0:0:0:0:
329,192,55708,1,0,0:0:0:0:
402,192,55708,1,0,0:0:0:0:
109,192,55896,128,0,56271:0:0:0:0:
402,192,55896,1,0,0:0:0:0:
256,192,55896,1,0,0:0:0:0:
36,192,55896,1,0,0:0:0:0:
36,192,56083,1,0,0:0:0:0:
36,192,56271,128,0,57771:0:0:0:0:
402,192,56271,1,0,0:0:0:0:
329,192,56271,1,0,0:0:0:0:
256,192,56271,128,0,57021:0:0:0:0:
182,192,56458,1,0,0:0:0:0:
402,192,56646,128,0,57021:0:0:0:0:
109,192,56646,1,0,0:0:0:0:
329,192,56646,1,0,0:0:0:0:
475,192,56646,1,0,0:0:0:0:
182,192,56833,1,0,0:0:0:0:
329,192,57021,128,0,57771:0:0:0:0:
109,192,57021,1,0,0:0:0:0:
182,192,57021,1,0,0:0:0:0:
402,192,57208,1,0,0:0:0:0:
256,192,57208,1,0,0:0:0:0:
475,192,57208,1,0,0:0:0:0:
475,192,57396,128,0,57771:0:0:0:0:
256,192,57396,1,0,0:0:0:0:
182,192,57396,1,0,0:0:0:0:
109,192,57396,1,0,0:0:0:0:
402,192,57583,1,0,0:0:0:0:
256,192,57771,128,0,59271:0:0:0:0:
109,192,57771,1,0,0:0:0:0:
402,192,57771,1,0,0:0:0:0:
182,192,57958,1,0,0:0:0:0:
182,192,58146,1,0,0:0:0:0:
109,192,58146,1,0,0:0:0:0:
329,192,58146,1,0,0:0:0:0:
402,192,58146,1,0,0:0:0:0:
36,192,58333,1,0,0:0:0:0:
475,192,58521,1,0,0:0:0:0:
329,192,58521,1,0,0:0:0:0:
402,192,58521,1,0,0:0:0:0:
182,192,58708,1,0,0:0:0:0:
109,192,58708,1,0,0:0:0:0:
36,192,58708,1,0,0:0:0:0:
402,192,58896,1,0,0:0:0:0:
329,192,58896,1,0,0:0:0:0:
475,192,58896,1,0,0:0:0:0:
109,192,58896,1,0,0:0:0:0:
182,192,59083,1,0,0:0:0:0:
402,192,59271,128,0,60771:0:0:0:0:
36,192,59271,1,0,0:0:0:0:
109,192,59271,1,0,0:0:0:0:
329,192,59271,1,0,0:0:0:0:
109,192,59458,1,0,0:0:0:0:
36,192,59646,128,0,60771:0:0:0:0:
182,192,59646,1,0,0:0:0:0:
256,192,59646,1,0,0:0:0:0:
329,192,59646,1,0,0:0:0:0:
475,192,59646,1,0,0:0:0:0:
182,192,59833,1,0,0:0:0:0:
475,192,60021,128,0,60771:0:0:0:0:
109,192,60021,1,0,0:0:0:0:
329,192,60021,1,0,0:0:0:0:
256,192,60021,1,0,0:0:0:0:
182,192,60208,1,0,0:0:0:0:
109,192,60208,1,0,0:0:0:0:
256,192,60208,1,0,0:0:0:0:
256,192,60396,128,0,60771:0:0:0:0:
329,192,60396,1,0,0:0:0:0:
182,192,60396,1,0,0:0:0:0:
182,192,60771,128,0,61052:0:0:0:0:
109,192,60771,128,0,61427:0:0:0:0:
329,192,60771,1,0,0:0:0:0:
402,192,60958,1,0,0:0:0:0:
329,192,61146,1,0,0:0:0:0:
475,192,61146,1,0,0:0:0:0:
256,192,61146,1,0,0:0:0:0:
182,192,61146,128,0,61802:0:0:0:0:
402,192,61333,1,0,0:0:0:0:
36,192,61521,1,0,0:0:0:0:
329,192,61521,1,0,0:0:0:0:
109,192,61521,128,0,62271:0:0:0:0:
256,192,61521,1,0,0:0:0:0:
402,192,61708,1,0,0:0:0:0:
329,192,61708,1,0,0:0:0:0:
475,192,61708,1,0,0:0:0:0:
475,192,61896,1,0,0:0:0:0:
256,192,61896,1,0,0:0:0:0:
182,192,61896,128,0,62271:0:0:0:0:
36,192,61896,1,0,0:0:0:0:
402,192,62083,1,0,0:0:0:0:
475,192,62271,1,0,0:0:0:0:
256,192,62271,1,0,0:0:0:0:
36,192,62271,128,0,62552:0:0:0:0:
329,192,62271,128,0,62927:0:0:0:0:
256,192,62646,1,0,0:0:0:0:
182,192,62646,1,0,0:0:0:0:
402,192,62646,1,0,0:0:0:0:
36,192,62646,128,0,63302:0:0:0:0:
475,192,62833,1,0,0:0:0:0:
109,192,63021,1,0,0:0:0:0:
329,192,63021,128,0,63771:0:0:0:0:
182,192,63021,1,0,0:0:0:0:
475,192,63208,1,0,0:0:0:0:
256,192,63208,1,0,0:0:0:0:
402,192,63208,1,0,0:0:0:0:
182,192,63396,1,0,0:0:0:0:
36,192,63396,128,0,63771:0:0:0:0:
109,192,63396,1,0,0:0:0:0:
256,192,63396,1,0,0:0:0:0:
109,192,63583,128,0,63771:0:0:0:0:
475,192,63771,128,0,65646:0:0:0:0:
182,192,63771,1,0,0:0:0:0:
402,192,63771,1,0,0:0:0:0:
256,192,63771,1,0,0:0:0:0:
256,192,63958,1,0,0:0:0:0:
182,192,64146,1,0,0:0:0:0:
329,192,64146,1,0,0:0:0:0:
109,192,64146,1,0,0:0:0:0:
36,192,64146,128,0,64521:0:0:0:0:
402,192,64333,128,0,65646:0:0:0:0:
182,192,64333,1,0,0:0:0:0:
256,192,64521,1,0,0:0:0:0:
329,192,64521,1,0,0:0:0:0:
182,192,64521,1,0,0:0:0:0:
256,192,64708,1,0,0:0:0:0:
329,192,64708,1,0,0:0:0:0:
182,192,64708,1,0,0:0:0:0:
256,192,64896,1,0,0:0:0:0:
329,192,64896,1,0,0:0:0:0:
109,192,64896,1,0,0:0:0:0:
36,192,64896,128,0,65271:0:0:0:0:
182,192,65083,1,0,0:0:0:0:
329,192,65271,128,0,65646:0:0:0:0:
182,192,65271,1,0,0:0:0:0:
109,192,65271,1,0,0:0:0:0:
256,192,65271,1,0,0:0:0:0:
109,192,65458,1,0,0:0:0:0:
182,192,65646,1,0,0:0:0:0:
109,192,65646,1,0,0:0:0:0:
36,192,65646,1,0,0:0:0:0:
256,192,65646,1,0,0:0:0:0:
256,192,66021,1,0,0:0:0:0:
402,192,66021,1,0,0:0:0:0:
475,192,66021,1,0,0:0:0:0:
182,192,66021,1,0,0:0:0:0:
109,192,66021,1,0,0:0:0:0:
402,192,66396,1,0,0:0:0:0:
329,192,66396,1,0,0:0:0:0:
182,192,66396,1,0,0:0:0:0:
109,192,66396,1,0,0:0:0:0:
36,192,66396,1,0,0:0:0:0:
256,192,66771,1,0,0:0:0:0:
329,192,66771,1,0,0:0:0:0:
109,192,66771,1,0,0:0:0:0:
36,192,66771,1,0,0:0:0:0:
475,192,66771,128,0,67333:0:0:0:0:
182,192,66958,1,0,0:0:0:0:
402,192,66958,1,0,0:0:0:0:
109,192,66958,1,0,0:0:0:0:
329,192,66958,1,0,0:0:0:0:
36,192,67333,128,0,68646:0:0:0:0:
402,192,67333,1,0,0:0:0:0:
182,192,67333,1,0,0:0:0:0:
109,192,67333,1,0,0:0:0:0:
329,192,67333,1,0,0:0:0:0:
256,192,67333,1,0,0:0:0:0:
329,192,67708,128,0,67896:0:0:0:0:
182,192,67708,1,0,0:0:0:0:
256,192,67708,1,0,0:0:0:0:
402,192,67708,1,0,0:0:0:0:
475,192,67708,1,0,0:0:0:0:
109,192,67708,128,0,68458:0:0:0:0:
475,192,67896,128,0,68646:0:0:0:0:
402,192,68083,128,0,68646:0:0:0:0:
256,192,68083,1,0,0:0:0:0:
329,192,68083,1,0,0:0:0:0:
182,192,68083,128,0,68458:0:0:0:0:
256,192,68458,1,0,0:0:0:0:
109,192,68646,1,0,0:0:0:0:
182,192,68646,1,0,0:0:0:0:
329,192,68646,1,0,0:0:0:0:
402,192,68833,1,0,0:0:0:0:
329,192,68833,1,0,0:0:0:0:
256,192,68927,1,0,0:0:0:0:
182,192,68927,1,0,0:0:0:0:
36,192,69021,1,0,0:0:0:0:
109,192,69021,1,0,0:0:0:0:
109,192,69208,1,0,0:0:0:0:
402,192,69208,1,0,0:0:0:0:
329,192,69208,1,0,0:0:0:0:
182,192,69208,1,0,0:0:0:0:
256,192,69396,1,0,0:0:0:0:
182,192,69396,1,0,0:0:0:0:
36,192,69396,1,0,0:0:0:0:
329,192,69396,1,0,0:0:0:0:
475,192,69396,1,0,0:0:0:0:
329,192,69583,1,0,0:0:0:0:
182,192,69583,1,0,0:0:0:0:
402,192,69677,1,0,0:0:0:0:
256,192,69677,1,0,0:0:0:0:
475,192,69771,128,0,70333:0:0:0:0:
109,192,69771,128,0,70333:0:0:0:0:
329,192,69771,1,0,0:0:0:0:
182,192,69771,1,0,0:0:0:0:
36,192,69771,1,0,0:0:0:0:
329,192,69958,1,0,0:0:0:0:
256,192,69958,1,0,0:0:0:0:
402,192,69958,1,0,0:0:0:0:
402,192,70146,128,0,70521:0:0:0:0:
36,192,70146,128,0,70521:0:0:0:0:
182,192,70333,1,0,0:0:0:0:
256,192,70333,1,0,0:0:0:0:
329,192,70333,1,0,0:0:0:0:
256,192,70521,128,0,70896:0:0:0:0:
109,192,70708,128,0,70896:0:0:0:0:
402,192,70708,128,0,70896:0:0:0:0:
329,192,70708,1,0,0:0:0:0:
182,192,70708,1,0,0:0:0:0:
36,192,70896,1,0,0:0:0:0:
475,192,70896,1,0,0:0:0:0:
182,192,71083,128,0,71646:0:0:0:0:
329,192,71083,128,0,71646:0:0:0:0:
256,192,71083,1,0,0:0:0:0:
109,192,71083,1,0,0:0:0:0:
402,192,71083,1,0,0:0:0:0:
475,192,71458,128,0,71646:0:0:0:0:
36,192,71458,128,0,71646:0:0:0:0:
256,192,71458,1,0,0:0:0:0:
256,192,71646,128,0,72021:0:0:0:0:
402,192,71646,128,0,71739:0:0:0:0:
109,192,71646,128,0,71739:0:0:0:0:
36,192,72021,128,0,72208:0:0:0:0:
109,192,72021,1,0,0:0:0:0:
402,192,72021,128,0,72771:0:0:0:0:
329,192,72208,1,0,0:0:0:0:
182,192,72208,128,0,72396:0:0:0:0:
256,192,72396,1,0,0:0:0:0:
109,192,72396,128,0,72771:0:0:0:0:
475,192,72396,128,0,74271:0:0:0:0:
256,192,72771,1,0,0:0:0:0:
329,192,72771,1,0,0:0:0:0:
182,192,72771,128,0,73146:0:0:0:0:
36,192,72771,128,0,74271:0:0:0:0:
256,192,72958,1,0,0:0:0:0:
329,192,73146,1,0,0:0:0:0:
402,192,73146,1,0,0:0:0:0:
109,192,73146,1,0,0:0:0:0:
256,192,73333,1,0,0:0:0:0:
402,192,73521,1,0,0:0:0:0:
329,192,73521,1,0,0:0:0:0:
256,192,73708,1,0,0:0:0:0:
329,192,73708,1,0,0:0:0:0:
109,192,73896,1,0,0:0:0:0:
402,192,73896,1,0,0:0:0:0:
182,192,73896,1,0,0:0:0:0:
329,192,74083,1,0,0:0:0:0:
329,192,74271,128,0,75771:0:0:0:0:
182,192,74271,128,0,75771:0:0:0:0:
402,192,74271,1,0,0:0:0:0:
256,192,74271,1,0,0:0:0:0:
109,192,74271,1,0,0:0:0:0:
256,192,74458,1,0,0:0:0:0:
475,192,74646,1,0,0:0:0:0:
402,192,74646,1,0,0:0:0:0:
109,192,74646,1,0,0:0:0:0:
256,192,74833,1,0,0:0:0:0:
402,192,75021,1,0,0:0:0:0:
475,192,75021,1,0,0:0:0:0:
36,192,75208,1,0,0:0:0:0:
109,192,75208,1,0,0:0:0:0:
256,192,75396,1,0,0:0:0:0:
402,192,75396,1,0,0:0:0:0:
109,192,75396,1,0,0:0:0:0:
256,192,75583,1,0,0:0:0:0:
402,192,75771,128,0,78021:0:0:0:0:
109,192,75771,128,0,78021:0:0:0:0:
475,192,75771,128,0,76052:0:0:0:0:
36,192,75771,128,0,76052:0:0:0:0:
256,192,76146,1,0,0:0:0:0:
36,192,76146,1,0,0:0:0:0:
475,192,76146,1,0,0:0:0:0:
475,192,76333,1,0,0:0:0:0:
36,192,76333,1,0,0:0:0:0:
256,192,76521,1,0,0:0:0:0:
475,192,76521,1,0,0:0:0:0:
36,192,76521,1,0,0:0:0:0:
36,192,76708,1,0,0:0:0:0:
475,192,76708,1,0,0:0:0:0:
256,192,76896,1,0,0:0:0:0:
36,192,76896,1,0,0:0:0:0:
475,192,76896,1,0,0:0:0:0:
36,192,77083,1,0,0:0:0:0:
475,192,77083,1,0,0:0:0:0:
256,192,77271,1,0,0:0:0:0:
36,192,77271,1,0,0:0:0:0:
475,192,77271,1,0,0:0:0:0:
36,192,77458,1,0,0:0:0:0:
475,192,77458,1,0,0:0:0:0:
256,192,77646,1,0,0:0:0:0:
36,192,77646,1,0,0:0:0:0:
475,192,77646,1,0,0:0:0:0:
475,192,77833,1,0,0:0:0:0:
36,192,77833,1,0,0:0:0:0:
329,192,78021,1,0,0:0:0:0:
182,192,78114,1,0,0:0:0:0:
402,192,78208,1,0,0:0:0:0:
109,192,78302,1,0,0:0:0:0:
256,192,78396,1,0,0:0:0:0:
182,192,78583,1,0,0:0:0:0:
329,192,78583,1,0,0:0:0:0:
109,192,78583,1,0,0:0:0:0:
402,192,78958,128,0,79427:0:0:0:0:
256,192,79146,128,0,79614:0:0:0:0:
109,192,79333,128,0,79802:0:0:0:0:
402,192,79521,1,0,0:0:0:0:
329,192,79614,1,0,0:0:0:0:
256,192,79708,1,0,0:0:0:0:
182,192,79802,1,0,0:0:0:0:
109,192,79896,1,0,0:0:0:0:
182,192,79989,1,0,0:0:0:0:
256,192,80083,1,0,0:0:0:0:
329,192,80177,1,0,0:0:0:0:
402,192,80271,1,0,0:0:0:0:
36,192,80271,128,0,81583:0:0:0:0:
182,192,80271,128,0,80458:0:0:0:0:
329,192,80646,128,0,80833:0:0:0:0:
475,192,81021,128,0,81208:0:0:0:0:
182,192,81396,128,0,81583:0:0:0:0:
329,192,81583,128,0,83271:0:0:0:0:
402,192,81771,128,0,81958:0:0:0:0:
475,192,82146,128,0,82333:0:0:0:0:
256,192,82521,128,0,82708:0:0:0:0:
109,192,82896,128,0,83083:0:0:0:0:
182,192,83271,128,0,84583:0:0:0:0:
402,192,83271,128,0,83458:0:0:0:0:
475,192,83646,128,0,83833:0:0:0:0:
256,192,84021,128,0,84208:0:0:0:0:
109,192,84396,128,0,84583:0:0:0:0:
475,192,84583,128,0,85146:0:0:0:0:
475,192,85333,128,0,85896:0:0:0:0:
402,192,86083,1,0,0:0:0:0:
256,192,86177,1,0,0:0:0:0:
109,192,86271,128,0,87583:0:0:0:0:
36,192,86271,128,0,87583:0:0:0:0:
402,192,87583,128,0,89271:0:0:0:0:
475,192,87583,128,0,89271:0:0:0:0:
36,192,88896,128,0,89833:0:0:0:0:
256,192,89271,128,0,89833:0:0:0:0:
402,192,89833,128,0,90208:0:0:0:0:
256,192,90208,128,0,90583:0:0:0:0:
109,192,90583,128,0,90958:0:0:0:0:
256,192,90958,1,0,0:0:0:0:
109,192,91146,1,0,0:0:0:0:
182,192,91146,1,0,0:0:0:0:
329,192,91146,1,0,0:0:0:0:
402,192,91146,1,0,0:0:0:0:
256,192,91521,1,0,0:0:0:0:
36,192,91521,1,0,0:0:0:0:
329,192,91614,1,0,0:0:0:0:
109,192,91614,1,0,0:0:0:0:
402,192,91708,1,0,0:0:0:0:
182,192,91708,1,0,0:0:0:0:
256,192,91802,1,0,0:0:0:0:
475,192,91802,1,0,0:0:0:0:
36,192,91802,1,0,0:0:0:0:
109,192,91896,1,0,0:0:0:0:
329,192,91896,1,0,0:0:0:0:
182,192,91989,1,0,0:0:0:0:
402,192,91989,1,0,0:0:0:0:
256,192,92083,1,0,0:0:0:0:
475,192,92083,1,0,0:0:0:0:
182,192,92177,1,0,0:0:0:0:
402,192,92177,1,0,0:0:0:0:
36,192,92271,1,0,0:0:0:0:
109,192,92271,1,0,0:0:0:0:
329,192,92271,1,0,0:0:0:0:
256,192,92364,1,0,0:0:0:0:
475,192,92364,1,0,0:0:0:0:
182,192,92458,1,0,0:0:0:0:
402,192,92458,1,0,0:0:0:0:
109,192,92552,1,0,0:0:0:0:
329,192,92552,1,0,0:0:0:0:
256,192,92646,1,0,0:0:0:0:
475,192,92646,1,0,0:0:0:0:
182,192,92646,1,0,0:0:0:0:
36,192,92646,1,0,0:0:0:0:
109,192,92739,1,0,0:0:0:0:
329,192,92739,1,0,0:0:0:0:
182,192,92833,1,0,0:0:0:0:
402,192,92833,1,0,0:0:0:0:
256,192,92927,1,0,0:0:0:0:
329,192,92927,1,0,0:0:0:0:
36,192,93021,1,0,0:0:0:0:
402,192,93021,1,0,0:0:0:0:
475,192,93021,1,0,0:0:0:0:
109,192,93114,1,0,0:0:0:0:
329,192,93114,1,0,0:0:0:0:
182,192,93208,1,0,0:0:0:0:
475,192,93208,1,0,0:0:0:0:
402,192,93208,1,0,0:0:0:0:
256,192,93208,1,0,0:0:0:0:
329,192,93302,1,0,0:0:0:0:
109,192,93302,1,0,0:0:0:0:
36,192,93396,1,0,0:0:0:0:
475,192,93396,1,0,0:0:0:0:
402,192,93396,1,0,0:0:0:0:
256,192,93396,1,0,0:0:0:0:
329,192,93489,1,0,0:0:0:0:
182,192,93489,1,0,0:0:0:0:
36,192,93583,1,0,0:0:0:0:
475,192,93583,1,0,0:0:0:0:
109,192,93583,1,0,0:0:0:0:
182,192,93677,1,0,0:0:0:0:
329,192,93677,1,0,0:0:0:0:
402,192,93771,1,0,0:0:0:0:
256,192,93771,1,0,0:0:0:0:
182,192,93864,1,0,0:0:0:0:
329,192,93864,1,0,0:0:0:0:
109,192,93958,1,0,0:0:0:0:
402,192,93958,1,0,0:0:0:0:
475,192,93958,1,0,0:0:0:0:
182,192,94052,1,0,0:0:0:0:
256,192,94052,1,0,0:0:0:0:
329,192,94146,1,0,0:0:0:0:
475,192,94146,1,0,0:0:0:0:
109,192,94146,1,0,0:0:0:0:
36,192,94146,1,0,0:0:0:0:
256,192,94239,1,0,0:0:0:0:
402,192,94239,1,0,0:0:0:0:
182,192,94333,1,0,0:0:0:0:
329,192,94333,1,0,0:0:0:0:
109,192,94427,1,0,0:0:0:0:
256,192,94427,1,0,0:0:0:0:
36,192,94521,1,0,0:0:0:0:
182,192,94521,1,0,0:0:0:0:
402,192,94521,1,0,0:0:0:0:
109,192,94614,1,0,0:0:0:0:
329,192,94614,1,0,0:0:0:0:
182,192,94708,1,0,0:0:0:0:
402,192,94708,1,0,0:0:0:0:
36,192,94708,1,0,0:0:0:0:
256,192,94802,1,0,0:0:0:0:
475,192,94802,1,0,0:0:0:0:
182,192,94896,1,0,0:0:0:0:
329,192,94896,1,0,0:0:0:0:
402,192,94896,1,0,0:0:0:0:
36,192,94896,1,0,0:0:0:0:
109,192,94989,1,0,0:0:0:0:
256,192,94989,1,0,0:0:0:0:
36,192,95083,1,0,0:0:0:0:
329,192,95083,1,0,0:0:0:0:
109,192,95177,1,0,0:0:0:0:
256,192,95177,1,0,0:0:0:0:
182,192,95271,1,0,0:0:0:0:
402,192,95271,1,0,0:0:0:0:
36,192,95271,1,0,0:0:0:0:
256,192,95364,1,0,0:0:0:0:
475,192,95364,1,0,0:0:0:0:
402,192,95458,1,0,0:0:0:0:
182,192,95458,1,0,0:0:0:0:
329,192,95552,1,0,0:0:0:0:
109,192,95552,1,0,0:0:0:0:
256,192,95646,1,0,0:0:0:0:
36,192,95646,1,0,0:0:0:0:
182,192,95646,1,0,0:0:0:0:
402,192,95646,1,0,0:0:0:0:
109,192,95739,1,0,0:0:0:0:
329,192,95739,1,0,0:0:0:0:
182,192,95833,1,0,0:0:0:0:
402,192,95833,1,0,0:0:0:0:
256,192,95927,1,0,0:0:0:0:
475,192,95927,1,0,0:0:0:0:
182,192,96021,1,0,0:0:0:0:
329,192,96021,1,0,0:0:0:0:
402,192,96021,1,0,0:0:0:0:
109,192,96114,1,0,0:0:0:0:
256,192,96114,1,0,0:0:0:0:
36,192,96208,1,0,0:0:0:0:
182,192,96208,1,0,0:0:0:0:
402,192,96208,1,0,0:0:0:0:
256,192,96302,1,0,0:0:0:0:
109,192,96302,1,0,0:0:0:0:
475,192,96396,1,0,0:0:0:0:
36,192,96396,1,0,0:0:0:0:
329,192,96396,1,0,0:0:0:0:
256,192,96489,1,0,0:0:0:0:
402,192,96489,1,0,0:0:0:0:
182,192,96583,1,0,0:0:0:0:
109,192,96583,1,0,0:0:0:0:
329,192,96583,1,0,0:0:0:0:
475,192,96583,1,0,0:0:0:0:
256,192,96958,1,0,0:0:0:0:
475,192,96958,1,0,0:0:0:0:
402,192,96958,1,0,0:0:0:0:
182,192,96958,1,0,0:0:0:0:
182,192,97146,1,0,0:0:0:0:
402,192,97146,1,0,0:0:0:0:
329,192,97146,1,0,0:0:0:0:
109,192,97146,1,0,0:0:0:0:
256,192,97333,1,0,0:0:0:0:
36,192,97333,1,0,0:0:0:0:
109,192,97333,1,0,0:0:0:0:
329,192,97333,1,0,0:0:0:0:
329,192,97708,1,0,0:0:0:0:
402,192,97708,1,0,0:0:0:0:
256,192,97708,1,0,0:0:0:0:
475,192,97708,1,0,0:0:0:0:
36,192,97896,1,0,0:0:0:0:
109,192,97896,1,0,0:0:0:0:
182,192,97896,1,0,0:0:0:0:
256,192,97896,1,0,0:0:0:0:
329,192,98083,1,0,0:0:0:0:
329,192,98177,1,0,0:0:0:0:
36,192,98271,128,0,99021:0:0:0:0:
475,192,98271,128,0,98458:0:0:0:0:
256,192,98271,128,0,98458:0:0:0:0:
109,192,98364,128,0,98552:0:0:0:0:
329,192,98364,128,0,98552:0:0:0:0:
182,192,98458,128,0,98646:0:0:0:0:
402,192,98458,128,0,98646:0:0:0:0:
256,192,98552,128,0,98739:0:0:0:0:
475,192,98552,128,0,98739:0:0:0:0:
109,192,98646,128,0,98833:0:0:0:0:
329,192,98646,128,0,98833:0:0:0:0:
182,192,98739,128,0,98927:0:0:0:0:
402,192,98739,128,0,98927:0:0:0:0:
475,192,98833,128,0,99302:0:0:0:0:
256,192,98833,128,0,99021:0:0:0:0:
109,192,98927,128,0,99114:0:0:0:0:
329,192,98927,128,0,99114:0:0:0:0:
402,192,99021,128,0,99208:0:0:0:0:
182,192,99021,128,0,99208:0:0:0:0:
256,192,99114,128,0,99302:0:0:0:0:
36,192,99114,128,0,99583:0:0:0:0:
109,192,99208,128,0,99489:0:0:0:0:
329,192,99208,128,0,99489:0:0:0:0:
402,192,99302,128,0,99396:0:0:0:0:
182,192,99302,128,0,99396:0:0:0:0:
256,192,99396,128,0,99583:0:0:0:0:
475,192,99396,128,0,99771:0:0:0:0:
182,192,99489,128,0,99677:0:0:0:0:
402,192,99489,128,0,99864:0:0:0:0:
329,192,99583,128,0,99677:0:0:0:0:
109,192,99583,128,0,99958:0:0:0:0:
256,192,99677,128,0,99771:0:0:0:0:
36,192,99677,128,0,100052:0:0:0:0:
182,192,99771,128,0,99864:0:0:0:0:
329,192,99771,128,0,99958:0:0:0:0:
256,192,99864,128,0,100052:0:0:0:0:
475,192,99864,128,0,100333:0:0:0:0:
182,192,99958,128,0,100239:0:0:0:0:
402,192,99958,128,0,100239:0:0:0:0:
109,192,100052,128,0,100146:0:0:0:0:
329,192,100052,128,0,100146:0:0:0:0:
256,192,100146,128,0,100333:0:0:0:0:
36,192,100146,128,0,100521:0:0:0:0:
329,192,100239,128,0,100427:0:0:0:0:
109,192,100239,128,0,100427:0:0:0:0:
182,192,100333,128,0,100521:0:0:0:0:
402,192,100333,128,0,100614:0:0:0:0:
256,192,100427,128,0,100614:0:0:0:0:
475,192,100427,128,0,100802:0:0:0:0:
109,192,100521,128,0,100708:0:0:0:0:
329,192,100521,128,0,100708:0:0:0:0:
182,192,100614,128,0,100989:0:0:0:0:
36,192,100614,128,0,100802:0:0:0:0:
256,192,100708,128,0,101177:0:0:0:0:
402,192,100708,128,0,100896:0:0:0:0:
109,192,100802,128,0,100896:0:0:0:0:
329,192,100802,128,0,101083:0:0:0:0:
36,192,100896,1,0,0:0:0:0:
475,192,100896,1,0,0:0:0:0:
109,192,100989,1,0,0:0:0:0:
402,192,100989,1,0,0:0:0:0:
182,192,101083,1,0,0:0:0:0:
329,192,101177,1,0,0:0:0:0:
256,192,101271,1,0,0:0:0:0:
402,192,101271,1,0,0:0:0:0:
475,192,101271,1,0,0:0:0:0:
109,192,101271,1,0,0:0:0:0:
182,192,101271,1,0,0:0:0:0:
36,192,101271,128,0,102396:0:0:0:0:
329,192,101458,1,0,0:0:0:0:
256,192,101646,1,0,0:0:0:0:
182,192,101646,1,0,0:0:0:0:
109,192,101646,1,0,0:0:0:0:
475,192,101646,1,0,0:0:0:0:
402,192,101646,1,0,0:0:0:0:
329,192,101833,1,0,0:0:0:0:
109,192,102021,1,0,0:0:0:0:
256,192,102021,1,0,0:0:0:0:
182,192,102021,1,0,0:0:0:0:
402,192,102021,1,0,0:0:0:0:
475,192,102021,1,0,0:0:0:0:
109,192,102208,1,0,0:0:0:0:
182,192,102208,1,0,0:0:0:0:
256,192,102208,1,0,0:0:0:0:
402,192,102208,1,0,0:0:0:0:
475,192,102208,1,0,0:0:0:0:
329,192,102396,128,0,102958:0:0:0:0:
475,192,102583,128,0,102958:0:0:0:0:
256,192,102583,128,0,103146:0:0:0:0:
402,192,102583,128,0,102958:0:0:0:0:
109,192,102583,1,0,0:0:0:0:
36,192,102583,1,0,0:0:0:0:
182,192,102958,128,0,103521:0:0:0:0:
36,192,102958,1,0,0:0:0:0:
109,192,102958,1,0,0:0:0:0:
36,192,103146,128,0,103521:0:0:0:0:
109,192,103146,128,0,103521:0:0:0:0:
402,192,103146,1,0,0:0:0:0:
475,192,103146,1,0,0:0:0:0:
475,192,103521,1,0,0:0:0:0:
329,192,103521,1,0,0:0:0:0:
402,192,103614,1,0,0:0:0:0:
256,192,103614,1,0,0:0:0:0:
182,192,103708,1,0,0:0:0:0:
329,192,103708,1,0,0:0:0:0:
109,192,103802,1,0,0:0:0:0:
256,192,103802,1,0,0:0:0:0:
36,192,103896,1,0,0:0:0:0:
329,192,103896,128,0,104271:0:0:0:0:
402,192,103896,128,0,104271:0:0:0:0:
475,192,103896,128,0,104083:0:0:0:0:
182,192,103896,128,0,103989:0:0:0:0:
109,192,104271,1,0,0:0:0:0:
182,192,104271,128,0,104458:0:0:0:0:
475,192,104271,1,0,0:0:0:0:
36,192,104271,128,0,104364:0:0:0:0:
256,192,104364,128,0,104458:0:0:0:0:
329,192,104458,128,0,104833:0:0:0:0:
109,192,104458,128,0,104552:0:0:0:0:
182,192,104552,128,0,104646:0:0:0:0:
36,192,104646,1,0,0:0:0:0:
256,192,104646,1,0,0:0:0:0:
475,192,104646,1,0,0:0:0:0:
402,192,104646,128,0,104739:0:0:0:0:
182,192,104739,128,0,104833:0:0:0:0:
256,192,104833,128,0,104927:0:0:0:0:
475,192,104833,128,0,105208:0:0:0:0:
402,192,104927,128,0,105021:0:0:0:0:
182,192,105021,1,0,0:0:0:0:
109,192,105021,1,0,0:0:0:0:
329,192,105021,128,0,105114:0:0:0:0:
256,192,105114,128,0,105208:0:0:0:0:
402,192,105208,128,0,105583:0:0:0:0:
36,192,105208,128,0,105302:0:0:0:0:
182,192,105208,1,0,0:0:0:0:
329,192,105208,1,0,0:0:0:0:
182,192,105302,128,0,105396:0:0:0:0:
109,192,105396,1,0,0:0:0:0:
256,192,105396,128,0,105489:0:0:0:0:
36,192,105396,1,0,0:0:0:0:
475,192,105489,128,0,105583:0:0:0:0:
329,192,105583,128,0,105958:0:0:0:0:
36,192,105583,1,0,0:0:0:0:
109,192,105583,128,0,105677:0:0:0:0:
182,192,105583,1,0,0:0:0:0:
256,192,105583,1,0,0:0:0:0:
182,192,105677,128,0,105771:0:0:0:0:
475,192,105771,128,0,105864:0:0:0:0:
109,192,105864,128,0,105958:0:0:0:0:
402,192,105958,1,0,0:0:0:0:
256,192,105958,128,0,106146:0:0:0:0:
475,192,105958,1,0,0:0:0:0:
182,192,105958,128,0,106052:0:0:0:0:
329,192,106052,128,0,106146:0:0:0:0:
475,192,106146,128,0,106239:0:0:0:0:
109,192,106146,128,0,106521:0:0:0:0:
402,192,106146,1,0,0:0:0:0:
36,192,106146,1,0,0:0:0:0:
182,192,106239,128,0,106333:0:0:0:0:
36,192,106333,128,0,106427:0:0:0:0:
402,192,106427,128,0,106521:0:0:0:0:
475,192,106521,1,0,0:0:0:0:
182,192,106521,128,0,106708:0:0:0:0:
256,192,106521,128,0,106614:0:0:0:0:
329,192,106521,1,0,0:0:0:0:
475,192,106614,128,0,106708:0:0:0:0:
329,192,106708,128,0,106896:0:0:0:0:
109,192,106708,128,0,106802:0:0:0:0:
36,192,106708,1,0,0:0:0:0:
402,192,106708,1,0,0:0:0:0:
182,192,106802,128,0,106896:0:0:0:0:
36,192,106896,1,0,0:0:0:0:
109,192,106896,1,0,0:0:0:0:
256,192,106896,128,0,106989:0:0:0:0:
475,192,106896,128,0,107271:0:0:0:0:
402,192,106989,128,0,107083:0:0:0:0:
182,192,107083,128,0,107177:0:0:0:0:
256,192,107177,128,0,107271:0:0:0:0:
402,192,107271,1,0,0:0:0:0:
182,192,107271,1,0,0:0:0:0:
329,192,107271,128,0,107364:0:0:0:0:
36,192,107271,128,0,107458:0:0:0:0:
109,192,107364,128,0,107458:0:0:0:0:
182,192,107458,128,0,107833:0:0:0:0:
402,192,107458,128,0,107552:0:0:0:0:
475,192,107552,128,0,107646:0:0:0:0:
329,192,107646,128,0,107739:0:0:0:0:
36,192,107646,1,0,0:0:0:0:
109,192,107646,1,0,0:0:0:0:
402,192,107646,1,0,0:0:0:0:
256,192,107739,128,0,107833:0:0:0:0:
402,192,107833,128,0,108208:0:0:0:0:
109,192,107833,128,0,107927:0:0:0:0:
36,192,107927,128,0,108021:0:0:0:0:
256,192,108021,1,0,0:0:0:0:
329,192,108021,1,0,0:0:0:0:
109,192,108021,128,0,108114:0:0:0:0:
182,192,108114,128,0,108208:0:0:0:0:
256,192,108208,128,0,108302:0:0:0:0:
36,192,108208,1,0,0:0:0:0:
109,192,108208,1,0,0:0:0:0:
475,192,108208,128,0,108583:0:0:0:0:
182,192,108302,128,0,108396:0:0:0:0:
329,192,108396,1,0,0:0:0:0:
402,192,108396,1,0,0:0:0:0:
256,192,108583,1,0,0:0:0:0:
109,192,108583,128,0,108771:0:0:0:0:
329,192,108583,128,0,108958:0:0:0:0:
182,192,108583,128,0,108771:0:0:0:0:
36,192,108583,128,0,108630:0:0:0:0:
109,192,108958,128,0,109005:0:0:0:0:
402,192,108958,1,0,0:0:0:0:
475,192,108958,1,0,0:0:0:0:
256,192,108958,128,0,109146:0:0:0:0:
36,192,109146,1,0,0:0:0:0:
182,192,109146,128,0,109521:0:0:0:0:
109,192,109146,1,0,0:0:0:0:
402,192,109146,128,0,109192:0:0:0:0:
256,192,109333,1,0,0:0:0:0:
402,192,109333,128,0,109521:0:0:0:0:
329,192,109333,128,0,109521:0:0:0:0:
475,192,109333,128,0,109380:0:0:0:0:
36,192,109521,128,0,109708:0:0:0:0:
182,192,109708,128,0,109896:0:0:0:0:
329,192,109708,1,0,0:0:0:0:
402,192,109708,1,0,0:0:0:0:
475,192,109708,1,0,0:0:0:0:
36,192,109896,1,0,0:0:0:0:
329,192,109896,128,0,110083:0:0:0:0:
256,192,109896,1,0,0:0:0:0:
109,192,109896,1,0,0:0:0:0:
182,192,110083,1,0,0:0:0:0:
475,192,110083,128,0,110271:0:0:0:0:
36,192,110083,1,0,0:0:0:0:
109,192,110177,1,0,0:0:0:0:
256,192,110177,1,0,0:0:0:0:
36,192,110271,1,0,0:0:0:0:
402,192,110271,128,0,110364:0:0:0:0:
182,192,110271,128,0,110458:0:0:0:0:
329,192,110271,1,0,0:0:0:0:
475,192,110364,128,0,110458:0:0:0:0:
256,192,110458,128,0,110552:0:0:0:0:
329,192,110458,128,0,110833:0:0:0:0:
109,192,110552,128,0,110646:0:0:0:0:
36,192,110646,128,0,110739:0:0:0:0:
182,192,110646,1,0,0:0:0:0:
402,192,110646,1,0,0:0:0:0:
475,192,110646,1,0,0:0:0:0:
182,192,110739,128,0,110833:0:0:0:0:
256,192,110833,128,0,110927:0:0:0:0:
475,192,110833,128,0,111208:0:0:0:0:
402,192,110927,128,0,111021:0:0:0:0:
329,192,111021,128,0,111114:0:0:0:0:
109,192,111021,1,0,0:0:0:0:
36,192,111021,1,0,0:0:0:0:
182,192,111114,128,0,111208:0:0:0:0:
256,192,111208,1,0,0:0:0:0:
329,192,111208,1,0,0:0:0:0:
402,192,111208,128,0,111583:0:0:0:0:
109,192,111208,128,0,111302:0:0:0:0:
36,192,111302,128,0,111396:0:0:0:0:
109,192,111396,1,0,0:0:0:0:
182,192,111396,128,0,111489:0:0:0:0:
256,192,111396,1,0,0:0:0:0:
475,192,111583,1,0,0:0:0:0:
256,192,111583,128,0,111677:0:0:0:0:
36,192,111583,1,0,0:0:0:0:
182,192,111583,128,0,111958:0:0:0:0:
402,192,111677,128,0,111771:0:0:0:0:
329,192,111771,128,0,111864:0:0:0:0:
36,192,111864,128,0,111958:0:0:0:0:
402,192,111958,1,0,0:0:0:0:
109,192,111958,128,0,112052:0:0:0:0:
256,192,111958,128,0,112146:0:0:0:0:
475,192,111958,1,0,0:0:0:0:
329,192,112052,128,0,112146:0:0:0:0:
36,192,112146,128,0,112521:0:0:0:0:
402,192,112146,128,0,112239:0:0:0:0:
109,192,112146,1,0,0:0:0:0:
182,192,112146,1,0,0:0:0:0:
475,192,112239,128,0,112333:0:0:0:0:
329,192,112333,128,0,112427:0:0:0:0:
182,192,112427,128,0,112521:0:0:0:0:
109,192,112521,128,0,112614:0:0:0:0:
475,192,112521,1,0,0:0:0:0:
402,192,112521,128,0,112708:0:0:0:0:
256,192,112521,1,0,0:0:0:0:
256,192,112614,128,0,112708:0:0:0:0:
329,192,112708,128,0,112802:0:0:0:0:
182,192,112708,128,0,112896:0:0:0:0:
109,192,112708,1,0,0:0:0:0:
36,192,112708,1,0,0:0:0:0:
475,192,112802,128,0,112896:0:0:0:0:
329,192,112896,1,0,0:0:0:0:
402,192,112896,128,0,112989:0:0:0:0:
109,192,112896,1,0,0:0:0:0:
256,192,112896,128,0,113271:0:0:0:0:
475,192,112989,128,0,113083:0:0:0:0:
109,192,113083,128,0,113177:0:0:0:0:
36,192,113177,128,0,113271:0:0:0:0:
109,192,113271,1,0,0:0:0:0:
329,192,113271,1,0,0:0:0:0:
182,192,113271,128,0,113364:0:0:0:0:
475,192,113271,128,0,114583:0:0:0:0:
256,192,113364,128,0,113458:0:0:0:0:
402,192,113458,128,0,113552:0:0:0:0:
329,192,113552,128,0,113646:0:0:0:0:
182,192,113646,1,0,0:0:0:0:
256,192,113646,128,0,113739:0:0:0:0:
36,192,113646,1,0,0:0:0:0:
109,192,113739,128,0,113833:0:0:0:0:
36,192,113833,128,0,113927:0:0:0:0:
109,192,113927,128,0,114021:0:0:0:0:
329,192,114021,128,0,114114:0:0:0:0:
182,192,114021,1,0,0:0:0:0:
256,192,114021,1,0,0:0:0:0:
402,192,114114,128,0,114208:0:0:0:0:
182,192,114208,128,0,114302:0:0:0:0:
109,192,114208,1,0,0:0:0:0:
36,192,114208,1,0,0:0:0:0:
256,192,114302,128,0,114396:0:0:0:0:
329,192,114396,1,0,0:0:0:0:
402,192,114396,1,0,0:0:0:0:
109,192,114396,128,0,114489:0:0:0:0:
182,192,114489,128,0,114583:0:0:0:0:
36,192,114583,1,0,0:0:0:0:
109,192,114583,1,0,0:0:0:0:
256,192,114583,128,0,115146:0:0:0:0:
475,192,114958,1,0,0:0:0:0:
402,192,114958,1,0,0:0:0:0:
329,192,114958,128,0,115521:0:0:0:0:
182,192,114958,1,0,0:0:0:0:
109,192,115146,1,0,0:0:0:0:
36,192,115146,1,0,0:0:0:0:
182,192,115146,1,0,0:0:0:0:
475,192,115333,128,0,115708:0:0:0:0:
36,192,115521,1,0,0:0:0:0:
182,192,115521,1,0,0:0:0:0:
109,192,115614,1,0,0:0:0:0:
256,192,115614,1,0,0:0:0:0:
402,192,115708,128,0,116271:0:0:0:0:
182,192,115708,1,0,0:0:0:0:
329,192,115708,1,0,0:0:0:0:
109,192,115802,1,0,0:0:0:0:
256,192,115802,1,0,0:0:0:0:
475,192,115896,128,0,116271:0:0:0:0:
36,192,115896,1,0,0:0:0:0:
182,192,115896,1,0,0:0:0:0:
36,192,116271,1,0,0:0:0:0:
109,192,116271,1,0,0:0:0:0:
182,192,116271,1,0,0:0:0:0:
256,192,116271,1,0,0:0:0:0:
329,192,116271,1,0,0:0:0:0:
