osu file format v14

[General]
AudioFilename: Silent Siren - Hachigatsu no Yoru.mp3
AudioLeadIn: 0
PreviewTime: 62174
Countdown: 0
SampleSet: Soft
StackLeniency: 0.7
Mode: 3
LetterboxInBreaks: 0
SpecialStyle: 0
WidescreenStoryboard: 0

[Editor]
DistanceSpacing: 1
BeatDivisor: 4
GridSize: 16
TimelineZoom: 2.899999

[Metadata]
Title:Hachigatsu no Yoru
TitleUnicode:八月の夜
Artist:Silent Siren
ArtistUnicode:Silent Siren
Creator:AchsanLovers
Version:Rivals' 7K Hard
Source:
Tags:JPop Yoshida Sumire Umemura Hinako Yamauchi Aina Kurosaka Yukako 吉田菫 梅村妃奈子 山内あいな 黒坂優香子 Critical_Star Rivals_7
BeatmapID:1324831
BeatmapSetID:621593

[Difficulty]
HPDrainRate:7.5
CircleSize:7
OverallDifficulty:7.5
ApproachRate:5
SliderMultiplier:1.4
SliderTickRate:1

[Events]
//Background and Video events
0,0,"63238926_p0.jpg",0,0
//Break Periods
//Storyboard Layer 0 (Background)
//Storyboard Layer 1 (Fail)
//Storyboard Layer 2 (Pass)
//Storyboard Layer 3 (Foreground)
//Storyboard Sound Samples

[TimingPoints]
1037,319.148936170213,4,2,1,40,1,0
59781,319.148936170213,4,2,1,40,1,0
62653,-100,4,2,1,40,0,1
72227,-100,4,2,1,40,0,0
72546,-100,4,2,1,40,0,1
82759,-100,4,2,1,40,0,0
92972,-100,4,2,1,40,0,1
100632,-100,4,2,1,40,0,0

[HitObjects]
109,192,717,128,0,1037:0:0:0:0:
402,192,717,128,0,1037:0:0:0:0:
36,192,1037,1,2,0:0:0:0:
256,192,1037,1,4,0:0:0:0:
475,192,1037,1,0,0:0:0:0:
329,192,1196,1,0,0:0:0:0:
36,192,1356,1,8,0:0:0:0:
109,192,1356,1,0,0:0:0:0:
402,192,1356,1,0,0:0:0:0:
182,192,1515,1,0,0:0:0:0:
256,192,1675,1,2,0:0:0:0:
475,192,1675,1,0,0:0:0:0:
36,192,1834,1,0,0:0:0:0:
109,192,1994,1,8,0:0:0:0:
402,192,1994,1,0,0:0:0:0:
475,192,1994,1,0,0:0:0:0:
329,192,2154,1,0,0:0:0:0:
182,192,2313,1,2,0:0:0:0:
256,192,2313,1,0,0:0:0:0:
109,192,2473,1,0,0:0:0:0:
36,192,2632,1,8,0:0:0:0:
256,192,2632,1,0,0:0:0:0:
475,192,2632,1,0,0:0:0:0:
329,192,2792,1,0,0:0:0:0:
182,192,2951,1,2,0:0:0:0:
402,192,2951,1,0,0:0:0:0:
109,192,3111,1,0,0:0:0:0:
36,192,3271,1,8,0:0:0:0:
256,192,3271,1,0,0:0:0:0:
475,192,3271,1,0,0:0:0:0:
329,192,3430,1,0,0:0:0:0:
109,192,3590,1,2,0:0:0:0:
402,192,3590,1,0,0:0:0:0:
182,192,3749,1,0,0:0:0:0:
36,192,3909,1,8,0:0:0:0:
329,192,3909,1,0,0:0:0:0:
475,192,3909,1,0,0:0:0:0:
256,192,4068,1,0,0:0:0:0:
109,192,4228,1,2,0:0:0:0:
402,192,4228,1,0,0:0:0:0:
329,192,4388,1,0,0:0:0:0:
36,192,4547,1,8,0:0:0:0:
182,192,4547,1,0,0:0:0:0:
475,192,4547,1,0,0:0:0:0:
256,192,4707,1,0,0:0:0:0:
36,192,4866,1,2,0:0:0:0:
329,192,4866,1,0,0:0:0:0:
109,192,5026,1,0,0:0:0:0:
182,192,5185,1,8,0:0:0:0:
256,192,5185,1,0,0:0:0:0:
475,192,5185,1,0,0:0:0:0:
329,192,5345,1,0,0:0:0:0:
36,192,5505,1,2,0:0:0:0:
256,192,5505,1,0,0:0:0:0:
402,192,5664,1,0,0:0:0:0:
36,192,5824,1,8,0:0:0:0:
109,192,5824,1,0,0:0:0:0:
475,192,5824,1,0,0:0:0:0:
182,192,5983,1,0,0:0:0:0:
256,192,6143,1,2,0:0:0:0:
402,192,6143,1,0,0:0:0:0:
36,192,6302,1,0,0:0:0:0:
182,192,6462,1,8,0:0:0:0:
329,192,6462,1,0,0:0:0:0:
475,192,6462,1,0,0:0:0:0:
256,192,6622,1,0,0:0:0:0:
109,192,6781,1,2,0:0:0:0:
402,192,6781,1,0,0:0:0:0:
329,192,6941,1,0,0:0:0:0:
36,192,7100,1,8,0:0:0:0:
182,192,7100,1,0,0:0:0:0:
475,192,7100,1,0,0:0:0:0:
256,192,7260,1,0,0:0:0:0:
329,192,7419,1,2,0:0:0:0:
475,192,7419,1,0,0:0:0:0:
36,192,7579,1,0,0:0:0:0:
182,192,7739,1,8,0:0:0:0:
402,192,7739,1,0,0:0:0:0:
475,192,7739,1,0,0:0:0:0:
329,192,7898,1,0,0:0:0:0:
36,192,8058,1,2,0:0:0:0:
109,192,8058,1,0,0:0:0:0:
329,192,8217,1,0,0:0:0:0:
36,192,8377,1,8,0:0:0:0:
256,192,8377,1,0,0:0:0:0:
475,192,8377,1,0,0:0:0:0:
182,192,8537,1,0,0:0:0:0:
109,192,8696,1,2,0:0:0:0:
329,192,8696,1,0,0:0:0:0:
256,192,8856,1,0,0:0:0:0:
36,192,9015,1,8,0:0:0:0:
109,192,9015,1,0,0:0:0:0:
475,192,9015,1,0,0:0:0:0:
402,192,9175,1,0,0:0:0:0:
36,192,9334,1,2,0:0:0:0:
329,192,9334,1,0,0:0:0:0:
109,192,9494,1,0,0:0:0:0:
256,192,9654,1,8,0:0:0:0:
402,192,9654,1,0,0:0:0:0:
475,192,9654,1,0,0:0:0:0:
36,192,9813,1,0,0:0:0:0:
109,192,9973,1,2,0:0:0:0:
402,192,9973,1,0,0:0:0:0:
329,192,10132,1,0,0:0:0:0:
36,192,10292,1,8,0:0:0:0:
182,192,10292,1,0,0:0:0:0:
475,192,10292,1,0,0:0:0:0:
256,192,10451,1,0,0:0:0:0:
402,192,10611,1,8,0:0:0:0:
475,192,10611,1,0,0:0:0:0:
109,192,10691,1,8,0:0:0:0:
36,192,10691,1,0,0:0:0:0:
182,192,10850,1,2,0:0:0:0:
329,192,10850,1,0,0:0:0:0:
36,192,10930,1,8,0:0:0:0:
475,192,10930,1,0,0:0:0:0:
402,192,11010,1,2,0:0:0:0:
329,192,11090,1,2,0:0:0:0:
256,192,11169,1,2,0:0:0:0:
36,192,11249,1,2,0:0:0:0:
109,192,11249,1,4,0:0:0:0:
402,192,11249,1,0,0:0:0:0:
475,192,11249,1,0,0:0:0:0:
182,192,11409,1,0,0:0:0:0:
36,192,11568,1,8,0:0:0:0:
402,192,11568,1,0,0:0:0:0:
475,192,11568,1,0,0:0:0:0:
329,192,11728,1,0,0:0:0:0:
182,192,11888,1,2,0:0:0:0:
256,192,11888,1,0,0:0:0:0:
36,192,12047,1,0,0:0:0:0:
109,192,12207,1,8,0:0:0:0:
182,192,12207,1,0,0:0:0:0:
402,192,12207,1,0,0:0:0:0:
329,192,12366,1,0,0:0:0:0:
256,192,12526,1,2,0:0:0:0:
475,192,12526,1,0,0:0:0:0:
36,192,12685,1,0,0:0:0:0:
182,192,12845,1,8,0:0:0:0:
329,192,12845,1,0,0:0:0:0:
402,192,12845,1,0,0:0:0:0:
109,192,13005,1,0,0:0:0:0:
256,192,13164,1,2,0:0:0:0:
329,192,13164,1,0,0:0:0:0:
36,192,13324,1,0,0:0:0:0:
182,192,13483,1,8,0:0:0:0:
256,192,13483,1,0,0:0:0:0:
475,192,13483,1,0,0:0:0:0:
402,192,13643,1,0,0:0:0:0:
109,192,13802,1,2,0:0:0:0:
329,192,13802,1,0,0:0:0:0:
182,192,13962,1,0,0:0:0:0:
256,192,14122,1,8,0:0:0:0:
329,192,14122,1,0,0:0:0:0:
475,192,14122,1,0,0:0:0:0:
36,192,14281,1,0,0:0:0:0:
109,192,14441,1,2,0:0:0:0:
402,192,14441,1,0,0:0:0:0:
329,192,14600,1,0,0:0:0:0:
36,192,14760,1,8,0:0:0:0:
182,192,14760,1,0,0:0:0:0:
256,192,14760,1,0,0:0:0:0:
475,192,14919,1,0,0:0:0:0:
36,192,15079,1,2,0:0:0:0:
329,192,15079,1,0,0:0:0:0:
109,192,15239,1,0,0:0:0:0:
182,192,15398,1,8,0:0:0:0:
402,192,15398,1,0,0:0:0:0:
475,192,15398,1,0,0:0:0:0:
329,192,15558,1,0,0:0:0:0:
36,192,15717,1,2,0:0:0:0:
256,192,15717,1,0,0:0:0:0:
475,192,15877,1,0,0:0:0:0:
109,192,16037,1,8,0:0:0:0:
329,192,16037,1,0,0:0:0:0:
402,192,16037,1,0,0:0:0:0:
182,192,16196,1,0,0:0:0:0:
329,192,16356,1,2,0:0:0:0:
256,192,16356,1,0,0:0:0:0:
36,192,16515,1,0,0:0:0:0:
182,192,16675,1,8,0:0:0:0:
109,192,16675,1,0,0:0:0:0:
402,192,16675,1,0,0:0:0:0:
475,192,16834,1,0,0:0:0:0:
36,192,16994,1,2,0:0:0:0:
256,192,16994,1,0,0:0:0:0:
329,192,17154,1,0,0:0:0:0:
182,192,17313,1,8,0:0:0:0:
402,192,17313,1,0,0:0:0:0:
475,192,17313,1,0,0:0:0:0:
36,192,17473,1,0,0:0:0:0:
109,192,17632,1,2,0:0:0:0:
329,192,17632,1,0,0:0:0:0:
475,192,17792,1,0,0:0:0:0:
36,192,17951,1,8,0:0:0:0:
182,192,17951,1,0,0:0:0:0:
402,192,17951,1,0,0:0:0:0:
256,192,18111,1,0,0:0:0:0:
109,192,18271,1,2,0:0:0:0:
329,192,18271,1,0,0:0:0:0:
182,192,18430,1,0,0:0:0:0:
36,192,18590,1,8,0:0:0:0:
256,192,18590,1,0,0:0:0:0:
402,192,18590,1,0,0:0:0:0:
475,192,18749,1,0,0:0:0:0:
109,192,18909,1,2,0:0:0:0:
329,192,18909,1,0,0:0:0:0:
182,192,19068,1,0,0:0:0:0:
36,192,19228,1,8,0:0:0:0:
256,192,19228,1,0,0:0:0:0:
475,192,19228,1,0,0:0:0:0:
329,192,19388,1,0,0:0:0:0:
109,192,19547,1,2,0:0:0:0:
402,192,19547,1,0,0:0:0:0:
182,192,19707,1,0,0:0:0:0:
36,192,19866,1,8,0:0:0:0:
256,192,19866,1,0,0:0:0:0:
329,192,19866,1,0,0:0:0:0:
402,192,20026,1,0,0:0:0:0:
109,192,20185,1,2,0:0:0:0:
475,192,20185,1,0,0:0:0:0:
256,192,20345,1,0,0:0:0:0:
182,192,20505,1,8,0:0:0:0:
402,192,20505,1,0,0:0:0:0:
475,192,20505,1,0,0:0:0:0:
36,192,20664,1,0,0:0:0:0:
109,192,20824,1,2,0:0:0:0:
329,192,20824,1,0,0:0:0:0:
475,192,20983,1,0,0:0:0:0:
36,192,21143,1,8,0:0:0:0:
256,192,21143,1,0,0:0:0:0:
109,192,21223,1,8,0:0:0:0:
329,192,21223,1,0,0:0:0:0:
182,192,21302,1,8,0:0:0:0:
402,192,21302,1,0,0:0:0:0:
256,192,21382,1,8,0:0:0:0:
475,192,21382,1,0,0:0:0:0:
36,192,21462,1,2,0:0:0:0:
109,192,21462,1,0,0:0:0:0:
329,192,21462,1,0,0:0:0:0:
329,192,21622,1,2,0:0:0:0:
475,192,21622,1,0,0:0:0:0:
36,192,21781,1,8,0:0:0:0:
182,192,21781,1,0,0:0:0:0:
256,192,21941,1,0,0:0:0:0:
402,192,22100,1,2,0:0:0:0:
475,192,22100,1,0,0:0:0:0:
109,192,22260,1,2,0:0:0:0:
256,192,22260,1,0,0:0:0:0:
182,192,22419,1,8,0:0:0:0:
329,192,22419,1,0,0:0:0:0:
402,192,22579,1,0,0:0:0:0:
36,192,22739,1,2,0:0:0:0:
256,192,22739,1,0,0:0:0:0:
182,192,22898,1,2,0:0:0:0:
329,192,22898,1,0,0:0:0:0:
256,192,23058,1,8,0:0:0:0:
475,192,23058,1,0,0:0:0:0:
109,192,23217,1,0,0:0:0:0:
329,192,23377,1,2,0:0:0:0:
475,192,23377,1,0,0:0:0:0:
182,192,23537,1,2,0:0:0:0:
256,192,23537,1,0,0:0:0:0:
109,192,23696,1,8,0:0:0:0:
402,192,23696,1,0,0:0:0:0:
36,192,23856,1,0,0:0:0:0:
329,192,24015,1,2,0:0:0:0:
475,192,24015,1,0,0:0:0:0:
109,192,24175,1,2,0:0:0:0:
256,192,24175,1,0,0:0:0:0:
329,192,24334,1,8,0:0:0:0:
475,192,24334,1,0,0:0:0:0:
182,192,24494,1,0,0:0:0:0:
36,192,24654,1,2,0:0:0:0:
402,192,24654,1,0,0:0:0:0:
109,192,24813,1,2,0:0:0:0:
329,192,24813,1,0,0:0:0:0:
182,192,24973,1,8,0:0:0:0:
256,192,24973,1,0,0:0:0:0:
475,192,25132,1,0,0:0:0:0:
256,192,25292,1,2,0:0:0:0:
329,192,25292,1,0,0:0:0:0:
36,192,25451,1,2,0:0:0:0:
109,192,25451,1,0,0:0:0:0:
402,192,25611,1,8,0:0:0:0:
475,192,25611,1,0,0:0:0:0:
182,192,25771,1,0,0:0:0:0:
36,192,25930,1,2,0:0:0:0:
329,192,25930,1,0,0:0:0:0:
109,192,26090,1,2,0:0:0:0:
256,192,26090,1,0,0:0:0:0:
329,192,26249,1,8,0:0:0:0:
475,192,26249,1,0,0:0:0:0:
36,192,26409,1,0,0:0:0:0:
182,192,26568,1,2,0:0:0:0:
402,192,26568,1,0,0:0:0:0:
109,192,26728,1,2,0:0:0:0:
329,192,26728,1,0,0:0:0:0:
36,192,26888,1,8,0:0:0:0:
256,192,26888,1,0,0:0:0:0:
475,192,27047,1,0,0:0:0:0:
109,192,27207,1,2,0:0:0:0:
256,192,27207,1,0,0:0:0:0:
329,192,27366,1,2,0:0:0:0:
475,192,27366,1,0,0:0:0:0:
36,192,27526,1,8,0:0:0:0:
182,192,27526,1,0,0:0:0:0:
256,192,27685,1,0,0:0:0:0:
109,192,27845,1,2,0:0:0:0:
402,192,27845,1,0,0:0:0:0:
182,192,28005,1,2,0:0:0:0:
329,192,28005,1,0,0:0:0:0:
36,192,28164,1,8,0:0:0:0:
475,192,28164,1,0,0:0:0:0:
182,192,28324,1,0,0:0:0:0:
109,192,28483,1,2,0:0:0:0:
256,192,28483,1,0,0:0:0:0:
329,192,28643,1,2,0:0:0:0:
475,192,28643,1,0,0:0:0:0:
36,192,28802,1,8,0:0:0:0:
182,192,28802,1,0,0:0:0:0:
402,192,28962,1,0,0:0:0:0:
109,192,29122,1,2,0:0:0:0:
329,192,29122,1,0,0:0:0:0:
182,192,29281,1,2,0:0:0:0:
402,192,29281,1,0,0:0:0:0:
256,192,29441,1,8,0:0:0:0:
475,192,29441,1,0,0:0:0:0:
36,192,29600,1,0,0:0:0:0:
182,192,29760,1,2,0:0:0:0:
329,192,29760,1,0,0:0:0:0:
109,192,29919,1,2,0:0:0:0:
402,192,29919,1,0,0:0:0:0:
182,192,30079,1,8,0:0:0:0:
329,192,30079,1,0,0:0:0:0:
256,192,30239,1,0,0:0:0:0:
36,192,30398,1,0,0:0:0:0:
475,192,30717,128,0,31037:0:0:0:0:
182,192,31037,1,0,0:0:0:0:
109,192,31196,1,2,0:0:0:0:
256,192,31196,1,0,0:0:0:0:
36,192,31356,1,2,0:0:0:0:
182,192,31356,1,4,0:0:0:0:
329,192,31356,1,0,0:0:0:0:
109,192,31675,1,2,0:0:0:0:
256,192,31675,1,4,0:0:0:0:
475,192,31675,1,0,0:0:0:0:
109,192,31834,1,0,0:0:0:0:
329,192,31994,1,8,0:0:0:0:
402,192,31994,1,0,0:0:0:0:
402,192,32154,1,0,0:0:0:0:
36,192,32313,1,2,0:0:0:0:
182,192,32313,1,0,0:0:0:0:
182,192,32473,1,0,0:0:0:0:
329,192,32632,1,8,0:0:0:0:
475,192,32632,1,0,0:0:0:0:
475,192,32792,1,0,0:0:0:0:
36,192,32951,1,2,0:0:0:0:
256,192,32951,1,0,0:0:0:0:
36,192,33111,1,0,0:0:0:0:
182,192,33271,1,8,0:0:0:0:
402,192,33271,1,0,0:0:0:0:
402,192,33430,1,0,0:0:0:0:
109,192,33590,1,2,0:0:0:0:
329,192,33590,1,0,0:0:0:0:
109,192,33749,1,0,0:0:0:0:
256,192,33909,1,8,0:0:0:0:
475,192,33909,1,0,0:0:0:0:
475,192,34068,1,0,0:0:0:0:
36,192,34228,1,2,0:0:0:0:
329,192,34228,1,0,0:0:0:0:
36,192,34388,1,0,0:0:0:0:
256,192,34547,1,8,0:0:0:0:
402,192,34547,1,0,0:0:0:0:
256,192,34707,1,0,0:0:0:0:
109,192,34866,1,2,0:0:0:0:
475,192,34866,1,0,0:0:0:0:
475,192,35026,1,0,0:0:0:0:
36,192,35185,1,8,0:0:0:0:
329,192,35185,1,0,0:0:0:0:
36,192,35345,1,0,0:0:0:0:
182,192,35505,1,2,0:0:0:0:
402,192,35505,1,0,0:0:0:0:
402,192,35664,1,0,0:0:0:0:
109,192,35824,1,8,0:0:0:0:
329,192,35824,1,0,0:0:0:0:
109,192,35983,1,0,0:0:0:0:
256,192,36143,1,2,0:0:0:0:
475,192,36143,1,0,0:0:0:0:
256,192,36302,1,0,0:0:0:0:
36,192,36462,1,8,0:0:0:0:
402,192,36462,1,0,0:0:0:0:
36,192,36622,1,0,0:0:0:0:
182,192,36781,1,2,0:0:0:0:
475,192,36781,1,0,0:0:0:0:
475,192,36941,1,0,0:0:0:0:
109,192,37100,1,8,0:0:0:0:
329,192,37100,1,0,0:0:0:0:
109,192,37260,1,0,0:0:0:0:
256,192,37419,1,2,0:0:0:0:
402,192,37419,1,0,0:0:0:0:
402,192,37579,1,0,0:0:0:0:
182,192,37739,1,8,0:0:0:0:
329,192,37739,1,0,0:0:0:0:
182,192,37898,1,0,0:0:0:0:
256,192,38058,1,2,0:0:0:0:
475,192,38058,1,0,0:0:0:0:
256,192,38217,1,0,0:0:0:0:
109,192,38377,1,8,0:0:0:0:
402,192,38377,1,0,0:0:0:0:
109,192,38537,1,0,0:0:0:0:
182,192,38696,1,2,0:0:0:0:
475,192,38696,1,0,0:0:0:0:
475,192,38856,1,0,0:0:0:0:
36,192,39015,1,8,0:0:0:0:
329,192,39015,1,0,0:0:0:0:
36,192,39175,1,0,0:0:0:0:
182,192,39334,1,2,0:0:0:0:
402,192,39334,1,0,0:0:0:0:
402,192,39494,1,0,0:0:0:0:
109,192,39654,1,8,0:0:0:0:
256,192,39654,1,0,0:0:0:0:
109,192,39813,1,0,0:0:0:0:
256,192,39973,1,2,0:0:0:0:
475,192,39973,1,0,0:0:0:0:
256,192,40132,1,0,0:0:0:0:
36,192,40292,1,8,0:0:0:0:
475,192,40292,1,0,0:0:0:0:
475,192,40451,1,0,0:0:0:0:
109,192,40611,1,2,0:0:0:0:
402,192,40611,1,0,0:0:0:0:
109,192,40771,1,0,0:0:0:0:
182,192,40930,1,8,0:0:0:0:
329,192,40930,1,0,0:0:0:0:
329,192,41090,1,0,0:0:0:0:
36,192,41249,1,2,0:0:0:0:
182,192,41249,1,0,0:0:0:0:
329,192,41409,1,8,0:0:0:0:
475,192,41409,1,0,0:0:0:0:
329,192,41568,1,8,0:0:0:0:
475,192,41568,1,0,0:0:0:0:
329,192,41728,1,8,0:0:0:0:
475,192,41728,1,0,0:0:0:0:
36,192,41888,1,2,0:0:0:0:
182,192,41888,1,4,0:0:0:0:
402,192,41888,1,0,0:0:0:0:
256,192,42047,1,2,0:0:0:0:
329,192,42047,1,0,0:0:0:0:
109,192,42366,128,8,42685:0:0:0:0:
402,192,42366,1,0,0:0:0:0:
182,192,42685,1,2,0:0:0:0:
329,192,42685,1,0,0:0:0:0:
109,192,42845,1,8,0:0:0:0:
402,192,42845,1,0,0:0:0:0:
256,192,43005,1,0,0:0:0:0:
36,192,43164,1,2,0:0:0:0:
475,192,43164,1,0,0:0:0:0:
109,192,43324,1,2,0:0:0:0:
402,192,43324,1,0,0:0:0:0:
36,192,43643,1,8,0:0:0:0:
256,192,43643,128,0,43962:0:0:0:0:
402,192,43802,1,0,0:0:0:0:
109,192,43962,1,2,0:0:0:0:
182,192,43962,1,0,0:0:0:0:
402,192,44122,1,8,0:0:0:0:
475,192,44122,1,0,0:0:0:0:
109,192,44281,1,0,0:0:0:0:
329,192,44441,1,2,0:0:0:0:
402,192,44441,1,0,0:0:0:0:
36,192,44600,1,2,0:0:0:0:
109,192,44600,1,0,0:0:0:0:
402,192,44760,1,0,0:0:0:0:
109,192,44919,1,8,0:0:0:0:
256,192,44919,1,0,0:0:0:0:
402,192,45079,1,0,0:0:0:0:
109,192,45239,1,2,0:0:0:0:
182,192,45239,1,0,0:0:0:0:
329,192,45398,1,8,0:0:0:0:
402,192,45398,1,0,0:0:0:0:
109,192,45558,1,0,0:0:0:0:
36,192,45717,1,2,0:0:0:0:
402,192,45717,1,0,0:0:0:0:
109,192,45877,1,2,0:0:0:0:
329,192,45877,1,0,0:0:0:0:
256,192,46037,1,0,0:0:0:0:
36,192,46196,1,8,0:0:0:0:
475,192,46196,128,0,46515:0:0:0:0:
182,192,46515,1,2,0:0:0:0:
402,192,46515,1,0,0:0:0:0:
109,192,46675,1,8,0:0:0:0:
329,192,46675,1,0,0:0:0:0:
36,192,46994,1,2,0:0:0:0:
475,192,46994,1,0,0:0:0:0:
109,192,47154,1,2,0:0:0:0:
402,192,47154,1,0,0:0:0:0:
182,192,47473,128,8,47792:0:0:0:0:
329,192,47473,1,0,0:0:0:0:
256,192,47792,1,2,0:0:0:0:
402,192,47792,1,0,0:0:0:0:
109,192,47951,1,8,0:0:0:0:
329,192,47951,1,0,0:0:0:0:
36,192,48111,1,0,0:0:0:0:
182,192,48271,1,2,0:0:0:0:
475,192,48271,1,0,0:0:0:0:
109,192,48430,1,2,0:0:0:0:
402,192,48430,1,0,0:0:0:0:
36,192,48749,1,8,0:0:0:0:
329,192,48749,128,0,49068:0:0:0:0:
182,192,48909,1,0,0:0:0:0:
402,192,49068,1,2,0:0:0:0:
475,192,49068,1,0,0:0:0:0:
109,192,49228,1,8,0:0:0:0:
182,192,49228,1,0,0:0:0:0:
402,192,49388,1,0,0:0:0:0:
36,192,49547,1,2,0:0:0:0:
182,192,49547,1,0,0:0:0:0:
329,192,49707,1,2,0:0:0:0:
475,192,49707,1,0,0:0:0:0:
182,192,49866,1,0,0:0:0:0:
256,192,50026,1,8,0:0:0:0:
329,192,50026,1,0,0:0:0:0:
182,192,50185,1,0,0:0:0:0:
329,192,50345,1,2,0:0:0:0:
475,192,50345,1,0,0:0:0:0:
36,192,50505,1,8,0:0:0:0:
182,192,50505,1,0,0:0:0:0:
402,192,50664,1,0,0:0:0:0:
109,192,50824,1,2,0:0:0:0:
182,192,50824,1,0,0:0:0:0:
329,192,50983,1,2,0:0:0:0:
402,192,50983,1,0,0:0:0:0:
256,192,51143,1,0,0:0:0:0:
36,192,51302,1,2,0:0:0:0:
475,192,51302,1,0,0:0:0:0:
402,192,51462,1,0,0:0:0:0:
109,192,51622,1,2,0:0:0:0:
329,192,51622,1,0,0:0:0:0:
36,192,51781,1,4,0:0:0:0:
182,192,51781,128,2,52100:0:0:0:0:
402,192,51781,1,0,0:0:0:0:
109,192,52100,1,4,0:0:0:0:
256,192,52100,1,2,0:0:0:0:
475,192,52100,1,0,0:0:0:0:
182,192,52260,1,2,0:0:0:0:
402,192,52260,1,0,0:0:0:0:
36,192,52579,128,8,52898:0:0:0:0:
329,192,52579,1,0,0:0:0:0:
182,192,52898,1,2,0:0:0:0:
402,192,52898,1,0,0:0:0:0:
109,192,53058,1,8,0:0:0:0:
475,192,53058,1,0,0:0:0:0:
256,192,53217,1,0,0:0:0:0:
36,192,53377,1,2,0:0:0:0:
402,192,53377,1,0,0:0:0:0:
109,192,53537,1,2,0:0:0:0:
329,192,53537,1,0,0:0:0:0:
329,192,53856,1,8,0:0:0:0:
475,192,53856,128,0,54175:0:0:0:0:
36,192,54015,1,0,0:0:0:0:
256,192,54175,1,2,0:0:0:0:
402,192,54175,1,0,0:0:0:0:
36,192,54334,1,8,0:0:0:0:
182,192,54334,1,0,0:0:0:0:
256,192,54494,1,0,0:0:0:0:
36,192,54654,1,2,0:0:0:0:
402,192,54654,1,0,0:0:0:0:
256,192,54813,1,2,0:0:0:0:
475,192,54813,1,0,0:0:0:0:
36,192,54973,1,0,0:0:0:0:
256,192,55132,1,8,0:0:0:0:
402,192,55132,1,0,0:0:0:0:
36,192,55292,1,0,0:0:0:0:
182,192,55451,1,2,0:0:0:0:
329,192,55451,1,0,0:0:0:0:
109,192,55611,1,8,0:0:0:0:
475,192,55611,1,0,0:0:0:0:
256,192,55771,1,0,0:0:0:0:
36,192,55930,1,2,0:0:0:0:
402,192,55930,1,0,0:0:0:0:
182,192,56090,1,2,0:0:0:0:
256,192,56090,1,0,0:0:0:0:
475,192,56249,1,0,0:0:0:0:
36,192,56409,128,8,56728:0:0:0:0:
329,192,56409,1,0,0:0:0:0:
182,192,56728,1,2,0:0:0:0:
402,192,56728,1,0,0:0:0:0:
109,192,56888,128,8,57207:0:0:0:0:
329,192,56888,1,0,0:0:0:0:
256,192,57207,1,2,0:0:0:0:
475,192,57207,1,0,0:0:0:0:
182,192,57366,1,2,0:0:0:0:
402,192,57366,1,0,0:0:0:0:
36,192,57685,1,8,0:0:0:0:
329,192,57685,128,0,58005:0:0:0:0:
182,192,58005,1,2,0:0:0:0:
402,192,58005,1,0,0:0:0:0:
109,192,58164,1,8,0:0:0:0:
475,192,58164,1,0,0:0:0:0:
256,192,58324,1,0,0:0:0:0:
36,192,58483,1,2,0:0:0:0:
402,192,58483,1,0,0:0:0:0:
109,192,58643,1,2,0:0:0:0:
329,192,58643,1,0,0:0:0:0:
256,192,58802,1,0,0:0:0:0:
182,192,58962,128,8,59281:0:0:0:0:
402,192,58962,1,0,0:0:0:0:
109,192,59281,1,2,0:0:0:0:
475,192,59281,1,0,0:0:0:0:
256,192,59441,1,8,0:0:0:0:
402,192,59441,1,0,0:0:0:0:
182,192,59600,1,0,0:0:0:0:
36,192,59781,1,4,0:0:0:0:
329,192,59781,1,2,0:0:0:0:
475,192,59781,1,0,0:0:0:0:
36,192,61695,1,2,0:0:0:0:
182,192,61775,1,2,0:0:0:0:
475,192,61855,1,8,0:0:0:0:
329,192,61935,1,8,0:0:0:0:
36,192,62015,1,2,0:0:0:0:
182,192,62094,1,8,0:0:0:0:
475,192,62174,1,8,0:0:0:0:
329,192,62254,1,8,0:0:0:0:
36,192,62334,1,8,0:0:0:0:
182,192,62334,1,0,0:0:0:0:
36,192,62653,1,2,0:0:0:0:
256,192,62653,1,4,0:0:0:0:
475,192,62653,1,0,0:0:0:0:
182,192,62812,1,0,0:0:0:0:
109,192,62972,1,2,0:0:0:0:
402,192,62972,1,0,0:0:0:0:
329,192,63132,1,0,0:0:0:0:
36,192,63291,1,8,0:0:0:0:
256,192,63291,1,0,0:0:0:0:
475,192,63291,1,0,0:0:0:0:
109,192,63451,1,0,0:0:0:0:
182,192,63610,1,2,0:0:0:0:
402,192,63610,1,0,0:0:0:0:
256,192,63770,1,0,0:0:0:0:
36,192,63929,1,8,0:0:0:0:
109,192,63929,1,0,0:0:0:0:
329,192,63929,1,0,0:0:0:0:
182,192,64089,1,0,0:0:0:0:
256,192,64249,1,2,0:0:0:0:
475,192,64249,1,0,0:0:0:0:
402,192,64408,1,0,0:0:0:0:
36,192,64568,1,8,0:0:0:0:
182,192,64568,1,0,0:0:0:0:
329,192,64568,1,0,0:0:0:0:
256,192,64727,1,0,0:0:0:0:
109,192,64887,1,2,0:0:0:0:
475,192,64887,1,0,0:0:0:0:
329,192,65046,1,0,0:0:0:0:
182,192,65206,1,8,0:0:0:0:
402,192,65206,1,0,0:0:0:0:
475,192,65206,1,0,0:0:0:0:
109,192,65366,1,0,0:0:0:0:
36,192,65525,1,2,0:0:0:0:
329,192,65525,1,0,0:0:0:0:
256,192,65685,1,0,0:0:0:0:
109,192,65844,1,8,0:0:0:0:
402,192,65844,1,0,0:0:0:0:
475,192,65844,1,0,0:0:0:0:
182,192,66004,1,0,0:0:0:0:
36,192,66163,1,2,0:0:0:0:
329,192,66163,1,0,0:0:0:0:
256,192,66323,1,0,0:0:0:0:
109,192,66483,1,8,0:0:0:0:
475,192,66483,1,0,0:0:0:0:
182,192,66483,1,0,0:0:0:0:
402,192,66642,1,0,0:0:0:0:
36,192,66802,1,2,0:0:0:0:
329,192,66802,1,0,0:0:0:0:
256,192,66961,1,0,0:0:0:0:
109,192,67121,1,8,0:0:0:0:
182,192,67121,1,0,0:0:0:0:
475,192,67121,1,0,0:0:0:0:
402,192,67281,1,0,0:0:0:0:
36,192,67440,1,2,0:0:0:0:
329,192,67440,1,0,0:0:0:0:
182,192,67600,1,0,0:0:0:0:
109,192,67759,1,8,0:0:0:0:
256,192,67759,1,0,0:0:0:0:
475,192,67759,128,0,67919:0:0:0:0:
329,192,67919,1,0,0:0:0:0:
36,192,68078,128,2,68238:0:0:0:0:
182,192,68078,1,0,0:0:0:0:
402,192,68238,128,0,68398:0:0:0:0:
109,192,68398,1,8,0:0:0:0:
256,192,68398,1,0,0:0:0:0:
475,192,68398,1,0,0:0:0:0:
182,192,68557,1,0,0:0:0:0:
36,192,68717,1,2,0:0:0:0:
329,192,68717,128,0,68876:0:0:0:0:
109,192,68876,1,0,0:0:0:0:
182,192,69036,1,8,0:0:0:0:
402,192,69036,1,0,0:0:0:0:
475,192,69036,128,0,69195:0:0:0:0:
329,192,69195,128,0,69355:0:0:0:0:
36,192,69355,1,2,0:0:0:0:
256,192,69355,1,0,0:0:0:0:
109,192,69515,1,0,0:0:0:0:
36,192,69674,1,8,0:0:0:0:
182,192,69674,1,0,0:0:0:0:
402,192,69674,1,0,0:0:0:0:
329,192,69834,1,0,0:0:0:0:
256,192,69993,1,2,0:0:0:0:
475,192,69993,1,0,0:0:0:0:
109,192,70153,1,0,0:0:0:0:
36,192,70312,1,8,0:0:0:0:
182,192,70312,1,0,0:0:0:0:
402,192,70312,1,0,0:0:0:0:
329,192,70472,1,0,0:0:0:0:
256,192,70632,1,2,0:0:0:0:
475,192,70632,1,0,0:0:0:0:
109,192,70791,1,0,0:0:0:0:
36,192,70951,1,8,0:0:0:0:
329,192,70951,1,0,0:0:0:0:
402,192,70951,1,0,0:0:0:0:
182,192,71110,1,0,0:0:0:0:
256,192,71270,1,2,0:0:0:0:
475,192,71270,1,0,0:0:0:0:
109,192,71429,1,0,0:0:0:0:
36,192,71589,1,8,0:0:0:0:
329,192,71589,1,0,0:0:0:0:
402,192,71589,1,0,0:0:0:0:
182,192,71749,1,0,0:0:0:0:
256,192,71908,1,2,0:0:0:0:
475,192,71908,1,0,0:0:0:0:
36,192,72068,1,0,0:0:0:0:
182,192,72227,1,8,0:0:0:0:
402,192,72227,1,0,0:0:0:0:
475,192,72227,1,0,0:0:0:0:
109,192,72307,1,2,0:0:0:0:
329,192,72307,1,0,0:0:0:0:
256,192,72387,1,8,0:0:0:0:
182,192,72467,1,0,0:0:0:0:
36,192,72546,1,2,0:0:0:0:
109,192,72546,1,4,0:0:0:0:
329,192,72546,1,0,0:0:0:0:
475,192,72546,1,0,0:0:0:0:
256,192,72706,1,0,0:0:0:0:
36,192,72866,1,8,0:0:0:0:
182,192,72866,1,0,0:0:0:0:
475,192,72866,1,0,0:0:0:0:
402,192,73025,1,0,0:0:0:0:
36,192,73185,1,2,0:0:0:0:
329,192,73185,1,0,0:0:0:0:
109,192,73344,1,0,0:0:0:0:
182,192,73504,1,8,0:0:0:0:
402,192,73504,1,0,0:0:0:0:
475,192,73504,1,0,0:0:0:0:
329,192,73663,1,0,0:0:0:0:
36,192,73823,1,2,0:0:0:0:
256,192,73823,1,0,0:0:0:0:
109,192,73983,1,0,0:0:0:0:
182,192,74142,1,8,0:0:0:0:
329,192,74142,1,0,0:0:0:0:
475,192,74142,1,0,0:0:0:0:
256,192,74302,1,0,0:0:0:0:
36,192,74461,1,2,0:0:0:0:
402,192,74461,1,0,0:0:0:0:
182,192,74621,1,0,0:0:0:0:
36,192,74781,1,8,0:0:0:0:
109,192,74781,1,0,0:0:0:0:
329,192,74781,1,0,0:0:0:0:
402,192,74940,1,0,0:0:0:0:
182,192,75100,1,2,0:0:0:0:
475,192,75100,1,0,0:0:0:0:
256,192,75259,1,0,0:0:0:0:
36,192,75419,1,8,0:0:0:0:
109,192,75419,1,0,0:0:0:0:
402,192,75419,1,0,0:0:0:0:
329,192,75578,1,0,0:0:0:0:
182,192,75738,1,2,0:0:0:0:
475,192,75738,1,0,0:0:0:0:
256,192,75898,1,0,0:0:0:0:
36,192,76057,1,8,0:0:0:0:
109,192,76057,1,0,0:0:0:0:
402,192,76057,1,0,0:0:0:0:
329,192,76217,1,0,0:0:0:0:
182,192,76376,1,2,0:0:0:0:
475,192,76376,1,0,0:0:0:0:
256,192,76536,1,0,0:0:0:0:
36,192,76695,1,8,0:0:0:0:
329,192,76695,1,0,0:0:0:0:
402,192,76695,1,0,0:0:0:0:
109,192,76855,1,0,0:0:0:0:
182,192,77015,1,2,0:0:0:0:
475,192,77015,1,0,0:0:0:0:
329,192,77174,1,0,0:0:0:0:
36,192,77334,1,8,0:0:0:0:
256,192,77334,1,0,0:0:0:0:
402,192,77334,1,0,0:0:0:0:
182,192,77493,1,0,0:0:0:0:
329,192,77653,1,2,0:0:0:0:
475,192,77653,1,0,0:0:0:0:
109,192,77812,128,0,77972:0:0:0:0:
36,192,77972,1,8,0:0:0:0:
256,192,77972,1,0,0:0:0:0:
402,192,77972,128,0,78132:0:0:0:0:
329,192,78132,1,0,0:0:0:0:
182,192,78291,128,2,78451:0:0:0:0:
475,192,78291,1,0,0:0:0:0:
402,192,78451,128,0,78610:0:0:0:0:
36,192,78610,1,8,0:0:0:0:
109,192,78610,1,0,0:0:0:0:
329,192,78610,1,0,0:0:0:0:
182,192,78770,128,0,78929:0:0:0:0:
256,192,78929,128,2,79089:0:0:0:0:
475,192,78929,1,0,0:0:0:0:
402,192,79089,1,0,0:0:0:0:
109,192,79249,128,8,79408:0:0:0:0:
329,192,79249,1,0,0:0:0:0:
475,192,79249,1,0,0:0:0:0:
182,192,79408,128,0,79568:0:0:0:0:
36,192,79568,1,2,0:0:0:0:
256,192,79568,1,0,0:0:0:0:
402,192,79727,1,0,0:0:0:0:
109,192,79887,1,8,0:0:0:0:
329,192,79887,1,0,0:0:0:0:
475,192,79887,1,0,0:0:0:0:
182,192,80046,1,0,0:0:0:0:
36,192,80206,1,2,0:0:0:0:
256,192,80206,1,0,0:0:0:0:
402,192,80366,1,0,0:0:0:0:
109,192,80525,1,8,0:0:0:0:
182,192,80525,1,0,0:0:0:0:
475,192,80525,1,0,0:0:0:0:
329,192,80685,1,0,0:0:0:0:
36,192,80844,1,2,0:0:0:0:
256,192,80844,1,0,0:0:0:0:
402,192,81004,1,0,0:0:0:0:
109,192,81163,1,8,0:0:0:0:
182,192,81163,1,0,0:0:0:0:
475,192,81163,1,0,0:0:0:0:
256,192,81323,1,0,0:0:0:0:
36,192,81483,1,2,0:0:0:0:
329,192,81483,1,0,0:0:0:0:
109,192,81642,1,0,0:0:0:0:
182,192,81802,1,4,0:0:0:0:
256,192,81802,1,2,0:0:0:0:
475,192,81802,1,0,0:0:0:0:
402,192,81961,1,0,0:0:0:0:
36,192,82121,1,8,0:0:0:0:
256,192,82121,1,0,0:0:0:0:
475,192,82121,1,0,0:0:0:0:
109,192,82201,1,8,0:0:0:0:
182,192,82281,1,8,0:0:0:0:
402,192,82360,1,0,0:0:0:0:
329,192,82440,1,2,0:0:0:0:
109,192,82520,1,2,0:0:0:0:
182,192,82600,1,2,0:0:0:0:
256,192,82679,1,2,0:0:0:0:
36,192,82759,1,2,0:0:0:0:
402,192,82759,1,4,0:0:0:0:
475,192,82759,1,0,0:0:0:0:
329,192,82759,1,0,0:0:0:0:
109,192,82919,1,0,0:0:0:0:
182,192,83078,1,8,0:0:0:0:
329,192,83078,1,0,0:0:0:0:
402,192,83078,1,0,0:0:0:0:
36,192,83238,1,0,0:0:0:0:
109,192,83398,1,2,0:0:0:0:
475,192,83398,1,0,0:0:0:0:
256,192,83557,1,0,0:0:0:0:
182,192,83717,1,8,0:0:0:0:
329,192,83717,1,0,0:0:0:0:
402,192,83717,1,0,0:0:0:0:
36,192,83876,1,0,0:0:0:0:
256,192,84036,1,2,0:0:0:0:
475,192,84036,1,0,0:0:0:0:
109,192,84195,1,0,0:0:0:0:
182,192,84355,1,8,0:0:0:0:
329,192,84355,1,0,0:0:0:0:
402,192,84355,1,0,0:0:0:0:
256,192,84515,1,0,0:0:0:0:
182,192,84674,1,2,0:0:0:0:
475,192,84674,128,0,84993:0:0:0:0:
109,192,84834,128,0,84993:0:0:0:0:
402,192,84993,128,8,85312:0:0:0:0:
182,192,85153,128,0,85312:0:0:0:0:
329,192,85312,128,2,85632:0:0:0:0:
109,192,85472,128,0,85632:0:0:0:0:
256,192,85632,128,8,85951:0:0:0:0:
36,192,85791,128,0,85951:0:0:0:0:
182,192,85951,128,2,86270:0:0:0:0:
329,192,86110,128,0,86270:0:0:0:0:
475,192,86270,128,8,86589:0:0:0:0:
256,192,86429,128,0,86589:0:0:0:0:
36,192,86589,128,2,86908:0:0:0:0:
329,192,86749,128,0,86908:0:0:0:0:
182,192,86908,128,8,87227:0:0:0:0:
402,192,87068,1,0,0:0:0:0:
109,192,87227,1,2,0:0:0:0:
329,192,87227,1,0,0:0:0:0:
256,192,87387,1,0,0:0:0:0:
36,192,87546,1,8,0:0:0:0:
402,192,87546,1,0,0:0:0:0:
475,192,87546,1,0,0:0:0:0:
182,192,87706,1,0,0:0:0:0:
109,192,87866,1,2,0:0:0:0:
329,192,87866,1,0,0:0:0:0:
402,192,88025,1,0,0:0:0:0:
36,192,88185,1,8,0:0:0:0:
256,192,88185,1,0,0:0:0:0:
475,192,88185,1,0,0:0:0:0:
182,192,88344,1,0,0:0:0:0:
109,192,88504,1,2,0:0:0:0:
402,192,88504,1,0,0:0:0:0:
329,192,88663,1,0,0:0:0:0:
36,192,88823,1,8,0:0:0:0:
256,192,88823,1,0,0:0:0:0:
475,192,88823,1,0,0:0:0:0:
182,192,88983,1,0,0:0:0:0:
109,192,89142,1,2,0:0:0:0:
402,192,89142,1,0,0:0:0:0:
329,192,89302,1,0,0:0:0:0:
36,192,89461,1,8,0:0:0:0:
256,192,89461,1,0,0:0:0:0:
475,192,89461,1,0,0:0:0:0:
109,192,89621,1,0,0:0:0:0:
182,192,89781,128,2,90100:0:0:0:0:
402,192,89781,1,0,0:0:0:0:
329,192,89940,128,0,90100:0:0:0:0:
109,192,90100,128,8,90419:0:0:0:0:
256,192,90259,128,0,90419:0:0:0:0:
36,192,90419,128,2,90738:0:0:0:0:
329,192,90578,128,0,90738:0:0:0:0:
475,192,90738,128,8,91057:0:0:0:0:
182,192,90898,128,0,91057:0:0:0:0:
329,192,91057,128,2,91376:0:0:0:0:
109,192,91217,128,0,91376:0:0:0:0:
36,192,91376,128,8,91695:0:0:0:0:
256,192,91536,128,0,91695:0:0:0:0:
182,192,91695,128,2,92015:0:0:0:0:
402,192,91855,128,0,92015:0:0:0:0:
109,192,92015,1,4,0:0:0:0:
256,192,92015,1,2,0:0:0:0:
36,192,92015,1,0,0:0:0:0:
475,192,92015,1,0,0:0:0:0:
402,192,92334,1,8,0:0:0:0:
256,192,92413,1,8,0:0:0:0:
109,192,92493,1,8,0:0:0:0:
182,192,92653,1,2,0:0:0:0:
329,192,92733,1,2,0:0:0:0:
182,192,92812,1,2,0:0:0:0:
329,192,92892,1,2,0:0:0:0:
36,192,92972,1,4,0:0:0:0:
109,192,92972,1,2,0:0:0:0:
256,192,92972,1,0,0:0:0:0:
475,192,92972,1,0,0:0:0:0:
182,192,93291,1,8,0:0:0:0:
256,192,93291,1,0,0:0:0:0:
329,192,93291,1,0,0:0:0:0:
109,192,93610,1,2,0:0:0:0:
402,192,93610,1,4,0:0:0:0:
329,192,93770,1,0,0:0:0:0:
36,192,93929,1,8,0:0:0:0:
182,192,93929,1,0,0:0:0:0:
475,192,93929,1,0,0:0:0:0:
256,192,94089,1,0,0:0:0:0:
109,192,94249,1,4,0:0:0:0:
402,192,94249,1,2,0:0:0:0:
182,192,94568,1,8,0:0:0:0:
329,192,94568,1,0,0:0:0:0:
475,192,94568,1,0,0:0:0:0:
36,192,94887,1,4,0:0:0:0:
402,192,94887,1,2,0:0:0:0:
109,192,95046,1,0,0:0:0:0:
182,192,95206,1,8,0:0:0:0:
256,192,95206,1,0,0:0:0:0:
475,192,95206,1,0,0:0:0:0:
329,192,95366,1,0,0:0:0:0:
36,192,95525,1,4,0:0:0:0:
402,192,95525,1,2,0:0:0:0:
109,192,95685,1,0,0:0:0:0:
182,192,95844,1,8,0:0:0:0:
256,192,95844,1,0,0:0:0:0:
475,192,95844,1,0,0:0:0:0:
109,192,96163,1,4,0:0:0:0:
402,192,96163,1,2,0:0:0:0:
36,192,96483,1,8,0:0:0:0:
182,192,96483,1,0,0:0:0:0:
475,192,96483,1,0,0:0:0:0:
329,192,96642,1,0,0:0:0:0:
109,192,96802,1,4,0:0:0:0:
402,192,96802,1,2,0:0:0:0:
182,192,96961,1,0,0:0:0:0:
36,192,97121,1,8,0:0:0:0:
256,192,97121,1,0,0:0:0:0:
329,192,97121,1,0,0:0:0:0:
109,192,97440,1,4,0:0:0:0:
475,192,97440,1,2,0:0:0:0:
402,192,97600,1,0,0:0:0:0:
36,192,97759,1,8,0:0:0:0:
182,192,97759,1,0,0:0:0:0:
329,192,97759,1,0,0:0:0:0:
109,192,97919,1,0,0:0:0:0:
36,192,98078,1,4,0:0:0:0:
256,192,98078,1,2,0:0:0:0:
402,192,98078,1,0,0:0:0:0:
475,192,98078,1,0,0:0:0:0:
109,192,98398,1,8,0:0:0:0:
182,192,98398,1,0,0:0:0:0:
329,192,98398,1,0,0:0:0:0:
402,192,98557,1,0,0:0:0:0:
36,192,98717,1,4,0:0:0:0:
475,192,98717,1,2,0:0:0:0:
256,192,98876,1,0,0:0:0:0:
109,192,99036,1,8,0:0:0:0:
182,192,99036,1,0,0:0:0:0:
329,192,99036,1,0,0:0:0:0:
402,192,99195,1,0,0:0:0:0:
36,192,99355,1,4,0:0:0:0:
256,192,99355,1,2,0:0:0:0:
475,192,99515,1,0,0:0:0:0:
36,192,99674,1,4,0:0:0:0:
109,192,99674,1,8,0:0:0:0:
182,192,99674,1,0,0:0:0:0:
329,192,99674,1,0,0:0:0:0:
36,192,99993,1,8,0:0:0:0:
475,192,99993,1,0,0:0:0:0:
182,192,100073,1,8,0:0:0:0:
329,192,100153,1,8,0:0:0:0:
109,192,100312,1,2,0:0:0:0:
182,192,100392,1,2,0:0:0:0:
402,192,100472,1,2,0:0:0:0:
329,192,100552,1,2,0:0:0:0:
36,192,100632,1,4,0:0:0:0:
109,192,100632,1,0,0:0:0:0:
256,192,100632,1,0,0:0:0:0:
475,192,100632,1,0,0:0:0:0:
