osu file format v14

[General]
AudioFilename: Silent Siren - Hachigatsu no Yoru.mp3
AudioLeadIn: 0
PreviewTime: 62174
Countdown: 0
SampleSet: Soft
StackLeniency: 0.7
Mode: 3
LetterboxInBreaks: 0
SpecialStyle: 0
WidescreenStoryboard: 0

[Editor]
DistanceSpacing: 1
BeatDivisor: 4
GridSize: 16
TimelineZoom: 3.199998

[Metadata]
Title:Hachigatsu no Yoru
TitleUnicode:八月の夜
Artist:Silent Siren
ArtistUnicode:Silent Siren
Creator:AchsanLovers
Version:4K August Night
Source:
Tags:JPop Yoshida Sumire Umemura Hinako Yamauchi Aina Kurosaka Yukako 吉田菫 梅村妃奈子 山内あいな 黒坂優香子 Critical_Star Rivals_7
BeatmapID:1310644
BeatmapSetID:621593

[Difficulty]
HPDrainRate:8.5
CircleSize:4
OverallDifficulty:8
ApproachRate:5
SliderMultiplier:1.4
SliderTickRate:1

[Events]
//Background and Video events
0,0,"k thx for Amiichii again for resize this shit.jpg",0,0
//Break Periods
//Storyboard Layer 0 (Background)
//Storyboard Layer 1 (Fail)
//Storyboard Layer 2 (Pass)
//Storyboard Layer 3 (Foreground)
//Storyboard Sound Samples

[TimingPoints]
1037,319.148936170213,4,2,1,40,1,0
31356,-181.818181818182,4,2,1,40,0,0
31515,-68.9655172413793,4,2,1,40,0,0
31675,-100,4,2,1,40,0,0
59781,319.148936170213,4,2,1,40,1,0
62334,-181.818181818182,4,2,1,40,0,0
62493,-68.9655172413793,4,2,1,40,0,0
62653,-100,4,2,1,40,0,1
72227,-100,4,2,1,40,0,0
72546,-100,4,2,1,40,0,1
82759,-100,4,2,1,40,0,0
92972,-100,4,2,1,40,0,1
100632,-100,4,2,1,40,0,0

[HitObjects]
192,192,717,128,0,1037:0:0:0:0:
64,192,1037,128,2,2951:0:0:0:0:
320,192,1037,1,4,0:0:0:0:
448,192,1037,1,0,0:0:0:0:
192,192,1356,1,8,0:0:0:0:
320,192,1356,1,0,0:0:0:0:
448,192,1356,1,0,0:0:0:0:
320,192,1515,1,0,0:0:0:0:
192,192,1675,1,2,0:0:0:0:
448,192,1675,1,0,0:0:0:0:
320,192,1834,1,0,0:0:0:0:
192,192,1994,1,8,0:0:0:0:
320,192,1994,1,0,0:0:0:0:
448,192,1994,1,0,0:0:0:0:
192,192,2154,1,0,0:0:0:0:
320,192,2313,1,2,0:0:0:0:
448,192,2313,1,0,0:0:0:0:
192,192,2473,1,0,0:0:0:0:
192,192,2632,1,8,0:0:0:0:
320,192,2632,1,0,0:0:0:0:
448,192,2632,1,0,0:0:0:0:
448,192,2792,1,0,0:0:0:0:
192,192,2951,1,2,0:0:0:0:
320,192,2951,128,0,3271:0:0:0:0:
64,192,3111,1,0,0:0:0:0:
64,192,3271,1,8,0:0:0:0:
192,192,3271,128,0,3590:0:0:0:0:
448,192,3271,1,0,0:0:0:0:
320,192,3430,1,0,0:0:0:0:
64,192,3590,1,2,0:0:0:0:
448,192,3590,128,0,4866:0:0:0:0:
192,192,3749,1,0,0:0:0:0:
64,192,3909,1,8,0:0:0:0:
192,192,3909,1,0,0:0:0:0:
320,192,3909,1,0,0:0:0:0:
64,192,4068,1,0,0:0:0:0:
192,192,4228,1,2,0:0:0:0:
320,192,4228,1,0,0:0:0:0:
64,192,4388,1,0,0:0:0:0:
64,192,4547,1,8,0:0:0:0:
192,192,4547,1,0,0:0:0:0:
320,192,4547,1,0,0:0:0:0:
192,192,4707,1,0,0:0:0:0:
192,192,4866,128,2,6143:0:0:0:0:
320,192,4866,1,0,0:0:0:0:
64,192,5026,1,0,0:0:0:0:
64,192,5185,1,8,0:0:0:0:
320,192,5185,1,0,0:0:0:0:
448,192,5185,1,0,0:0:0:0:
448,192,5345,1,0,0:0:0:0:
64,192,5505,1,2,0:0:0:0:
320,192,5505,1,0,0:0:0:0:
448,192,5664,1,0,0:0:0:0:
64,192,5824,1,8,0:0:0:0:
320,192,5824,1,0,0:0:0:0:
448,192,5824,1,0,0:0:0:0:
320,192,5983,1,0,0:0:0:0:
64,192,6143,128,2,8058:0:0:0:0:
448,192,6143,1,0,0:0:0:0:
320,192,6302,1,0,0:0:0:0:
192,192,6462,1,8,0:0:0:0:
320,192,6462,1,0,0:0:0:0:
448,192,6462,1,0,0:0:0:0:
448,192,6622,1,0,0:0:0:0:
192,192,6781,1,2,0:0:0:0:
320,192,6781,1,0,0:0:0:0:
448,192,6941,1,0,0:0:0:0:
192,192,7100,1,8,0:0:0:0:
320,192,7100,1,0,0:0:0:0:
448,192,7100,1,0,0:0:0:0:
320,192,7260,1,0,0:0:0:0:
192,192,7419,1,2,0:0:0:0:
448,192,7419,1,0,0:0:0:0:
320,192,7579,1,0,0:0:0:0:
192,192,7739,1,8,0:0:0:0:
320,192,7739,1,0,0:0:0:0:
448,192,7739,1,0,0:0:0:0:
192,192,7898,1,0,0:0:0:0:
320,192,8058,1,2,0:0:0:0:
448,192,8058,128,0,8377:0:0:0:0:
192,192,8217,1,0,0:0:0:0:
64,192,8377,1,8,0:0:0:0:
192,192,8377,128,0,8696:0:0:0:0:
320,192,8377,1,0,0:0:0:0:
448,192,8537,1,0,0:0:0:0:
64,192,8696,1,2,0:0:0:0:
320,192,8696,128,0,9175:0:0:0:0:
192,192,8856,1,0,0:0:0:0:
64,192,9015,1,8,0:0:0:0:
192,192,9015,1,0,0:0:0:0:
448,192,9015,1,0,0:0:0:0:
192,192,9175,128,0,9973:0:0:0:0:
64,192,9334,1,2,0:0:0:0:
320,192,9334,1,0,0:0:0:0:
448,192,9494,1,0,0:0:0:0:
64,192,9654,1,8,0:0:0:0:
320,192,9654,1,0,0:0:0:0:
448,192,9654,1,0,0:0:0:0:
320,192,9813,1,0,0:0:0:0:
64,192,9973,128,2,10451:0:0:0:0:
448,192,9973,1,0,0:0:0:0:
320,192,10132,1,0,0:0:0:0:
192,192,10292,1,8,0:0:0:0:
320,192,10292,1,0,0:0:0:0:
448,192,10292,1,0,0:0:0:0:
448,192,10451,128,0,10611:0:0:0:0:
64,192,10611,1,8,0:0:0:0:
192,192,10611,1,0,0:0:0:0:
320,192,10691,1,8,0:0:0:0:
448,192,10691,1,0,0:0:0:0:
192,192,10850,1,2,0:0:0:0:
64,192,10930,1,8,0:0:0:0:
320,192,10930,1,0,0:0:0:0:
448,192,10930,1,0,0:0:0:0:
192,192,11010,1,2,0:0:0:0:
320,192,11090,1,2,0:0:0:0:
448,192,11090,1,0,0:0:0:0:
192,192,11169,1,2,0:0:0:0:
64,192,11249,128,2,13164:0:0:0:0:
320,192,11249,1,4,0:0:0:0:
448,192,11249,1,0,0:0:0:0:
192,192,11568,1,8,0:0:0:0:
320,192,11568,1,0,0:0:0:0:
448,192,11568,1,0,0:0:0:0:
320,192,11728,1,0,0:0:0:0:
192,192,11888,1,2,0:0:0:0:
448,192,11888,1,0,0:0:0:0:
320,192,12047,1,0,0:0:0:0:
192,192,12207,1,8,0:0:0:0:
320,192,12207,1,0,0:0:0:0:
448,192,12207,1,0,0:0:0:0:
448,192,12366,1,0,0:0:0:0:
192,192,12526,1,2,0:0:0:0:
320,192,12526,1,0,0:0:0:0:
448,192,12685,1,0,0:0:0:0:
192,192,12845,1,8,0:0:0:0:
320,192,12845,1,0,0:0:0:0:
448,192,12845,1,0,0:0:0:0:
320,192,13005,1,0,0:0:0:0:
192,192,13164,128,2,13483:0:0:0:0:
448,192,13164,1,0,0:0:0:0:
320,192,13324,1,0,0:0:0:0:
64,192,13483,1,8,0:0:0:0:
320,192,13483,128,0,13802:0:0:0:0:
448,192,13483,1,0,0:0:0:0:
192,192,13643,1,0,0:0:0:0:
64,192,13802,1,2,0:0:0:0:
448,192,13802,128,0,15079:0:0:0:0:
320,192,13962,1,0,0:0:0:0:
64,192,14122,1,8,0:0:0:0:
192,192,14122,1,0,0:0:0:0:
320,192,14122,1,0,0:0:0:0:
64,192,14281,1,0,0:0:0:0:
192,192,14441,1,2,0:0:0:0:
320,192,14441,1,0,0:0:0:0:
64,192,14600,1,0,0:0:0:0:
64,192,14760,1,8,0:0:0:0:
192,192,14760,1,0,0:0:0:0:
320,192,14760,1,0,0:0:0:0:
320,192,14919,1,0,0:0:0:0:
64,192,15079,1,2,0:0:0:0:
192,192,15079,128,0,16356:0:0:0:0:
320,192,15239,1,0,0:0:0:0:
64,192,15398,1,8,0:0:0:0:
320,192,15398,1,0,0:0:0:0:
448,192,15398,1,0,0:0:0:0:
448,192,15558,1,0,0:0:0:0:
64,192,15717,1,2,0:0:0:0:
320,192,15717,1,0,0:0:0:0:
448,192,15877,1,0,0:0:0:0:
64,192,16037,1,8,0:0:0:0:
320,192,16037,1,0,0:0:0:0:
448,192,16037,1,0,0:0:0:0:
64,192,16196,1,0,0:0:0:0:
320,192,16356,128,2,17632:0:0:0:0:
448,192,16356,1,0,0:0:0:0:
192,192,16515,1,0,0:0:0:0:
64,192,16675,1,8,0:0:0:0:
192,192,16675,1,0,0:0:0:0:
448,192,16675,1,0,0:0:0:0:
64,192,16834,1,0,0:0:0:0:
192,192,16994,1,2,0:0:0:0:
448,192,16994,1,0,0:0:0:0:
64,192,17154,1,0,0:0:0:0:
64,192,17313,1,8,0:0:0:0:
192,192,17313,1,0,0:0:0:0:
448,192,17313,1,0,0:0:0:0:
448,192,17473,1,0,0:0:0:0:
64,192,17632,128,2,18271:0:0:0:0:
192,192,17632,1,0,0:0:0:0:
320,192,17792,1,0,0:0:0:0:
192,192,17951,1,8,0:0:0:0:
320,192,17951,1,0,0:0:0:0:
448,192,17951,1,0,0:0:0:0:
448,192,18111,1,0,0:0:0:0:
192,192,18271,128,2,18909:0:0:0:0:
320,192,18271,1,0,0:0:0:0:
64,192,18430,1,0,0:0:0:0:
64,192,18590,1,8,0:0:0:0:
320,192,18590,1,0,0:0:0:0:
448,192,18590,1,0,0:0:0:0:
320,192,18749,1,0,0:0:0:0:
64,192,18909,1,2,0:0:0:0:
448,192,18909,128,0,19866:0:0:0:0:
192,192,19068,1,0,0:0:0:0:
64,192,19228,1,8,0:0:0:0:
192,192,19228,1,0,0:0:0:0:
320,192,19228,1,0,0:0:0:0:
64,192,19388,1,0,0:0:0:0:
192,192,19547,1,2,0:0:0:0:
320,192,19547,1,0,0:0:0:0:
320,192,19707,1,0,0:0:0:0:
64,192,19866,1,8,0:0:0:0:
192,192,19866,1,0,0:0:0:0:
320,192,19866,128,0,21143:0:0:0:0:
64,192,20026,1,0,0:0:0:0:
192,192,20185,1,2,0:0:0:0:
448,192,20185,1,0,0:0:0:0:
64,192,20345,1,0,0:0:0:0:
64,192,20505,1,8,0:0:0:0:
192,192,20505,1,0,0:0:0:0:
448,192,20505,1,0,0:0:0:0:
192,192,20664,1,0,0:0:0:0:
64,192,20824,1,2,0:0:0:0:
448,192,20824,1,0,0:0:0:0:
192,192,20983,1,0,0:0:0:0:
64,192,21143,1,8,0:0:0:0:
192,192,21143,1,0,0:0:0:0:
320,192,21223,1,8,0:0:0:0:
448,192,21223,1,0,0:0:0:0:
64,192,21302,1,8,0:0:0:0:
192,192,21302,1,0,0:0:0:0:
320,192,21382,1,8,0:0:0:0:
448,192,21382,1,0,0:0:0:0:
64,192,21462,128,2,21781:0:0:0:0:
192,192,21462,128,0,21781:0:0:0:0:
320,192,21622,1,2,0:0:0:0:
320,192,21781,1,8,0:0:0:0:
448,192,21781,1,0,0:0:0:0:
448,192,21941,1,0,0:0:0:0:
64,192,22100,1,2,0:0:0:0:
64,192,22260,1,2,0:0:0:0:
192,192,22260,1,0,0:0:0:0:
64,192,22419,1,8,0:0:0:0:
320,192,22419,1,0,0:0:0:0:
448,192,22419,1,0,0:0:0:0:
64,192,22579,1,0,0:0:0:0:
320,192,22739,1,2,0:0:0:0:
192,192,22898,1,2,0:0:0:0:
320,192,22898,1,0,0:0:0:0:
64,192,23058,1,8,0:0:0:0:
320,192,23058,1,0,0:0:0:0:
448,192,23058,1,0,0:0:0:0:
320,192,23217,1,0,0:0:0:0:
192,192,23377,1,2,0:0:0:0:
64,192,23537,1,2,0:0:0:0:
192,192,23537,1,0,0:0:0:0:
192,192,23696,1,8,0:0:0:0:
320,192,23696,1,0,0:0:0:0:
448,192,23696,1,0,0:0:0:0:
192,192,23856,1,0,0:0:0:0:
320,192,24015,128,2,24334:0:0:0:0:
448,192,24015,128,0,24334:0:0:0:0:
64,192,24175,1,2,0:0:0:0:
64,192,24334,1,8,0:0:0:0:
192,192,24334,1,0,0:0:0:0:
64,192,24494,1,0,0:0:0:0:
320,192,24654,1,2,0:0:0:0:
448,192,24654,1,0,0:0:0:0:
192,192,24813,1,2,0:0:0:0:
448,192,24813,1,0,0:0:0:0:
64,192,24973,1,8,0:0:0:0:
320,192,24973,1,0,0:0:0:0:
448,192,24973,1,0,0:0:0:0:
448,192,25132,1,0,0:0:0:0:
192,192,25292,1,2,0:0:0:0:
192,192,25451,1,2,0:0:0:0:
448,192,25451,1,0,0:0:0:0:
64,192,25611,1,8,0:0:0:0:
192,192,25611,1,0,0:0:0:0:
320,192,25611,1,0,0:0:0:0:
192,192,25771,1,0,0:0:0:0:
320,192,25930,1,2,0:0:0:0:
192,192,26090,1,2,0:0:0:0:
320,192,26090,1,0,0:0:0:0:
64,192,26249,1,8,0:0:0:0:
320,192,26249,1,0,0:0:0:0:
448,192,26249,1,0,0:0:0:0:
320,192,26409,1,0,0:0:0:0:
64,192,26568,128,2,26888:0:0:0:0:
192,192,26568,128,0,26888:0:0:0:0:
448,192,26728,1,2,0:0:0:0:
320,192,26888,1,8,0:0:0:0:
448,192,26888,1,0,0:0:0:0:
448,192,27047,1,0,0:0:0:0:
64,192,27207,1,2,0:0:0:0:
64,192,27366,1,2,0:0:0:0:
320,192,27366,1,0,0:0:0:0:
64,192,27526,1,8,0:0:0:0:
192,192,27526,1,0,0:0:0:0:
448,192,27526,1,0,0:0:0:0:
64,192,27685,1,0,0:0:0:0:
320,192,27845,1,2,0:0:0:0:
64,192,28005,1,2,0:0:0:0:
320,192,28005,1,0,0:0:0:0:
192,192,28164,1,8,0:0:0:0:
320,192,28164,1,0,0:0:0:0:
448,192,28164,1,0,0:0:0:0:
320,192,28324,1,0,0:0:0:0:
192,192,28483,1,2,0:0:0:0:
64,192,28643,1,2,0:0:0:0:
192,192,28643,1,0,0:0:0:0:
192,192,28802,1,8,0:0:0:0:
320,192,28802,1,0,0:0:0:0:
448,192,28802,1,0,0:0:0:0:
192,192,28962,1,0,0:0:0:0:
320,192,29122,128,2,29441:0:0:0:0:
448,192,29122,128,0,29441:0:0:0:0:
64,192,29281,1,2,0:0:0:0:
64,192,29441,1,8,0:0:0:0:
192,192,29441,1,0,0:0:0:0:
64,192,29600,1,0,0:0:0:0:
448,192,29760,1,2,0:0:0:0:
192,192,29919,1,2,0:0:0:0:
448,192,29919,1,0,0:0:0:0:
64,192,30079,1,8,0:0:0:0:
320,192,30079,1,0,0:0:0:0:
448,192,30079,1,0,0:0:0:0:
192,192,30239,128,0,30398:0:0:0:0:
320,192,30398,1,0,0:0:0:0:
64,192,31196,1,2,0:0:0:0:
448,192,31196,1,0,0:0:0:0:
64,192,31356,1,2,0:0:0:0:
320,192,31356,1,4,0:0:0:0:
448,192,31356,1,0,0:0:0:0:
64,192,31675,128,2,34228:0:0:0:0:
192,192,31675,1,4,0:0:0:0:
448,192,31675,1,0,0:0:0:0:
192,192,31994,1,8,0:0:0:0:
320,192,31994,1,0,0:0:0:0:
448,192,31994,1,0,0:0:0:0:
320,192,32154,1,0,0:0:0:0:
192,192,32313,1,2,0:0:0:0:
448,192,32313,1,0,0:0:0:0:
320,192,32473,1,0,0:0:0:0:
192,192,32632,1,8,0:0:0:0:
320,192,32632,1,0,0:0:0:0:
448,192,32632,1,0,0:0:0:0:
448,192,32792,1,0,0:0:0:0:
192,192,32951,1,2,0:0:0:0:
320,192,32951,1,0,0:0:0:0:
448,192,33111,1,0,0:0:0:0:
192,192,33271,1,8,0:0:0:0:
320,192,33271,1,0,0:0:0:0:
448,192,33271,1,0,0:0:0:0:
192,192,33430,1,0,0:0:0:0:
320,192,33590,1,2,0:0:0:0:
448,192,33590,1,0,0:0:0:0:
192,192,33749,1,0,0:0:0:0:
192,192,33909,1,8,0:0:0:0:
320,192,33909,1,0,0:0:0:0:
448,192,33909,1,0,0:0:0:0:
448,192,34068,1,0,0:0:0:0:
192,192,34228,1,2,0:0:0:0:
320,192,34228,128,0,36781:0:0:0:0:
64,192,34388,1,0,0:0:0:0:
64,192,34547,1,8,0:0:0:0:
192,192,34547,1,0,0:0:0:0:
448,192,34547,1,0,0:0:0:0:
448,192,34707,1,0,0:0:0:0:
64,192,34866,1,2,0:0:0:0:
192,192,34866,1,0,0:0:0:0:
448,192,35026,1,0,0:0:0:0:
64,192,35185,1,8,0:0:0:0:
192,192,35185,1,0,0:0:0:0:
448,192,35185,1,0,0:0:0:0:
192,192,35345,1,0,0:0:0:0:
64,192,35505,1,2,0:0:0:0:
448,192,35505,1,0,0:0:0:0:
192,192,35664,1,0,0:0:0:0:
64,192,35824,1,8,0:0:0:0:
192,192,35824,1,0,0:0:0:0:
448,192,35824,1,0,0:0:0:0:
64,192,35983,1,0,0:0:0:0:
192,192,36143,1,2,0:0:0:0:
448,192,36143,1,0,0:0:0:0:
64,192,36302,1,0,0:0:0:0:
64,192,36462,1,8,0:0:0:0:
192,192,36462,1,0,0:0:0:0:
448,192,36462,1,0,0:0:0:0:
448,192,36622,1,0,0:0:0:0:
64,192,36781,1,2,0:0:0:0:
192,192,36781,128,0,39334:0:0:0:0:
320,192,36941,1,0,0:0:0:0:
64,192,37100,1,8,0:0:0:0:
320,192,37100,1,0,0:0:0:0:
448,192,37100,1,0,0:0:0:0:
448,192,37260,1,0,0:0:0:0:
64,192,37419,1,2,0:0:0:0:
320,192,37419,1,0,0:0:0:0:
448,192,37579,1,0,0:0:0:0:
64,192,37739,1,8,0:0:0:0:
320,192,37739,1,0,0:0:0:0:
448,192,37739,1,0,0:0:0:0:
64,192,37898,1,0,0:0:0:0:
320,192,38058,1,2,0:0:0:0:
448,192,38058,1,0,0:0:0:0:
64,192,38217,1,0,0:0:0:0:
64,192,38377,1,8,0:0:0:0:
320,192,38377,1,0,0:0:0:0:
448,192,38377,1,0,0:0:0:0:
320,192,38537,1,0,0:0:0:0:
64,192,38696,1,2,0:0:0:0:
448,192,38696,1,0,0:0:0:0:
320,192,38856,1,0,0:0:0:0:
64,192,39015,1,8,0:0:0:0:
320,192,39015,1,0,0:0:0:0:
448,192,39015,1,0,0:0:0:0:
448,192,39175,1,0,0:0:0:0:
64,192,39334,1,2,0:0:0:0:
448,192,39334,128,0,41249:0:0:0:0:
192,192,39494,1,0,0:0:0:0:
64,192,39654,1,8,0:0:0:0:
192,192,39654,1,0,0:0:0:0:
320,192,39654,1,0,0:0:0:0:
64,192,39813,1,0,0:0:0:0:
192,192,39973,1,2,0:0:0:0:
320,192,39973,1,0,0:0:0:0:
64,192,40132,1,0,0:0:0:0:
64,192,40292,1,8,0:0:0:0:
192,192,40292,1,0,0:0:0:0:
320,192,40292,1,0,0:0:0:0:
320,192,40451,1,0,0:0:0:0:
64,192,40611,1,2,0:0:0:0:
192,192,40611,1,0,0:0:0:0:
320,192,40771,1,0,0:0:0:0:
64,192,40930,1,8,0:0:0:0:
192,192,40930,1,0,0:0:0:0:
320,192,40930,1,0,0:0:0:0:
64,192,41090,1,0,0:0:0:0:
192,192,41249,1,2,0:0:0:0:
320,192,41249,1,0,0:0:0:0:
64,192,41409,1,8,0:0:0:0:
320,192,41409,128,0,41489:0:0:0:0:
448,192,41409,1,0,0:0:0:0:
64,192,41568,1,8,0:0:0:0:
192,192,41568,128,0,41648:0:0:0:0:
448,192,41568,1,0,0:0:0:0:
64,192,41728,1,8,0:0:0:0:
320,192,41728,128,0,41808:0:0:0:0:
448,192,41728,1,0,0:0:0:0:
64,192,41888,1,2,0:0:0:0:
192,192,41888,128,4,42207:0:0:0:0:
448,192,41888,1,0,0:0:0:0:
320,192,42047,128,2,42207:0:0:0:0:
448,192,42047,1,0,0:0:0:0:
64,192,42207,1,0,0:0:0:0:
192,192,42366,1,8,0:0:0:0:
320,192,42366,1,0,0:0:0:0:
448,192,42366,128,0,42685:0:0:0:0:
64,192,42685,128,2,42845:0:0:0:0:
320,192,42685,1,0,0:0:0:0:
192,192,42845,128,8,43005:0:0:0:0:
320,192,42845,1,0,0:0:0:0:
448,192,42845,1,0,0:0:0:0:
320,192,43005,128,0,43164:0:0:0:0:
64,192,43164,128,2,43483:0:0:0:0:
448,192,43164,1,0,0:0:0:0:
192,192,43324,128,2,43483:0:0:0:0:
320,192,43324,1,0,0:0:0:0:
448,192,43483,1,0,0:0:0:0:
64,192,43643,1,8,0:0:0:0:
192,192,43643,1,0,0:0:0:0:
448,192,43643,128,0,43962:0:0:0:0:
320,192,43802,128,0,43962:0:0:0:0:
64,192,43962,128,2,44122:0:0:0:0:
192,192,43962,1,0,0:0:0:0:
192,192,44122,1,8,0:0:0:0:
320,192,44122,128,0,44281:0:0:0:0:
448,192,44122,1,0,0:0:0:0:
448,192,44281,128,0,44441:0:0:0:0:
192,192,44441,128,2,44600:0:0:0:0:
320,192,44441,1,0,0:0:0:0:
64,192,44600,128,2,44760:0:0:0:0:
448,192,44600,1,0,0:0:0:0:
320,192,44760,128,0,44919:0:0:0:0:
64,192,44919,1,8,0:0:0:0:
192,192,44919,1,0,0:0:0:0:
448,192,44919,128,0,45079:0:0:0:0:
64,192,45079,128,0,45239:0:0:0:0:
192,192,45239,128,2,45398:0:0:0:0:
320,192,45239,1,0,0:0:0:0:
64,192,45398,1,8,0:0:0:0:
320,192,45398,128,0,45558:0:0:0:0:
448,192,45398,1,0,0:0:0:0:
448,192,45558,128,0,45717:0:0:0:0:
64,192,45717,1,2,0:0:0:0:
192,192,45717,128,0,45877:0:0:0:0:
320,192,45877,128,2,46037:0:0:0:0:
448,192,45877,1,0,0:0:0:0:
64,192,46037,128,0,46196:0:0:0:0:
192,192,46196,1,8,0:0:0:0:
320,192,46196,128,0,46515:0:0:0:0:
448,192,46196,1,0,0:0:0:0:
64,192,46515,128,2,46675:0:0:0:0:
448,192,46515,1,0,0:0:0:0:
192,192,46675,1,8,0:0:0:0:
320,192,46675,128,0,46834:0:0:0:0:
448,192,46675,1,0,0:0:0:0:
64,192,46834,128,0,46994:0:0:0:0:
192,192,46994,1,2,0:0:0:0:
448,192,46994,128,0,47313:0:0:0:0:
64,192,47154,1,2,0:0:0:0:
320,192,47154,128,0,47313:0:0:0:0:
192,192,47313,1,0,0:0:0:0:
64,192,47473,1,8,0:0:0:0:
192,192,47473,1,0,0:0:0:0:
448,192,47473,128,0,47792:0:0:0:0:
64,192,47792,1,2,0:0:0:0:
320,192,47792,128,0,47951:0:0:0:0:
64,192,47951,1,8,0:0:0:0:
192,192,47951,128,0,48111:0:0:0:0:
448,192,47951,1,0,0:0:0:0:
448,192,48111,128,0,48271:0:0:0:0:
64,192,48271,128,2,48590:0:0:0:0:
320,192,48271,1,0,0:0:0:0:
192,192,48430,128,2,48590:0:0:0:0:
448,192,48430,1,0,0:0:0:0:
320,192,48590,1,0,0:0:0:0:
64,192,48749,128,8,49068:0:0:0:0:
320,192,48749,1,0,0:0:0:0:
448,192,48749,1,0,0:0:0:0:
192,192,48909,128,0,49068:0:0:0:0:
320,192,49068,1,2,0:0:0:0:
448,192,49068,128,0,49228:0:0:0:0:
64,192,49228,1,8,0:0:0:0:
192,192,49228,128,0,49388:0:0:0:0:
320,192,49228,1,0,0:0:0:0:
320,192,49388,128,0,49547:0:0:0:0:
64,192,49547,128,2,49707:0:0:0:0:
192,192,49547,1,0,0:0:0:0:
320,192,49707,1,2,0:0:0:0:
448,192,49707,128,0,49866:0:0:0:0:
192,192,49866,128,0,50026:0:0:0:0:
64,192,50026,128,8,50185:0:0:0:0:
320,192,50026,1,0,0:0:0:0:
448,192,50026,1,0,0:0:0:0:
320,192,50185,128,0,50345:0:0:0:0:
64,192,50345,1,2,0:0:0:0:
448,192,50345,128,0,50664:0:0:0:0:
64,192,50505,1,8,0:0:0:0:
192,192,50505,1,0,0:0:0:0:
320,192,50505,1,0,0:0:0:0:
192,192,50664,128,0,50824:0:0:0:0:
448,192,50824,128,2,50983:0:0:0:0:
64,192,50983,1,2,0:0:0:0:
320,192,50983,128,0,51143:0:0:0:0:
192,192,51143,1,0,0:0:0:0:
448,192,51143,128,0,51622:0:0:0:0:
64,192,51302,128,2,51462:0:0:0:0:
192,192,51462,128,0,51622:0:0:0:0:
64,192,51622,128,2,51781:0:0:0:0:
320,192,51622,1,0,0:0:0:0:
192,192,51781,1,4,0:0:0:0:
320,192,51781,128,2,52100:0:0:0:0:
448,192,51781,128,0,52100:0:0:0:0:
64,192,52100,128,4,52419:0:0:0:0:
192,192,52100,1,2,0:0:0:0:
320,192,52260,128,2,52419:0:0:0:0:
448,192,52260,1,0,0:0:0:0:
192,192,52419,1,0,0:0:0:0:
64,192,52579,1,8,0:0:0:0:
192,192,52579,128,0,52898:0:0:0:0:
448,192,52579,1,0,0:0:0:0:
64,192,52898,1,2,0:0:0:0:
448,192,52898,128,0,53058:0:0:0:0:
64,192,53058,1,8,0:0:0:0:
192,192,53058,1,0,0:0:0:0:
320,192,53058,128,0,53217:0:0:0:0:
64,192,53217,128,0,53377:0:0:0:0:
320,192,53377,1,2,0:0:0:0:
448,192,53377,128,0,53696:0:0:0:0:
64,192,53537,128,2,53696:0:0:0:0:
192,192,53537,1,0,0:0:0:0:
320,192,53696,1,0,0:0:0:0:
64,192,53856,1,8,0:0:0:0:
192,192,53856,1,0,0:0:0:0:
448,192,53856,128,0,54175:0:0:0:0:
320,192,54015,128,0,54175:0:0:0:0:
192,192,54175,128,2,54334:0:0:0:0:
64,192,54175,1,0,0:0:0:0:
64,192,54334,1,8,0:0:0:0:
320,192,54334,128,0,54494:0:0:0:0:
448,192,54334,1,0,0:0:0:0:
448,192,54494,128,0,54654:0:0:0:0:
192,192,54654,128,2,54813:0:0:0:0:
320,192,54654,1,0,0:0:0:0:
64,192,54813,128,2,54973:0:0:0:0:
448,192,54813,1,0,0:0:0:0:
320,192,54973,128,0,55132:0:0:0:0:
64,192,55132,1,8,0:0:0:0:
192,192,55132,1,0,0:0:0:0:
448,192,55132,128,0,55292:0:0:0:0:
192,192,55292,128,0,55451:0:0:0:0:
64,192,55451,128,2,55611:0:0:0:0:
320,192,55451,1,0,0:0:0:0:
192,192,55611,1,8,0:0:0:0:
320,192,55611,1,0,0:0:0:0:
448,192,55611,128,0,55771:0:0:0:0:
320,192,55771,128,0,55930:0:0:0:0:
192,192,55930,128,2,56090:0:0:0:0:
448,192,55930,1,0,0:0:0:0:
64,192,56090,128,2,56249:0:0:0:0:
320,192,56090,1,0,0:0:0:0:
448,192,56249,128,0,56568:0:0:0:0:
64,192,56409,128,8,56568:0:0:0:0:
192,192,56409,1,0,0:0:0:0:
320,192,56568,128,0,56728:0:0:0:0:
192,192,56728,128,2,56888:0:0:0:0:
448,192,56728,1,0,0:0:0:0:
64,192,56888,1,8,0:0:0:0:
320,192,56888,128,0,57207:0:0:0:0:
448,192,56888,1,0,0:0:0:0:
192,192,57207,1,2,0:0:0:0:
448,192,57207,128,0,57526:0:0:0:0:
64,192,57366,128,2,57526:0:0:0:0:
320,192,57366,1,0,0:0:0:0:
192,192,57526,1,0,0:0:0:0:
192,192,57685,1,8,0:0:0:0:
448,192,57685,128,0,58005:0:0:0:0:
320,192,57685,1,0,0:0:0:0:
64,192,58005,128,2,58164:0:0:0:0:
192,192,58005,1,0,0:0:0:0:
192,192,58164,1,8,0:0:0:0:
320,192,58164,1,0,0:0:0:0:
448,192,58164,128,0,58324:0:0:0:0:
64,192,58324,128,0,58483:0:0:0:0:
192,192,58483,128,2,58802:0:0:0:0:
64,192,58643,1,2,0:0:0:0:
320,192,58643,128,0,58802:0:0:0:0:
448,192,58802,1,0,0:0:0:0:
64,192,58962,1,8,0:0:0:0:
192,192,58962,1,0,0:0:0:0:
448,192,58962,128,0,59281:0:0:0:0:
64,192,59281,128,2,59441:0:0:0:0:
320,192,59281,1,0,0:0:0:0:
192,192,59441,1,8,0:0:0:0:
320,192,59441,128,0,59781:0:0:0:0:
448,192,59441,1,0,0:0:0:0:
192,192,59600,128,0,59781:0:0:0:0:
64,192,59781,1,4,0:0:0:0:
448,192,59781,1,2,0:0:0:0:
320,192,61695,1,2,0:0:0:0:
192,192,61775,1,2,0:0:0:0:
64,192,61855,1,8,0:0:0:0:
448,192,61855,1,0,0:0:0:0:
192,192,61935,1,8,0:0:0:0:
320,192,61935,1,0,0:0:0:0:
64,192,62015,1,2,0:0:0:0:
320,192,62094,1,8,0:0:0:0:
448,192,62094,1,0,0:0:0:0:
64,192,62174,1,8,0:0:0:0:
192,192,62174,1,0,0:0:0:0:
320,192,62254,1,8,0:0:0:0:
448,192,62254,1,0,0:0:0:0:
64,192,62334,1,8,0:0:0:0:
192,192,62334,1,0,0:0:0:0:
64,192,62653,1,2,0:0:0:0:
320,192,62653,128,4,62812:0:0:0:0:
448,192,62653,1,0,0:0:0:0:
192,192,62812,128,0,62972:0:0:0:0:
64,192,62972,1,2,0:0:0:0:
448,192,62972,128,0,63132:0:0:0:0:
64,192,63132,128,0,63291:0:0:0:0:
192,192,63291,1,8,0:0:0:0:
320,192,63291,1,0,0:0:0:0:
448,192,63291,1,0,0:0:0:0:
192,192,63451,128,0,63610:0:0:0:0:
64,192,63610,1,2,0:0:0:0:
448,192,63610,128,0,63770:0:0:0:0:
320,192,63770,1,0,0:0:0:0:
64,192,63929,1,8,0:0:0:0:
192,192,63929,128,0,64089:0:0:0:0:
448,192,63929,1,0,0:0:0:0:
320,192,64089,1,0,0:0:0:0:
64,192,64249,1,2,0:0:0:0:
448,192,64249,128,0,64408:0:0:0:0:
320,192,64408,128,0,64568:0:0:0:0:
64,192,64568,1,8,0:0:0:0:
192,192,64568,1,0,0:0:0:0:
448,192,64568,1,0,0:0:0:0:
192,192,64727,128,0,64887:0:0:0:0:
320,192,64887,1,2,0:0:0:0:
448,192,64887,128,0,65046:0:0:0:0:
64,192,65046,128,0,65206:0:0:0:0:
192,192,65206,128,8,65366:0:0:0:0:
320,192,65206,1,0,0:0:0:0:
448,192,65206,1,0,0:0:0:0:
64,192,65366,128,0,65525:0:0:0:0:
320,192,65525,1,2,0:0:0:0:
448,192,65525,128,0,65685:0:0:0:0:
192,192,65685,128,0,65844:0:0:0:0:
64,192,65844,1,8,0:0:0:0:
448,192,65844,1,0,0:0:0:0:
320,192,65844,1,0,0:0:0:0:
320,192,66004,128,0,66163:0:0:0:0:
64,192,66163,128,2,66483:0:0:0:0:
448,192,66163,1,0,0:0:0:0:
320,192,66323,1,0,0:0:0:0:
192,192,66483,1,8,0:0:0:0:
320,192,66483,128,0,66642:0:0:0:0:
448,192,66483,1,0,0:0:0:0:
64,192,66642,128,0,66802:0:0:0:0:
320,192,66802,1,2,0:0:0:0:
448,192,66802,128,0,67121:0:0:0:0:
192,192,66961,1,0,0:0:0:0:
64,192,67121,128,8,67440:0:0:0:0:
192,192,67121,1,0,0:0:0:0:
320,192,67121,1,0,0:0:0:0:
448,192,67281,1,0,0:0:0:0:
192,192,67440,1,2,0:0:0:0:
320,192,67440,1,0,0:0:0:0:
64,192,67600,1,0,0:0:0:0:
192,192,67759,1,8,0:0:0:0:
320,192,67759,128,0,67919:0:0:0:0:
448,192,67759,1,0,0:0:0:0:
64,192,67919,1,0,0:0:0:0:
192,192,68078,1,2,0:0:0:0:
448,192,68078,128,0,68398:0:0:0:0:
320,192,68238,128,0,68398:0:0:0:0:
64,192,68398,1,8,0:0:0:0:
192,192,68398,1,0,0:0:0:0:
192,192,68557,128,0,68876:0:0:0:0:
64,192,68717,128,2,68876:0:0:0:0:
448,192,68717,1,0,0:0:0:0:
320,192,68876,1,0,0:0:0:0:
64,192,69036,1,8,0:0:0:0:
192,192,69036,1,0,0:0:0:0:
320,192,69036,128,0,69355:0:0:0:0:
448,192,69195,128,0,69355:0:0:0:0:
64,192,69355,1,2,0:0:0:0:
192,192,69355,1,0,0:0:0:0:
192,192,69515,1,0,0:0:0:0:
64,192,69674,1,8,0:0:0:0:
320,192,69674,1,0,0:0:0:0:
448,192,69674,1,0,0:0:0:0:
320,192,69834,128,0,69993:0:0:0:0:
64,192,69993,1,2,0:0:0:0:
192,192,69993,128,0,70153:0:0:0:0:
448,192,70153,128,0,70312:0:0:0:0:
64,192,70312,1,8,0:0:0:0:
192,192,70312,1,0,0:0:0:0:
320,192,70312,1,0,0:0:0:0:
64,192,70472,1,0,0:0:0:0:
192,192,70632,1,2,0:0:0:0:
320,192,70632,128,0,70791:0:0:0:0:
448,192,70791,1,0,0:0:0:0:
64,192,70951,1,8,0:0:0:0:
192,192,70951,128,0,71270:0:0:0:0:
448,192,70951,1,0,0:0:0:0:
320,192,71110,128,0,71270:0:0:0:0:
64,192,71270,1,2,0:0:0:0:
448,192,71270,1,0,0:0:0:0:
192,192,71429,128,0,71589:0:0:0:0:
64,192,71589,1,8,0:0:0:0:
320,192,71589,1,0,0:0:0:0:
448,192,71589,1,0,0:0:0:0:
320,192,71749,128,0,72068:0:0:0:0:
64,192,71908,1,2,0:0:0:0:
192,192,71908,128,0,72068:0:0:0:0:
448,192,72068,1,0,0:0:0:0:
64,192,72227,1,8,0:0:0:0:
448,192,72227,1,0,0:0:0:0:
192,192,72307,1,2,0:0:0:0:
320,192,72307,1,0,0:0:0:0:
64,192,72387,1,8,0:0:0:0:
448,192,72387,1,0,0:0:0:0:
64,192,72546,1,2,0:0:0:0:
192,192,72546,1,4,0:0:0:0:
320,192,72546,128,0,72706:0:0:0:0:
64,192,72866,128,8,73025:0:0:0:0:
320,192,72866,1,0,0:0:0:0:
448,192,72866,1,0,0:0:0:0:
320,192,73025,128,0,73185:0:0:0:0:
64,192,73185,1,2,0:0:0:0:
192,192,73185,128,0,73344:0:0:0:0:
448,192,73344,128,0,73504:0:0:0:0:
64,192,73504,1,8,0:0:0:0:
192,192,73504,1,0,0:0:0:0:
320,192,73504,1,0,0:0:0:0:
192,192,73663,128,0,73823:0:0:0:0:
64,192,73823,128,2,73983:0:0:0:0:
320,192,73823,1,0,0:0:0:0:
448,192,73983,1,0,0:0:0:0:
192,192,74142,1,8,0:0:0:0:
320,192,74142,128,0,74302:0:0:0:0:
448,192,74142,1,0,0:0:0:0:
192,192,74302,128,0,74461:0:0:0:0:
64,192,74461,1,2,0:0:0:0:
448,192,74461,128,0,74621:0:0:0:0:
320,192,74621,128,0,74781:0:0:0:0:
64,192,74781,1,8,0:0:0:0:
192,192,74781,1,0,0:0:0:0:
448,192,74781,1,0,0:0:0:0:
320,192,74940,128,0,75100:0:0:0:0:
64,192,75100,128,2,75259:0:0:0:0:
448,192,75100,1,0,0:0:0:0:
448,192,75259,128,0,75419:0:0:0:0:
64,192,75419,1,8,0:0:0:0:
192,192,75419,1,0,0:0:0:0:
320,192,75419,1,0,0:0:0:0:
64,192,75578,128,0,75738:0:0:0:0:
192,192,75738,128,2,75898:0:0:0:0:
448,192,75738,1,0,0:0:0:0:
320,192,75898,128,0,76057:0:0:0:0:
64,192,76057,1,8,0:0:0:0:
192,192,76057,1,0,0:0:0:0:
448,192,76057,128,0,76217:0:0:0:0:
192,192,76217,128,0,76376:0:0:0:0:
320,192,76376,1,2,0:0:0:0:
448,192,76376,128,0,76695:0:0:0:0:
64,192,76536,1,0,0:0:0:0:
64,192,76695,1,8,0:0:0:0:
192,192,76695,1,0,0:0:0:0:
320,192,76695,128,0,76855:0:0:0:0:
192,192,76855,128,0,77015:0:0:0:0:
64,192,77015,128,2,77334:0:0:0:0:
448,192,77015,1,0,0:0:0:0:
320,192,77174,1,0,0:0:0:0:
192,192,77334,1,8,0:0:0:0:
320,192,77334,1,0,0:0:0:0:
448,192,77334,128,0,77653:0:0:0:0:
192,192,77493,1,0,0:0:0:0:
64,192,77653,1,2,0:0:0:0:
320,192,77653,1,0,0:0:0:0:
64,192,77812,128,0,78132:0:0:0:0:
192,192,77972,1,8,0:0:0:0:
320,192,77972,128,0,78132:0:0:0:0:
448,192,78132,1,0,0:0:0:0:
192,192,78291,128,2,78610:0:0:0:0:
320,192,78291,1,0,0:0:0:0:
448,192,78451,128,0,78610:0:0:0:0:
64,192,78610,1,8,0:0:0:0:
320,192,78610,1,0,0:0:0:0:
448,192,78770,128,0,79089:0:0:0:0:
64,192,78929,1,2,0:0:0:0:
192,192,78929,128,0,79089:0:0:0:0:
320,192,79089,1,0,0:0:0:0:
64,192,79249,1,8,0:0:0:0:
320,192,79249,128,0,79568:0:0:0:0:
448,192,79249,1,0,0:0:0:0:
64,192,79408,128,0,79568:0:0:0:0:
192,192,79568,1,2,0:0:0:0:
448,192,79568,1,0,0:0:0:0:
192,192,79727,1,0,0:0:0:0:
64,192,79887,1,8,0:0:0:0:
320,192,79887,1,0,0:0:0:0:
448,192,79887,1,0,0:0:0:0:
192,192,80046,128,0,80206:0:0:0:0:
64,192,80206,128,2,80366:0:0:0:0:
448,192,80206,1,0,0:0:0:0:
320,192,80366,128,0,80685:0:0:0:0:
64,192,80525,1,8,0:0:0:0:
192,192,80525,1,0,0:0:0:0:
448,192,80525,1,0,0:0:0:0:
192,192,80685,128,0,81004:0:0:0:0:
64,192,80844,1,2,0:0:0:0:
320,192,80844,1,0,0:0:0:0:
448,192,81004,128,0,81323:0:0:0:0:
64,192,81163,1,8,0:0:0:0:
192,192,81163,1,0,0:0:0:0:
320,192,81163,1,0,0:0:0:0:
192,192,81323,128,0,81483:0:0:0:0:
64,192,81483,1,2,0:0:0:0:
320,192,81483,128,0,81642:0:0:0:0:
448,192,81642,1,0,0:0:0:0:
64,192,81802,128,4,81961:0:0:0:0:
448,192,81802,1,2,0:0:0:0:
192,192,81802,128,0,81961:0:0:0:0:
64,192,82121,1,8,0:0:0:0:
448,192,82121,1,0,0:0:0:0:
320,192,82201,1,8,0:0:0:0:
192,192,82201,1,0,0:0:0:0:
64,192,82281,1,8,0:0:0:0:
448,192,82281,1,0,0:0:0:0:
192,192,82440,1,2,0:0:0:0:
64,192,82440,1,0,0:0:0:0:
320,192,82520,1,2,0:0:0:0:
448,192,82600,1,2,0:0:0:0:
192,192,82600,1,0,0:0:0:0:
64,192,82679,1,2,0:0:0:0:
448,192,82759,1,2,0:0:0:0:
192,192,82759,1,4,0:0:0:0:
320,192,82759,1,0,0:0:0:0:
320,192,82919,1,0,0:0:0:0:
64,192,83078,1,8,0:0:0:0:
192,192,83078,1,0,0:0:0:0:
448,192,83078,1,0,0:0:0:0:
320,192,83238,1,0,0:0:0:0:
192,192,83398,1,2,0:0:0:0:
448,192,83398,1,0,0:0:0:0:
64,192,83557,1,0,0:0:0:0:
192,192,83717,1,8,0:0:0:0:
320,192,83717,1,0,0:0:0:0:
448,192,83717,1,0,0:0:0:0:
320,192,83876,1,0,0:0:0:0:
64,192,84036,1,2,0:0:0:0:
192,192,84036,1,0,0:0:0:0:
320,192,84195,1,0,0:0:0:0:
64,192,84355,1,8,0:0:0:0:
320,192,84355,1,0,0:0:0:0:
448,192,84355,1,0,0:0:0:0:
192,192,84515,1,0,0:0:0:0:
64,192,84674,128,2,84834:0:0:0:0:
320,192,84674,1,0,0:0:0:0:
192,192,84834,128,0,84993:0:0:0:0:
64,192,84993,1,8,0:0:0:0:
320,192,84993,1,0,0:0:0:0:
448,192,84993,128,0,85153:0:0:0:0:
320,192,85153,128,0,85312:0:0:0:0:
64,192,85312,128,2,85472:0:0:0:0:
448,192,85312,1,0,0:0:0:0:
192,192,85472,128,0,85632:0:0:0:0:
64,192,85632,1,8,0:0:0:0:
320,192,85632,1,0,0:0:0:0:
448,192,85632,128,0,85791:0:0:0:0:
320,192,85791,128,0,85951:0:0:0:0:
64,192,85951,128,2,86110:0:0:0:0:
448,192,85951,1,0,0:0:0:0:
192,192,86110,128,0,86270:0:0:0:0:
64,192,86270,1,8,0:0:0:0:
320,192,86270,128,0,86429:0:0:0:0:
448,192,86270,1,0,0:0:0:0:
448,192,86429,128,0,86589:0:0:0:0:
64,192,86589,1,2,0:0:0:0:
192,192,86589,128,0,86749:0:0:0:0:
320,192,86749,128,0,86908:0:0:0:0:
64,192,86908,128,8,87227:0:0:0:0:
192,192,86908,1,0,0:0:0:0:
448,192,86908,1,0,0:0:0:0:
320,192,87068,1,0,0:0:0:0:
192,192,87227,1,2,0:0:0:0:
448,192,87227,1,0,0:0:0:0:
320,192,87387,1,0,0:0:0:0:
64,192,87546,1,8,0:0:0:0:
320,192,87546,1,0,0:0:0:0:
448,192,87546,1,0,0:0:0:0:
192,192,87706,1,0,0:0:0:0:
64,192,87866,1,2,0:0:0:0:
448,192,87866,1,0,0:0:0:0:
192,192,88025,1,0,0:0:0:0:
64,192,88185,1,8,0:0:0:0:
320,192,88185,1,0,0:0:0:0:
448,192,88185,1,0,0:0:0:0:
192,192,88344,1,0,0:0:0:0:
320,192,88504,1,2,0:0:0:0:
448,192,88504,1,0,0:0:0:0:
64,192,88663,1,0,0:0:0:0:
192,192,88823,1,8,0:0:0:0:
320,192,88823,1,0,0:0:0:0:
448,192,88823,1,0,0:0:0:0:
320,192,88983,1,0,0:0:0:0:
64,192,89142,1,2,0:0:0:0:
192,192,89142,1,0,0:0:0:0:
448,192,89302,1,0,0:0:0:0:
64,192,89461,1,8,0:0:0:0:
320,192,89461,1,0,0:0:0:0:
448,192,89461,1,0,0:0:0:0:
192,192,89621,1,0,0:0:0:0:
64,192,89781,1,2,0:0:0:0:
448,192,89781,128,0,89940:0:0:0:0:
320,192,89940,128,0,90100:0:0:0:0:
64,192,90100,128,8,90259:0:0:0:0:
192,192,90100,1,0,0:0:0:0:
448,192,90100,1,0,0:0:0:0:
192,192,90259,128,0,90419:0:0:0:0:
64,192,90419,1,2,0:0:0:0:
448,192,90419,128,0,90578:0:0:0:0:
320,192,90578,128,0,90738:0:0:0:0:
64,192,90738,128,8,90898:0:0:0:0:
192,192,90738,1,0,0:0:0:0:
448,192,90738,1,0,0:0:0:0:
192,192,90898,128,0,91057:0:0:0:0:
64,192,91057,1,2,0:0:0:0:
448,192,91057,128,0,91217:0:0:0:0:
320,192,91217,128,0,91376:0:0:0:0:
64,192,91376,1,8,0:0:0:0:
192,192,91376,1,0,0:0:0:0:
448,192,91376,1,0,0:0:0:0:
64,192,91536,128,0,91695:0:0:0:0:
192,192,91695,128,2,91855:0:0:0:0:
448,192,91695,1,0,0:0:0:0:
320,192,91855,128,0,92015:0:0:0:0:
64,192,92015,1,4,0:0:0:0:
192,192,92015,1,2,0:0:0:0:
448,192,92015,1,0,0:0:0:0:
320,192,92334,1,8,0:0:0:0:
448,192,92334,1,0,0:0:0:0:
64,192,92413,1,8,0:0:0:0:
192,192,92413,1,0,0:0:0:0:
320,192,92493,1,8,0:0:0:0:
448,192,92493,1,0,0:0:0:0:
64,192,92653,1,2,0:0:0:0:
192,192,92653,1,0,0:0:0:0:
320,192,92733,1,2,0:0:0:0:
64,192,92812,1,2,0:0:0:0:
448,192,92812,1,0,0:0:0:0:
192,192,92892,1,2,0:0:0:0:
64,192,92972,1,4,0:0:0:0:
320,192,92972,1,2,0:0:0:0:
448,192,92972,1,0,0:0:0:0:
192,192,93291,1,8,0:0:0:0:
320,192,93291,1,0,0:0:0:0:
448,192,93291,1,0,0:0:0:0:
64,192,93610,1,2,0:0:0:0:
192,192,93610,1,4,0:0:0:0:
320,192,93610,1,0,0:0:0:0:
64,192,93929,1,8,0:0:0:0:
192,192,93929,1,0,0:0:0:0:
448,192,93929,1,0,0:0:0:0:
64,192,94249,1,4,0:0:0:0:
320,192,94249,1,2,0:0:0:0:
448,192,94249,1,0,0:0:0:0:
64,192,94568,1,8,0:0:0:0:
192,192,94568,1,0,0:0:0:0:
448,192,94568,1,0,0:0:0:0:
192,192,94887,1,4,0:0:0:0:
320,192,94887,1,2,0:0:0:0:
448,192,94887,128,0,95046:0:0:0:0:
320,192,95046,128,0,95206:0:0:0:0:
64,192,95206,128,8,95366:0:0:0:0:
192,192,95206,1,0,0:0:0:0:
448,192,95206,1,0,0:0:0:0:
192,192,95366,128,0,95525:0:0:0:0:
64,192,95525,1,4,0:0:0:0:
320,192,95525,1,2,0:0:0:0:
448,192,95525,128,0,95685:0:0:0:0:
320,192,95685,128,0,95844:0:0:0:0:
64,192,95844,128,8,96004:0:0:0:0:
192,192,95844,1,0,0:0:0:0:
448,192,95844,1,0,0:0:0:0:
192,192,96004,128,0,96163:0:0:0:0:
64,192,96163,1,4,0:0:0:0:
320,192,96163,1,2,0:0:0:0:
448,192,96163,128,0,96323:0:0:0:0:
64,192,96323,128,0,96483:0:0:0:0:
192,192,96483,128,8,96642:0:0:0:0:
320,192,96483,1,0,0:0:0:0:
448,192,96483,1,0,0:0:0:0:
448,192,96642,128,0,96802:0:0:0:0:
64,192,96802,1,4,0:0:0:0:
192,192,96802,1,2,0:0:0:0:
320,192,96802,128,0,96961:0:0:0:0:
192,192,96961,128,0,97121:0:0:0:0:
64,192,97121,128,8,97440:0:0:0:0:
320,192,97121,1,0,0:0:0:0:
448,192,97121,1,0,0:0:0:0:
192,192,97440,1,4,0:0:0:0:
320,192,97440,1,2,0:0:0:0:
448,192,97440,1,0,0:0:0:0:
64,192,97759,1,8,0:0:0:0:
192,192,97759,128,0,98078:0:0:0:0:
448,192,97759,1,0,0:0:0:0:
64,192,98078,1,4,0:0:0:0:
320,192,98078,1,2,0:0:0:0:
448,192,98078,1,0,0:0:0:0:
320,192,98238,1,0,0:0:0:0:
64,192,98398,1,8,0:0:0:0:
192,192,98398,1,0,0:0:0:0:
448,192,98398,1,0,0:0:0:0:
320,192,98557,1,0,0:0:0:0:
64,192,98717,1,4,0:0:0:0:
320,192,98717,1,2,0:0:0:0:
448,192,98717,1,0,0:0:0:0:
192,192,98876,1,0,0:0:0:0:
64,192,99036,1,8,0:0:0:0:
320,192,99036,1,0,0:0:0:0:
448,192,99036,1,0,0:0:0:0:
320,192,99195,1,0,0:0:0:0:
64,192,99355,1,4,0:0:0:0:
192,192,99355,1,2,0:0:0:0:
448,192,99355,1,0,0:0:0:0:
192,192,99515,1,0,0:0:0:0:
64,192,99674,1,4,0:0:0:0:
320,192,99674,1,8,0:0:0:0:
448,192,99674,1,0,0:0:0:0:
320,192,99993,1,8,0:0:0:0:
448,192,99993,1,0,0:0:0:0:
64,192,100073,1,8,0:0:0:0:
192,192,100073,1,0,0:0:0:0:
320,192,100153,1,8,0:0:0:0:
448,192,100153,1,0,0:0:0:0:
64,192,100312,1,2,0:0:0:0:
192,192,100312,1,0,0:0:0:0:
320,192,100392,1,2,0:0:0:0:
64,192,100472,1,2,0:0:0:0:
448,192,100472,1,0,0:0:0:0:
192,192,100552,1,2,0:0:0:0:
64,192,100632,1,4,0:0:0:0:
320,192,100632,1,0,0:0:0:0:
448,192,100632,1,0,0:0:0:0:
