osu file format v13

[General]
AudioFilename: 12 Amakusa.mp3
AudioLeadIn: 0
PreviewTime: 52758
Countdown: 0
SampleSet: Soft
StackLeniency: 0.7
Mode: 0
LetterboxInBreaks: 1
WidescreenStoryboard: 0

[Editor]
DistanceSpacing: 1.2
BeatDivisor: 4
GridSize: 4
TimelineZoom: 3.299999

[Metadata]
Title:Amakusa
TitleUnicode:Amakusa
Artist:Silent Siren
ArtistUnicode:Silent Siren
Creator:CherryParfait
Version:Normal
Source:
Tags:Acoustic 10crystalmask01
BeatmapID:443367
BeatmapSetID:185453

[Difficulty]
HPDrainRate:4
CircleSize:3
OverallDifficulty:4
ApproachRate:5
SliderMultiplier:1.4
SliderTickRate:1

[Events]
//Background and Video events
0,0,"anime-girl-guitar.jpg",0,0
//Break Periods
//Storyboard Layer 0 (Background)
//Storyboard Layer 1 (Fail)
//Storyboard Layer 2 (Pass)
//Storyboard Layer 3 (Foreground)
//Storyboard Sound Samples
//Background Colour Transformations
3,100,163,162,255

[TimingPoints]
969,631.578947368421,4,2,0,40,1,0
162653,631.578947368421,4,2,0,40,1,0

[Colours]
Combo1 : 0,255,255
Combo2 : 255,0,128
Combo3 : 0,128,255
Combo4 : 255,128,192

[HitObjects]
204,104,969,6,0,L|352:164,1,140
320,240,1916,2,0,P|204:240|176:260,1,140
112,284,2863,1,0,0:0:0:0:
44,44,3495,6,0,L|208:32,1,140,0|0,0:0|0:0,0:0:0:0:
256,76,4442,2,0,P|268:143|241:206,1,140
196,280,5390,1,0,0:0:0:0:
60,184,6021,6,0,P|156:172|196:196,1,140
252,132,6969,2,0,L|360:43,1,140
444,44,7916,1,0,0:0:0:0:
336,172,8547,6,0,P|336:72|380:20,1,140,0|0,0:0|0:0,0:0:0:0:
272,28,9495,2,0,L|132:31,1,140
140,116,10442,1,0,0:0:0:0:
284,204,11074,6,0,B|124:212|124:212|120:212,1,140
80,56,12337,1,0,0:0:0:0:
248,52,12969,1,0,0:0:0:0:
416,56,13600,6,0,L|380:156,1,105
296,140,14390,2,0,L|226:140,1,70
348,308,16126,6,0,L|192:316,1,140
8,304,17390,1,0,0:0:0:0:
156,224,18021,1,0,0:0:0:0:
56,88,18653,2,0,P|144:92|212:116,1,140
356,68,19916,1,0,0:0:0:0:
464,196,20547,1,0,0:0:0:0:
344,268,21179,6,0,P|232:280|192:256,1,140
48,232,22442,1,0,0:0:0:0:
200,156,23074,1,0,0:0:0:0:
368,164,23705,2,0,L|438:164,1,70
456,80,24337,2,0,L|368:84,1,70
304,76,24968,5,0,0:0:0:0:
136,60,25600,1,0,0:0:0:0:
28,188,26232,1,0,0:0:0:0:
84,344,26863,1,0,0:0:0:0:
164,196,27495,6,0,P|197:136|263:117,1,140
424,64,28758,1,0,0:0:0:0:
432,232,29390,1,0,0:0:0:0:
308,340,30021,2,0,L|168:284,1,140
48,180,31284,1,0,0:0:0:0:
176,72,31916,6,0,L|320:68,1,140
400,52,32863,1,0,0:0:0:0:
448,120,33179,2,0,L|472:204,1,70
472,272,33811,1,0,0:0:0:0:
408,328,34126,1,0,0:0:0:0:
240,324,34758,1,0,0:0:0:0:
52,156,35705,5,0,0:0:0:0:
192,64,36337,1,0,0:0:0:0:
352,116,36969,6,0,L|244:208,1,140
180,260,37916,1,0,0:0:0:0:
116,316,38232,1,0,0:0:0:0:
196,348,38547,1,0,0:0:0:0:
280,340,38863,2,0,L|340:288,1,70
388,228,39495,1,0,0:0:0:0:
432,156,39811,2,0,L|292:84,1,140
232,52,40758,1,0,0:0:0:0:
64,76,41390,1,0,0:0:0:0:
72,244,42021,5,0,0:0:0:0:
192,280,42495,2,0,L|288:344,1,105,0|0,0:0|0:0,0:0:0:0:
352,320,43284,2,0,L|416:280,1,70
440,204,43916,2,0,L|420:128,1,70
340,136,44547,2,0,L|260:136,1,70
132,40,45495,1,0,0:0:0:0:
60,192,46126,5,0,0:0:0:0:
228,168,46758,2,0,L|352:248,1,140
104,308,48337,6,0,L|88:240,1,70
72,156,48969,2,0,L|140:120,1,70
208,84,49600,2,0,L|276:156,1,70
256,192,50232,12,0,52758,0:0:0:0:
52,44,53390,5,0,0:0:0:0:
208,108,54021,6,0,P|424:164|456:344,1,420
376,336,56232,2,0,L|308:336,1,35,0|0,0:0|0:0,0:0:0:0:
116,144,57495,6,0,P|212:144|396:164,1,280
448,100,59074,6,0,L|396:48,2,70,0|0|0,0:0|0:0|0:0,0:0:0:0:
460,268,60337,6,0,L|393:288,1,70
308,288,60969,2,0,L|238:284,1,70
172,336,61600,1,0,0:0:0:0:
100,288,61916,2,0,L|64:216,2,70,0|0|0,0:0|0:0|0:0,0:0:0:0:
48,40,63495,1,0,0:0:0:0:
200,72,64126,6,0,P|248:212|492:320,1,420
460,240,66337,6,0,L|452:176,1,35
208,44,67600,6,0,L|112:152,1,140
68,220,68547,2,0,L|136:272,1,70
164,336,69179,2,0,L|233:332,1,70
320,332,69811,2,0,L|380:256,1,70
448,280,70442,1,0,0:0:0:0:
464,196,70758,2,0,L|476:124,2,70,0|0|0,0:0|0:0|0:0,0:0:0:0:
392,152,71705,1,0,0:0:0:0:
256,56,72337,1,0,0:0:0:0:
92,100,72969,1,0,0:0:0:0:
92,268,73600,1,0,0:0:0:0:
256,296,74232,1,0,0:0:0:0:
124,192,74863,5,0,0:0:0:0:
240,72,75495,1,0,0:0:0:0:
408,84,76126,6,0,L|392:168,1,70
364,232,76758,1,0,0:0:0:0:
244,116,77390,1,0,0:0:0:0:
88,56,78021,6,0,L|40:120,1,70
36,196,78653,2,0,L|104:256,1,70
232,328,79600,1,0,0:0:0:0:
392,272,80232,6,0,L|464:152,1,140
420,80,81179,2,0,L|340:80,1,70
268,100,81811,1,0,0:0:0:0:
188,72,82126,1,0,0:0:0:0:
108,48,82442,1,0,0:0:0:0:
68,148,82758,6,0,L|56:288,1,140
132,320,83705,2,0,L|276:336,1,140
440,324,84969,1,0,0:0:0:0:
364,284,85284,6,0,L|312:152,1,140
248,100,86232,1,0,0:0:0:0:
164,88,86547,2,0,L|104:96,1,35
72,296,87495,1,0,0:0:0:0:
240,312,88126,1,0,0:0:0:0:
408,316,88758,1,0,0:0:0:0:
404,232,89074,6,0,P|445:177|456:96,1,140
304,40,90337,1,0,0:0:0:0:
136,36,90969,6,0,L|52:36,2,70,0|0|0,0:0|0:0|0:0,0:0:0:0:
168,120,91916,1,0,0:0:0:0:
100,168,92232,1,0,0:0:0:0:
68,244,92547,1,0,0:0:0:0:
60,328,92863,1,0,0:0:0:0:
228,332,93495,2,0,L|308:332,2,70,0|0|0,0:0|0:0|0:0,0:0:0:0:
232,248,94442,1,0,0:0:0:0:
252,80,95074,5,0,0:0:0:0:
420,80,95705,1,0,0:0:0:0:
404,248,96337,1,0,0:0:0:0:
236,232,96969,1,0,0:0:0:0:
88,156,97600,1,0,0:0:0:0:
120,76,97916,2,0,L|48:56,2,70,0|0|0,0:0|0:0|0:0,0:0:0:0:
256,192,99179,12,0,103284,0:0:0:0:
68,52,103916,5,0,0:0:0:0:
436,96,104547,6,0,P|204:88|104:252,1,420
176,276,106758,2,0,L|228:276,1,35
436,208,108021,6,0,P|360:104|212:48,1,280
140,72,109600,2,0,L|76:40,2,70,0|0|0,0:0|0:0|0:0,0:0:0:0:
64,224,110863,2,0,L|64:316,1,70
148,292,111495,2,0,L|212:332,1,70
292,332,112126,1,0,0:0:0:0:
372,312,112442,2,0,L|448:272,2,70,0|0|0,0:0|0:0|0:0,0:0:0:0:
340,232,113390,1,0,0:0:0:0:
472,128,114021,1,0,0:0:0:0:
404,88,114653,6,0,P|160:88|68:220,1,420
88,300,116863,2,0,L|144:300,1,35
332,328,117811,1,0,0:0:0:0:
416,328,118126,6,0,P|412:144|340:80,1,280
268,64,119705,2,0,L|188:64,2,70,0|0|0,0:0|0:0|0:0,0:0:0:0:
276,148,120653,1,0,0:0:0:0:
112,156,121284,2,0,L|44:208,1,70
84,280,121916,1,0,0:0:0:0:
336,296,122863,5,0,0:0:0:0:
400,240,123179,2,0,L|428:92,1,140
348,72,124126,1,0,0:0:0:0:
264,68,124442,2,0,P|80:132|224:328,1,490
284,332,126969,1,0,0:0:0:0:
368,316,127284,1,0,0:0:0:0:
432,72,128232,6,0,P|240:100|152:148,1,280
108,200,129811,2,0,L|72:268,1,70
116,336,130442,1,0,0:0:0:0:
280,308,131074,2,0,L|356:288,1,70
396,224,131705,2,0,L|352:144,1,70
308,96,132337,1,0,0:0:0:0:
224,100,132653,6,0,L|144:104,2,70,0|0|0,0:0|0:0|0:0,0:0:0:0:
196,180,133600,1,0,0:0:0:0:
300,312,134232,1,0,0:0:0:0:
396,192,134863,2,0,P|272:84|36:152,1,420
76,220,137074,1,0,0:0:0:0:
112,296,137390,2,0,L|260:320,1,140
332,340,138337,5,0,0:0:0:0:
400,188,138968,2,0,L|432:116,1,70
416,40,139600,1,0,0:0:0:0:
332,44,139916,2,0,L|244:44,1,70
112,120,140863,5,0,0:0:0:0:
100,204,141179,2,0,L|96:280,1,70
164,324,141811,2,0,L|240:328,1,70
316,332,142442,1,0,0:0:0:0:
412,192,143074,5,0,0:0:0:0:
276,96,143705,1,0,0:0:0:0:
120,160,144337,1,0,0:0:0:0:
200,308,144968,2,0,L|356:276,1,140
432,144,146232,2,0,L|364:84,1,70
296,80,146863,1,0,0:0:0:0:
132,116,147495,1,0,0:0:0:0:
308,300,148442,5,0,0:0:0:0:
368,240,148758,2,0,L|464:124,1,140
296,88,150021,1,0,0:0:0:0:
148,168,150653,2,0,P|260:304|388:328,1,280
416,172,152547,5,0,0:0:0:0:
260,104,153179,2,0,P|76:64|16:144,1,280
88,272,155074,5,0,0:0:0:0:
248,316,155705,1,0,0:0:0:0:
416,308,156337,1,0,0:0:0:0:
316,172,156968,1,0,0:0:0:0:
256,192,157600,12,0,161390,0:0:0:0:
