osu file format v5

[General]
AudioFilename: palladio.ogg
AudioLeadIn: 3000
PreviewTime: -1
Countdown: 1
SampleSet: Soft
StackLeniency: 0.7
Mode: 0
LetterboxInBreaks: 0
EditorBookmarks: -26,185,3354,13495,27016,40537,54058,62931,67579,74339,87860,96311,104761

[Metadata]
Title:Palladio
Artist:Silent Nick
Creator:dfmchfhf
Version:Silver v2
Source:StepMania
Tags:

[Difficulty]
HPDrainRate:3
CircleSize:4
OverallDifficulty:4
SliderMultiplier:1.7
SliderTickRate:2

[Events]
//Background and Video events
0,0,"palladio-bg.png"
//Break Periods
//Storyboard Layer 0 (Background)
//Storyboard Layer 1 (Failing)
//Storyboard Layer 2 (Passing)
//Storyboard Layer 3 (Foreground)
//Storyboard Sound Samples
//Background Colour Transformations
3,100,163,162,255

[TimingPoints]
-26,422.5317,4,2,0,100,1

[Colours]
Combo1 : 255,128,0
Combo2 : 255,255,0

[HitObjects]
96,96,26,1,4
128,96,396,2,2,B|176:96|224:96,1,85
256,96,819,1,0
288,96,1241,2,2,B|336:96|384:96,1,85
416,96,1664,1,0
368,128,2086,2,2,B|336:144|272:176,1,85
256,192,2509,1,0
208,224,2931,2,2,B|176:240|112:272,1,85
96,288,3354,5,4
128,288,3724,2,2,B|176:288|224:288,1,85
256,288,4147,1,0
288,288,4621,2,2,B|336:288|384:288,1,85
416,288,4992,1,0
368,256,5414,2,2,B|336:240|272:208,1,85
256,192,5837,1,0
208,160,6259,2,2,B|176:144|112:112,1,85
128,192,6734,6,4,B|256:64|384:192|272:320|256:320|256:240,1,340,4|0
256,192,8002,1,2
384,192,8424,2,0,B|256:320|128:192|240:64|256:64|256:144,1,340,2|0
256,192,9692,1,2
256,320,10114,6,0,B|384:192|256:64|128:176|128:192|208:192,1,340,2|0
256,192,11382,1,2
256,64,11804,2,0,B|128:192|256:320|384:208|384:192|304:192,1,340,2|0
256,192,13072,1,2
256,192,13283,1,0
256,192,13495,6,0,B|384:64,2,170,4|0|4
256,224,14762,1,2
256,256,15185,2,0,B|160:256,2,85,0|0|2
256,288,16030,1,4
256,240,16452,1,2
256,240,16664,1,2
256,192,16875,6,0,B|128:320,2,170,4|0|4
256,160,18142,1,2
256,128,18565,2,0,B|352:128,2,85,0|0|2
256,96,19410,1,4
256,144,19832,1,2
256,144,20044,1,2
256,192,20255,1,4
304,224,20678,5,2
352,272,21100,2,6,L|320:352|288:272,1,170,6|2
224,272,21945,2,0,L|160:336,2,85
224,160,22790,1,4
352,240,23847,6,2,B|352:144,2,85,2|0|2
352,240,24480,2,2,B|256:240,3,85,2|2|2|0
267,240,25325,2,0,L|288:144,1,85,2|0
285,156,25748,1,4
272,48,26170,2,0,L|208:144,1,85,2|0
224,118,26593,1,4
192,192,27227,6,0,L|131:131,2,85
224,208,27861,1,4
302,195,28494,2,2,B|368:112,3,85,2|4|4|4
354,128,29551,1,4
368,192,30396,6,4,L|320:256|256:192|192:256|144:192,4,340
384,256,34199,6,0,L|256:192,1,85
240,192,34621,1,4
240,192,35044,1,0
144,144,35466,2,4,L|144:240,3,85,4|0|4|0
112,213,36311,2,4,L|112:128,2,85,4|6|4
208,144,37156,5,0
256,144,37368,2,2,L|256:240,2,85,2|4|0
288,224,38001,2,2,B|432:224|256:304|448:288,2,170
288,256,39269,1,4
256,256,39691,1,4
256,224,40114,1,2
256,192,40537,1,4
256,192,40959,6,2,L|256:96,1,85
341,192,41593,2,2,L|256:192,2,85
256,277,42438,2,2,L|256:192,2,85
171,192,43283,2,2,L|256:192,2,85
256,192,44128,6,2,L|256:288,2,85,6|2|2
256,192,44973,2,2,L|352:192,1,85
336,128,45607,2,0,L|240:128,1,85,4|0
256,128,46029,1,0
176,128,46452,1,0
96,128,46875,1,4
192,80,47508,6,4,L|240:144|304:80,1,170
352,128,48353,2,2,L|272:160|192:128,1,170,2|6
272,144,49198,2,0,L|192:176|112:144,1,170
192,144,50044,2,0,L|112:176|32:144,1,170,0|4
96,208,50889,6,2,L|176:240|256:208,1,170
176,208,51734,2,2,L|256:240|336:208,1,170
256,208,52579,2,2,L|336:240|416:208,1,170
256,208,53424,2,2,L|336:240|416:208,1,170
368,288,54058,5,4
368,288,54480,2,0,B|368:256|352:240|304:256,1,85,0|2
304,256,54903,1,4
304,256,55325,2,0,B|304:224|288:208|240:224,1,85,0|2
240,224,55748,1,4
240,224,56170,2,0,B|240:192|224:176|176:192,1,85,0|2
176,192,56593,1,4
176,192,57015,2,0,B|240:272,1,85,0|2
224,256,57438,6,4,L|128:256,1,85
176,288,57860,1,0
272,224,58283,2,4,L|368:224,1,85
320,256,58705,1,0
224,192,59128,2,4,L|128:192,1,85
176,224,59550,1,0
272,160,59973,2,4,L|368:160,1,85
320,192,60396,1,0
224,272,60818,6,0,B|128:272,1,85,4|2
144,288,61241,2,0,B|80:304|64:256,1,85,0|4
48,240,61663,2,0,B|144:240,1,85,4|2
128,256,62086,2,0,B|192:272|208:224,1,85,0|4
224,208,62508,2,0,B|128:208,1,85,4|2
144,224,62931,2,0,B|80:240|64:192,1,85,0|4
48,176,63353,2,0,B|144:176,1,85,4|2
128,192,63776,2,0,B|192:208|208:160,1,85,0|4
256,128,64198,5,4
320,192,64621,1,4
256,256,65043,1,4
192,192,65466,1,4
256,192,65889,2,4,B|256:176|272:144|310:138|338:146|353:180|346:228|316:254|285:272|268:280|243:279|123:292|168:211|169:180|171:136|188:88|196:36|250:5|388:37|448:64,1,680
400,112,67790,5,0
400,144,68001,1,2
400,192,68424,2,0,B|432:224|384:272,1,85
389,266,68846,1,2
389,266,69269,2,0,B|358:298|310:250,1,85
314,254,69691,1,2
314,254,70114,2,0,B|283:220|332:172,1,85
325,178,70536,1,2
325,178,70959,6,0,B|292:147|244:194,1,85,4|0
249,188,71381,1,2
249,188,71804,2,0,B|219:219|267:265,1,85
263,261,72226,1,2
263,261,72438,1,2
263,261,72649,2,0,B|295:293|342:244,1,85
337,249,73071,1,2
328,208,73283,1,0
320,175,73494,2,4,B|363:218|331:250,3,85
256,192,74339,6,0,B|268:97|383:92|428:205|374:348|266:368|16:336,1,595,4|2
64,288,76029,2,0,B|80:128|176:320|272:288|352:192|416:64|400:32|480:16|496:48|496:176,1,595,4|2
448,160,77719,2,0,B|496:256|512:256|512:320|192:149|128:32|48:32|48:48|96:176,1,595,4|2
31,46,79409,2,0,B|266:16|374:36|428:179|383:292|268:287|256:192,1,595,4|2
304,192,81100,6,0,L|264:176|224:192|184:176|168:216|184:256|168:296|184:336|224:320|264:336|304:320|344:336|360:296|344:256|360:216|344:176,1,637.5,4|2
347,199,82790,2,0,L|360:168|344:128|360:88|344:48|304:64|264:48|224:64|184:48|168:88|184:128|168:168|184:208|224:192|264:208|304:192,1,637.5,4|2
256,192,84480,2,0,L|272:232|288:192|304:232,1,127.5,4|2
256,192,84902,2,4,L|240:152|224:192|208:152,1,127.5,4|2
256,192,85325,1,4
256,192,85747,1,4
256,192,86170,5,4
256,192,86223,12,4,86592
256,192,86592,12,4,87015
256,192,87015,12,4,87438
256,192,87438,12,4,87860
256,192,88283,6,0,B|256:96,1,85
240,112,88705,1,4
240,112,89128,2,0,B|176:176,1,85
180,172,89550,1,4
171,192,89973,2,0,B|256:192,1,85
256,192,90395,1,4
256,192,90818,2,0,B|256:288,1,85
272,272,91240,1,4
272,272,91663,2,0,B|336:208,1,85
332,211,92085,1,4
341,192,92508,2,0,B|256:192,1,85
256,192,92930,1,4
256,96,93353,1,4
160,192,93776,1,4
256,288,94198,1,4
352,192,94621,1,4
256,192,94673,12,6,96311
