osu file format v5

[General]
AudioFilename: Silbermond - Irgendwas bleibt.mp3
AudioLeadIn: 0
PreviewTime: 149850
Countdown: 0
SampleSet: Soft
StackLeniency: 0.4
Mode: 0
LetterboxInBreaks: 1

[Metadata]
Title:Irgendwas bleibt
Artist:Silbermond
Creator:Nharox
Version:Normal
Source:
Tags:

[Difficulty]
HPDrainRate:5
CircleSize:3
OverallDifficulty:4
SliderMultiplier:1.6
SliderTickRate:2

[Events]
//Background and Video events
0,0,"silbermond.jpg"
//Break Periods
2,113543,121141
2,136484,142612
//Storyboard Layer 0 (Background)
//Storyboard Layer 1 (Failing)
//Storyboard Layer 2 (Passing)
//Storyboard Layer 3 (Foreground)
//Storyboard Sound Samples
//Background Colour Transformations
3,100,163,162,255

[TimingPoints]
5815,600.000000000001,4,1,0,40,1
25010,600.000000000001,4,1,0,40,1
25200,-100,4,2,0,82,0
34603,600.000000000001,4,2,0,82,1
42000,-100,4,1,0,50,0
43650,-100,4,2,0,82,0
43790,600.000000000001,4,2,0,100,1
44342,600.000000000001,4,2,0,100,1
57542,-100,4,2,0,70,0
58742,-100,4,2,0,100,0
60980,-100,4,2,0,0,0
62495,600.000000000001,4,2,0,100,1
63729,600.000000000001,4,2,0,100,1
84729,-100,4,2,0,70,0
84879,-100,4,2,0,100,0
100035,-100,4,2,0,52,0
104400,-100,4,1,0,40,0
104545,588.240000000002,4,1,0,42,1
122250,-100,4,2,0,100,0
126600,-100,4,2,0,0,0
127050,-100,4,2,0,100,0
131450,-100,4,1,0,70,0
146873,-100,4,1,0,50,0
149373,-100,4,1,0,70,0
149545,588.240000000002,4,1,0,100,1
170417,600.010000000003,4,1,0,100,1
170550,-100,4,2,0,82,0
187350,-200,4,2,0,50,0
191850,-100,4,2,0,0,0

[Colours]
Combo1 : 255,255,255
Combo2 : 128,0,0
Combo3 : 128,0,128

[HitObjects]
256,160,25010,5,4
192,160,25310,6,0,B|96:160,2,80
256,160,26210,1,0
320,160,26510,2,0,B|416:160,2,80
320,224,27410,2,2,B|252:320|166:197,3,160,2|2|2|0
160,64,30110,5,0
224,64,30410,1,0
288,64,30710,1,0
352,64,31010,1,0
320,128,31310,1,0
256,128,31610,1,0
192,128,31910,1,0
192,192,32210,2,2,B|256:288|318:188,3,160,2|2|2|0
192,352,34903,6,0,B|256:192,1,160
251,203,35803,1,0
252,203,36103,2,0,B|316:363,1,160
256,352,37003,1,0
256,288,37303,1,0
256,224,37603,1,0
256,160,37903,1,0
256,32,38503,1,2
128,320,39103,6,0,B|128:224,1,80
192,192,39703,2,0,B|192:288,1,80
256,320,40303,2,0,B|256:224,1,80
320,192,40903,2,0,B|320:288,1,80
384,320,41503,2,0,B|384:224,1,80
320,192,42103,5,0
256,192,42403,1,0
192,192,42703,2,0,B|128:192,4,40
256,32,43790,5,0
256,96,44090,1,0
256,160,44342,2,0,B|256:256,2,80
256,96,45242,1,0
192,96,45542,2,0,B|96:96,2,80
256,96,46442,1,0
320,96,46742,2,0,B|416:96,2,80
256,96,47642,1,0
48,192,48542,5,0
112,192,48842,2,0,B|208:192,3,80
256,192,50042,1,0
320,192,50342,2,0,B|416:192,3,80
464,192,51542,1,0
203,295,52142,6,2,B|256:352|256:352|320:288,3,160
256,256,54242,5,0
320,224,54542,1,0
256,192,54842,1,0
192,160,55142,1,0
256,128,55442,1,0
320,96,55742,1,0
256,64,56042,1,0
192,96,56342,2,2,B|193:22|257:-42|321:22|320:109,1,240
192,256,57842,5,4
256,256,58142,1,4
320,256,58442,1,4
160,96,59642,5,0
160,96,59942,2,0,B|185:71|185:71|217:103|217:103|249:71|249:71|281:103|281:103|313:71|313:71|343:106,2,240
256,352,62495,6,0,B|256:256,3,80
192,176,63729,1,0
256,176,64029,1,0
320,176,64329,1,0
296,240,64629,2,0,B|200:240,2,80
336,304,65529,2,2,B|144:304,1,160
256,32,67029,5,0
200,32,67329,2,0,B|264:96,1,80
256,88,67929,2,0,B|320:24,1,80
352,96,68529,1,0
288,128,68829,1,0
224,128,69129,1,0
160,96,69429,1,0
224,128,69729,1,0
288,128,70029,1,0
336,192,70329,2,2,B|144:192,2,160
160,256,72129,5,0
192,320,72429,1,0
224,256,72729,1,0
256,320,73029,1,0
288,256,73329,1,0
320,320,73629,1,0
352,256,73929,1,0
320,192,74229,2,2,B|256:89|193:191|193:191,1,160
194,188,75129,1,2
194,188,75429,1,2
320,32,76329,5,0
192,32,76929,1,0
199,128,77379,2,0,B|327:128,1,120
384,160,78129,6,0,B|384:352,2,160
128,160,79929,2,0,B|128:352,2,160
128,96,81429,1,0
194,89,81729,6,0,B|128:0|64:96,2,160
160,160,83229,1,0
224,160,83529,1,0
288,160,83829,1,0
352,160,84129,1,0
384,96,84429,1,0
318,89,84729,2,0,B|384:0|448:96,1,160,4|0
256,320,86229,5,0
256,320,86529,1,0
256,192,87129,1,0
256,64,87729,1,0
224,128,88029,1,0
288,128,88329,1,0
320,192,88629,1,0
256,192,88929,1,0
192,192,89229,1,0
192,192,89529,1,2
256,288,90129,5,2
320,192,90729,1,2
192,96,91329,6,2,B|192:59|192:27|224:-5|256:-5|288:-5|320:27|320:59|320:123,1,240
320,160,92529,1,0
256,160,92829,1,0
192,160,93129,1,0
224,224,93429,2,2,B|255:251|255:251|287:219,4,80
192,352,96129,5,0
256,320,96429,1,0
320,352,96729,1,0
256,192,96879,12,0,98529
256,192,99129,5,2
256,192,99429,1,2
320,32,100329,5,0
256,64,100629,1,0
192,32,100929,1,0
256,288,101829,1,0
96,192,102729,1,0
160,192,103029,1,0
416,192,103929,1,2
352,192,104229,1,0
352,128,104545,5,0
160,128,105133,1,0
162,192,105427,2,0,B|252:343|374:162,1,240
256,64,106897,5,0
256,320,107780,1,0
256,160,108368,2,0,B|256:224,2,40
160,256,109250,5,0
352,256,109839,1,0
352,192,110133,2,0,B|261:44|140:220,1,240
256,320,111603,5,0
256,64,112486,1,0
256,224,113074,2,0,B|256:160,2,40
128,128,122486,6,0,B|128:224,1,80
192,224,123074,1,0
192,224,123368,1,4
256,224,123662,1,0
320,224,123956,1,0
320,224,124251,1,0
384,208,124545,2,2,B|384:112,1,80
256,192,124986,12,0,126751
256,64,127192,5,2
256,64,127486,1,2
256,128,127780,2,0,B|256:224,3,80
256,272,128956,1,0
256,272,129251,1,0
256,272,129545,1,2
256,272,129839,1,2
256,272,130133,1,2
224,64,131015,5,4
288,64,131309,1,4
256,160,131604,6,0,B|256:224,8,40,0|0|0|0|0|0|0|0|4
256,320,133368,1,0
256,192,133956,1,0
256,64,134545,5,0
256,64,134839,2,0,C|229:94|261:126|229:158|261:190|229:222|261:254|229:286|261:318|229:350,1,400
160,224,143957,5,0
160,224,144251,1,0
256,96,145133,5,0
256,96,145427,1,0
352,224,146310,5,0
352,224,146604,1,0
256,96,147192,5,0
256,160,147486,1,0
128,224,148074,1,0
192,224,148368,1,0
384,224,148957,1,0
320,224,149251,1,0
256,160,149545,6,0,C|256:96,12,40,0|0|0|0|0|0|0|0|0|0|0|0|0
256,224,151603,5,0
320,256,151897,1,0
320,320,152192,1,0
256,352,152486,1,0
192,320,152780,1,0
192,256,153074,2,0,B|192:160,1,80
224,128,153662,1,0
288,128,153956,1,0
320,176,154250,2,8,B|320:272,1,80
256,256,154839,5,0
192,256,155133,1,0
192,128,155721,1,0
320,128,156309,1,0
320,64,156603,1,0
256,64,156897,1,0
192,64,157192,1,0
192,128,157486,1,0
192,192,157780,1,0
192,192,158074,2,0,B|248:250|248:250|312:186,1,160
304,193,158956,1,8
304,193,159250,1,8
192,64,159839,5,0
320,64,160427,1,0
352,192,161015,1,0
288,192,161309,1,0
224,192,161603,1,0
160,192,161898,2,0,B|253:341|372:161,2,240
224,192,163956,5,0
288,192,164250,1,0
256,128,164545,1,0
214,24,164986,2,0,B|256:64|256:64|320:0|320:0,1,120
288,96,165721,6,0,B|352:160|352:256|288:320,1,240,4|0
216,312,166898,2,0,B|152:248|152:152|216:88,1,240,4|0
224,192,168221,6,0,C|160:192,2,40
288,192,168809,2,0,C|352:192,2,40
256,96,169398,2,0,C|256:160,7,40,0|0|0|0|0|0|0|4
256,192,170717,5,0
256,192,171017,1,0
256,256,171317,1,0
256,256,171617,1,0
256,320,171917,1,0
256,320,172217,1,2
256,192,172817,5,2
256,64,173417,1,2
256,128,173717,5,0
288,192,174017,1,0
288,192,174317,1,0
224,192,174617,1,0
224,192,174917,1,0
160,224,175217,5,0
160,288,175517,1,0
219,328,175817,2,0,B|315:328,1,80
352,288,176417,1,0
352,224,176717,1,0
352,224,177017,1,2
256,128,177617,5,2
160,224,178217,1,2
160,96,178817,5,0
256,192,179417,1,0
352,96,180017,1,0
256,192,180617,1,0
320,192,180917,2,2,B|256:288|192:192,1,160
160,128,181817,1,2
160,128,182117,2,2,B|254:0|384:160,1,240
256,320,183617,6,0,B|256:224,3,80
320,256,184817,1,0
320,192,185117,1,0
256,160,185417,1,0
192,192,185717,1,0
192,256,186017,1,0
256,288,186317,1,0
256,224,186617,1,2
256,160,186917,1,2
304,320,187817,5,0
304,320,188117,1,0
304,320,188417,2,0,B|261:389|199:309,1,120,2|0
256,192,189467,12,0,191867
