osu file format v5

[General]
AudioFilename: Silbermond - Irgendwas bleibt.mp3
AudioLeadIn: 0
PreviewTime: 149850
Countdown: 0
SampleSet: Normal
StackLeniency: 0.4
Mode: 0
LetterboxInBreaks: 1

[Metadata]
Title:Irgendwas bleibt
Artist:Silbermond
Creator:Nharox
Version:Hard
Source:
Tags:

[Difficulty]
HPDrainRate:7
CircleSize:4
OverallDifficulty:6
SliderMultiplier:2
SliderTickRate:2

[Events]
//Background and Video events
0,0,"silbermond.jpg"
//Break Periods
2,113550,121550
//Storyboard Layer 0 (Background)
//Storyboard Layer 1 (Failing)
//Storyboard Layer 2 (Passing)
//Storyboard Layer 3 (Foreground)
//Storyboard Sound Samples
//Background Colour Transformations
3,100,163,162,255

[TimingPoints]
5815,600.000000000001,4,1,0,40,1
25010,600.000000000001,4,1,0,40,1
25200,-100,4,2,0,82,0
34603,600.000000000001,4,2,0,100,1
41850,-100,4,2,0,60,0
42000,-100,4,1,0,50,0
43650,-100,4,2,0,82,0
43790,600.000000000001,4,2,0,100,1
44342,600.000000000001,4,2,0,100,1
51530,-100,4,2,0,59,0
51830,-100,4,2,0,100,0
57530,-100,4,2,0,70,0
58730,-100,4,2,0,100,0
60980,-100,4,2,0,0,0
62495,600.000000000001,4,2,0,100,1
63729,600.000000000001,4,2,0,100,1
84735,-100,4,2,0,60,0
84885,-100,4,2,0,100,0
89535,-100,4,2,0,60,0
89685,-100,4,2,0,100,0
98235,1200,4,2,0,40,1
98250,-200,4,2,0,82,0
99150,-50,4,2,0,82,0
100035,-100,4,2,0,52,0
104400,-100,4,1,0,40,0
104545,588.240000000002,4,1,0,42,1
122250,-100,4,2,0,100,0
126600,-100,4,2,0,0,0
127050,-100,4,2,0,100,0
128931,-200,4,2,0,100,0
129650,-100,4,2,0,82,0
131450,-100,4,1,0,70,0
147461,-200,4,1,0,50,0
149373,-100,4,1,0,70,0
149545,588.24,4,1,0,80,1
151456,-100,4,1,0,100,0
170417,600.010000000003,4,1,0,100,1
170550,-100,4,2,0,82,0
185700,-200,4,2,0,82,0
187350,-200,4,2,0,50,0
191850,-100,4,2,0,0,0

[Colours]
Combo1 : 255,255,255
Combo2 : 128,0,0
Combo3 : 128,0,128

[HitObjects]
256,96,5815,1,0
352,192,6415,1,0
256,288,7015,1,0
160,192,7465,1,0
160,192,7615,1,0
448,192,8215,5,0
320,192,8815,1,0
192,192,9415,1,0
64,192,9715,1,0
64,192,9865,1,0
64,192,10015,1,0
64,192,10165,1,0
64,192,10315,1,0
128,320,10615,5,0
384,320,11215,1,0
384,64,11815,1,0
128,64,12265,1,0
128,64,12415,1,0
256,336,13015,5,0
256,240,13615,1,0
256,144,14215,1,0
256,48,14515,1,0
256,48,14665,1,0
256,48,14815,1,0
256,48,14965,1,0
256,48,15115,1,0
95,160,15415,5,0
95,256,15715,1,0
191,256,16015,1,0
196,160,16315,2,0,B|68:160,1,100
96,160,17065,1,0
96,160,17215,1,0
416,160,17815,5,0
416,256,18115,2,0,B|288:256,1,100
315,160,18715,2,0,B|443:160,1,100
415,160,19315,1,0
415,160,19465,1,0
415,160,19615,1,0
415,160,19765,1,0
415,160,19915,1,0
256,128,20215,5,0
193,229,20515,1,0
321,229,20815,1,0
256,128,21115,2,0,B|256:256,1,100
256,226,21865,1,0
256,226,22015,1,0
128,320,22615,5,0
416,320,23215,1,0
256,64,23815,1,0
256,64,24115,1,0
256,64,24265,1,0
256,64,24415,1,0
256,64,24565,1,0
256,64,24715,1,0
256,192,25010,5,4
192,128,25310,5,0
128,192,25610,1,0
192,256,25910,1,0
256,192,26210,1,0
320,128,26510,1,0
384,192,26810,1,0
320,256,27110,1,0
416,288,27410,2,0,B|480:192|416:96,1,200,2|2
256,192,28310,1,2
96,96,28610,2,2,B|32:192|96:288,1,200,2|2
256,192,29810,5,2
448,288,30110,5,0
384,352,30410,1,0
320,288,30710,1,0
256,352,31010,1,0
192,288,31310,1,0
128,352,31610,1,0
64,288,31910,1,0
192,288,32210,2,2,B|259:141|325:296,1,200
256,352,33110,5,0
128,128,34010,1,0
384,128,34603,1,2
320,224,34903,5,0
384,288,35203,1,0
320,352,35503,1,0
256,288,35803,1,0
192,352,36103,1,0
128,288,36403,1,0
192,224,36703,1,0
256,160,37003,2,2,B|256:32,1,100
256,60,37603,1,2
256,160,37903,2,2,B|256:384,1,200,2|0
192,256,39103,6,2,B|192:288|160:288|160:256|160:224|199:232,1,100,2|0
192,128,39703,1,0
256,64,40003,1,0
320,128,40303,1,0
256,192,40603,1,0
192,256,40903,1,0
256,320,41203,1,0
320,256,41503,2,0,B|320:288|352:288|352:256|352:224|313:232,1,100,0|4
256,128,42103,5,0
256,128,42403,1,0
256,256,42703,1,0
256,256,42853,1,0
256,256,43003,1,0
256,256,43153,1,0
256,256,43303,1,0
64,64,43790,5,0
160,64,44090,1,0
256,64,44342,1,0
160,64,44642,1,0
256,64,44942,1,0
352,64,45242,1,0
256,64,45542,1,0
352,64,45842,1,0
448,64,46142,1,0
352,64,46442,1,0
256,64,46742,1,2
160,64,47042,1,2
64,64,47342,1,2
160,64,47642,1,2
256,352,48542,5,0
192,288,48842,1,0
256,224,49142,1,0
320,160,49442,1,0
256,96,49742,1,0
192,32,50042,1,0
256,96,50342,1,0
320,160,50642,1,0
256,224,50942,1,0
192,288,51242,1,0
256,352,51542,1,4
128,192,52142,5,2
256,64,52742,1,2
384,192,53342,1,2
256,320,53942,1,2
256,192,54242,5,0
256,92,54542,1,0
352,160,54842,1,0
352,256,55142,1,0
256,292,55442,1,0
160,256,55742,1,0
160,160,56042,1,0
256,192,56342,2,2,B|256:64,1,100
256,192,56942,2,2,B|256:320,1,100
64,192,57842,5,4
256,192,58142,1,4
448,192,58442,1,4
128,96,59642,5,0
128,96,59942,2,0,B|256:-11|411:100,2,300
152,320,62495,6,0,B|288:352,1,100
347,319,63095,2,0,B|219:351,1,100
192,240,63729,1,0
256,176,64029,1,0
320,240,64329,1,0
256,176,64629,1,0
192,112,64929,1,0
256,176,65229,1,0
329,111,65529,2,0,B|341:69|256:28|166:68|194:117,1,200
256,320,66729,5,0
256,320,67029,5,0
192,256,67329,2,0,B|224:160,1,100
320,256,67929,2,0,B|288:160,1,100
256,256,68529,1,0
256,160,68829,1,0
256,64,69129,1,0
160,64,69429,1,0
256,64,69729,1,0
352,64,70029,1,0
352,160,70329,2,2,B|128:160,1,200
152,160,71529,1,2
350,32,72129,6,0,B|254:64,1,100
161,32,72729,2,0,B|257:64,1,100
256,160,73329,1,0
254,63,73629,1,0
256,160,73929,1,0
168,203,74229,2,2,B|254:294|350:198,1,200
168,203,75129,1,2
342,205,75429,1,2
256,352,76329,5,0
256,256,76629,1,0
256,160,76929,1,0
255,10,77379,2,0,B|255:170,1,150,0|0
256,320,78129,5,2
256,320,78729,1,2
256,64,79329,1,2
256,64,79929,1,2
128,192,80529,1,2
384,192,81129,1,2
416,96,81429,5,0
416,96,81579,1,0
416,96,81729,2,0,B|477:195|408:290,2,200
352,192,83229,1,0
256,192,83529,1,0
256,192,83829,1,0
160,192,84129,1,0
96,96,84429,1,0
96,96,84579,1,0
96,96,84729,2,0,B|35:195|103:289,1,200,4|0
256,192,85929,5,0
256,96,86229,5,0
256,96,86379,1,0
256,96,86529,2,0,B|255:-12|351:-12|351:116,2,200
208,192,88029,1,0
304,192,88329,1,0
208,192,88629,1,0
304,192,88929,1,0
208,192,89229,1,0
256,288,89529,2,0,B|257:396|161:396|161:268,1,200,4|0
161,288,90729,1,0
416,192,91329,6,2,B|288:192,1,100
96,192,91929,2,2,B|224:192,1,100
256,128,92529,1,0
192,192,92829,1,0
256,256,93129,1,0
320,192,93429,2,2,B|352:160|352:160|384:160|384:160|416:192|416:192|416:224|416:224|384:256|384:256|352:256,1,200,2|2
256,256,94329,1,2
192,192,94629,2,2,B|160:160|160:160|128:160|128:160|96:192|96:192|96:224|96:224|128:256|128:256|160:256,1,200,2|0
192,32,96129,5,0
256,96,96429,1,0
320,32,96729,1,0
368,96,97029,2,0,B|368:224,1,100
256,192,97629,1,0
256,96,97929,1,0
144,96,98235,2,0,B|144:224,1,100
256,192,99135,1,2
256,96,99435,1,2
160,352,100335,5,0
256,352,100635,1,0
352,352,100935,1,0
256,32,101835,1,0
64,64,102735,1,0
128,128,103035,1,0
448,64,103935,1,2
384,128,104235,1,2
320,192,104545,5,0
192,192,104839,1,0
256,96,105133,1,0
193,192,105427,2,0,B|162:289|264:381|350:285|312:146,1,300
256,32,106897,5,0
256,128,107192,1,0
256,352,107780,1,0
256,192,108368,1,0
256,192,108515,1,0
256,192,108662,1,0
192,192,109250,5,0
320,192,109545,1,0
256,288,109839,1,0
321,192,110133,2,0,B|350:95|251:0|162:99|200:238,1,300
256,352,111603,5,0
256,256,111897,1,0
256,32,112486,1,0
256,192,113074,1,0
256,192,113221,1,0
256,192,113368,1,0
64,128,122486,5,0
64,128,122780,1,0
128,224,123074,1,0
192,128,123368,1,6
256,224,123662,1,0
320,128,123956,1,0
384,224,124251,1,0
448,128,124545,1,2
448,128,124839,1,2
256,192,124986,12,0,126751
256,192,127192,5,2
256,192,127486,1,2
201,110,127780,2,0,B|265:206,1,100
312,109,128368,2,0,B|248:205,1,100
257,294,128956,2,0,B|257:182,1,100
257,194,129839,1,2
257,194,130133,1,2
192,64,131015,5,4
320,64,131309,1,4
384,160,131604,5,0
352,192,131751,1,0
320,160,131898,1,0
288,192,132045,1,0
256,160,132192,1,0
224,192,132339,1,0
192,160,132486,1,0
160,192,132633,1,0
128,160,132780,1,4
256,192,132927,12,0,133956
256,192,134545,5,0
181,124,134839,2,0,B|78:221|171:346|364:342|462:221|305:100,1,500
64,48,136898,5,0
64,48,137192,2,0,C|32:80|64:112|32:144|64:176|32:208|64:240|32:272|64:304|32:336,1,400,0|0
46,324,138662,1,4
448,48,139251,5,0
448,48,139545,2,0,C|480:80|448:112|480:144|448:176|480:208|448:240|480:272|448:304|480:336,1,400
465,324,141015,1,4
160,192,141604,5,0
352,192,141898,1,0
256,192,142045,12,4,143074
128,160,143957,5,0
128,160,144251,2,0,B|64:256|226:319,1,200
384,160,145133,5,0
384,160,145427,2,0,B|448:256|286:319,1,200
341,88,146310,5,0
341,88,146604,2,0,B|258:-8|162:94,1,200
256,192,147486,6,0,B|256:128,1,50
256,192,148074,2,0,B|192:256,1,50
256,192,148662,2,0,B|320:256,1,50
256,192,149251,1,0
160,192,149545,5,0
176,192,149692,1,0
192,192,149839,1,0
208,192,149986,1,0
224,192,150133,1,0
240,192,150280,1,0
256,192,150427,1,0
272,192,150574,1,0
288,192,150721,1,0
304,192,150868,1,0
320,192,151015,1,0
336,192,151162,1,0
352,192,151309,1,0
416,192,151603,5,4
352,288,151897,1,0
256,288,152192,1,0
160,288,152486,1,0
96,192,152780,1,0
160,96,153074,1,0
160,96,153368,2,0,B|384:96,1,200
256,192,154250,5,8
256,192,154545,1,8
136,192,154839,5,0
136,192,155133,2,0,B|136:320|264:320,2,200
256,192,156603,1,0
192,96,156897,1,0
320,96,157192,1,0
256,192,157486,1,0
376,192,157780,1,0
376,192,158074,2,0,B|376:320|248:320,1,200
256,320,158956,1,8
255,319,159250,1,8
169,93,159839,6,0,B|256:0|344:103,1,200
320,256,161015,1,0
256,192,161309,1,0
192,256,161603,1,0
256,320,161898,2,0,B|256:88,1,200
256,320,162780,1,0
256,120,163074,1,0
256,320,163956,6,0,B|256:192,2,100
256,160,164986,1,0
256,320,165427,1,0
160,320,165721,6,0,B|224:256|96:128,1,200,4|0
113,146,166603,1,0
352,64,166898,2,0,B|288:128|416:256,1,200,4|0
398,237,167780,1,0
192,192,168221,5,0
192,192,168368,1,0
192,192,168515,1,0
320,192,168809,1,0
320,192,168956,1,0
320,192,169103,1,0
256,80,169398,1,0
256,96,169545,1,0
256,112,169692,1,0
256,128,169839,1,0
256,144,169986,1,0
256,160,170133,1,0
256,176,170280,1,0
256,192,170417,1,4
256,256,170717,5,0
192,320,171017,1,0
256,256,171317,1,0
320,320,171617,1,0
256,256,171917,1,0
256,160,172217,1,2
128,320,172817,5,2
384,320,173417,1,2
256,320,173717,5,0
320,256,174017,2,0,B|448:256,1,100
192,256,174617,2,0,B|64:256,1,100
192,160,175217,5,0
128,96,175517,1,0
192,32,175817,1,0
256,96,176117,1,0
320,32,176417,1,0
384,96,176717,1,0
320,160,177017,1,2
64,160,177617,5,2
448,160,178217,1,2
160,221,178817,6,0,B|256:160|352:224,3,200
352,320,180917,2,2,B|128:320,1,200
256,192,181817,1,2
128,160,182117,2,2,B|254:0|414:192,1,300
256,320,183617,5,0
192,224,183917,1,0
320,224,184217,1,0
320,123,184517,2,0,B|320:251,1,100
320,128,185117,1,0
192,128,185417,1,0
192,126,185717,2,0,B|192:254,1,100
208,320,186617,1,2
304,320,186917,1,2
288,128,187817,5,0
224,128,188117,1,0
192,96,188417,2,0,B|257:26|337:106,1,150,2|0
256,192,189467,12,0,191867
