osu file format v6

[General]
AudioFilename: 103-silbermond_-_ich_bereue_ni.mp3
AudioLeadIn: 0
PreviewTime: 89854
Countdown: 0
SampleSet: Soft
StackLeniency: 0.7
Mode: 0
LetterboxInBreaks: 1

[Editor]
DistanceSpacing: 1.10000002384186
BeatDivisor: 4
GridSize: 8

[Metadata]
Title:Ich Bereue Nichts
Artist:Silbermond
Creator:Larto
Version:Sorry
Source:
Tags:German

[Difficulty]
HPDrainRate:7
CircleSize:3
OverallDifficulty:5
SliderMultiplier:1.7
SliderTickRate:1

[Events]
//Background and Video events
0,0,"iregretnothing.jpg"
//Break Periods
2,56304,63475
2,107732,114904
//Storyboard Layer 0 (Background)
//Storyboard Layer 1 (Fail)
//Storyboard Layer 2 (Pass)
//Storyboard Layer 3 (Foreground)
//Storyboard Sound Samples
//Background Colour Transformations
3,100,163,162,255

[TimingPoints]
390,535.714285714286,4,2,0,50,1,0
5073,-100,4,2,0,65,0,0
5340,-100,4,2,0,80,0,0
5607,-100,4,2,0,65,0,0
5874,-100,4,2,0,50,0,0
6141,-100,4,2,0,35,0,0
6680,-100,4,2,0,50,0,0
7215,-100,4,2,0,65,0,0
7482,-100,4,2,0,80,0,0
7749,-100,4,2,0,65,0,0
8016,-100,4,2,0,50,0,0
8283,-100,4,2,0,35,0,0
8550,-100,4,2,0,50,0,0
10162,-100,4,2,0,40,0,0
10429,-100,4,2,0,30,0,0
10696,-100,4,2,0,20,0,0
11636,-100,4,1,0,40,0,0
13377,-100,4,2,0,50,0,0
13912,-100,4,2,0,65,0,0
14179,-100,4,2,0,80,0,0
14446,-100,4,2,0,75,0,0
14713,-100,4,2,0,50,0,0
14980,-100,4,2,0,35,0,0
15247,-100,4,2,0,50,0,0
15787,-100,4,2,0,65,0,0
16054,-100,4,2,0,75,0,0
16321,-100,4,2,0,65,0,0
16588,-100,4,2,0,50,0,0
16855,-100,4,2,0,35,0,0
17122,-100,4,2,0,50,0,0
18466,-100,4,2,0,40,0,0
19135,-100,4,2,0,30,0,0
19670,-100,4,2,0,20,0,0
20073,-100,4,2,0,30,0,0
20340,-100,4,2,0,30,0,0
20607,-100,4,2,0,50,0,0
21546,-100,4,1,0,70,0,0
21947,-100,4,2,0,50,0,0
22216,-100,4,2,0,65,0,0
22483,-100,4,2,0,80,0,0
22750,-100,4,2,0,65,0,0
23017,-100,4,2,0,50,0,0
23284,-100,4,2,0,50,0,0
23823,-100,4,1,0,40,0,0
24090,-100,4,2,0,50,0,0
25966,-100,4,1,0,40,0,0
26233,-100,4,2,0,50,0,0
26769,-100,4,2,0,40,0,0
27303,-100,4,2,0,30,0,0
27570,-100,4,2,0,40,0,0
28644,-100,4,2,0,50,0,0
28911,-100,4,2,0,70,0,0
29178,-100,4,2,0,50,0,0
29448,-100,4,2,0,35,0,0
30252,-100,4,1,0,50,0,0
30519,-100,4,2,0,50,0,0
32394,-100,4,1,0,50,0,0
32661,-100,4,2,0,50,0,0
34537,-100,4,1,0,40,0,0
34804,-100,4,2,0,50,0,0
36278,-100,4,2,1,50,0,0
36411,-100,4,1,0,40,0,0
36948,-100,4,2,0,40,0,0
37216,-100,4,2,0,50,0,0
37483,-100,4,2,0,55,0,0
37750,-100,4,2,0,60,0,0
38151,-100,4,2,0,70,0,0
38418,-100,4,2,0,40,0,0
38957,-200,4,1,1,50,0,0
39091,-200,4,2,1,50,0,0
41099,-100,4,1,1,50,0,0
41234,-100,4,2,0,50,0,0
41502,-100,4,2,0,40,0,0
41769,-100,4,2,0,30,0,0
42036,-100,4,2,0,20,0,0
42303,-100,4,2,0,10,0,0
42707,-100,4,2,0,20,0,0
43109,-100,4,1,0,40,0,0
43376,-100,4,2,0,50,0,0
44180,-100,4,2,0,65,0,0
44448,-100,4,2,0,50,0,0
44715,-100,4,2,1,35,0,0
44982,-100,4,2,1,50,0,0
45256,-100,4,1,1,50,0,0
45523,-100,4,2,0,50,0,0
45787,-100,4,2,0,55,0,0
46054,-100,4,2,0,65,0,0
46321,-100,4,2,0,55,0,0
46588,-100,4,2,0,50,0,0
47528,-200,4,1,0,50,0,0
47661,-200,4,2,0,50,0,0
49683,-100,4,1,0,50,0,0
49816,-100,4,2,0,50,0,0
50073,-100,4,2,0,55,0,0
50340,-100,4,2,0,60,0,0
50607,-100,4,2,0,65,0,0
50874,-100,4,2,0,50,0,0
52488,-100,4,2,0,40,0,0
52755,-100,4,2,0,30,0,0
53022,-100,4,2,0,25,0,0
53289,-100,4,2,0,40,0,0
53556,-100,4,2,0,50,0,0
55568,-100,4,1,0,50,0,0
57725,-100,4,1,0,60,0,0
64809,-100,4,2,2,55,0,0
66684,-100,4,1,0,55,0,0
66951,-100,4,2,2,55,0,0
68827,-100,4,1,2,55,0,0
69094,-100,4,2,2,55,0,0
70836,-100,4,1,2,55,0,0
71237,-100,4,2,2,55,0,0
72979,-100,4,1,2,55,0,0
73380,-100,4,2,2,55,0,0
80345,-100,4,2,2,65,0,0
80880,-100,4,2,2,75,0,0
81281,-100,4,2,2,85,0,0
81682,-100,4,1,2,90,0,0
81950,-100,4,2,2,55,0,0
85300,-100,4,1,2,80,0,0
88381,-100,4,2,2,55,0,0
88648,-100,4,1,2,55,0,0
89183,-100,4,2,2,70,0,0
89450,-100,4,1,2,70,0,0
90252,-100,4,1,2,80,0,0
90386,-100,4,1,2,80,0,1
107532,-100,4,1,2,80,0,0
116506,-100,4,1,2,65,0,0
117041,-100,4,1,2,50,0,0
117576,-100,4,1,2,65,0,0
118111,-100,4,1,2,80,0,0
118646,-100,4,1,2,65,0,0
119181,-100,4,1,2,50,0,0
119716,-100,4,1,2,65,0,0
120791,-100,4,1,2,60,0,0
121326,-100,4,1,2,50,0,0
122931,-100,4,1,2,50,0,0
123466,-100,4,1,2,70,0,0
123872,-100,4,1,2,80,0,0
124407,-100,4,1,2,90,0,0
124675,-100,4,1,2,90,0,1
124942,-100,4,1,2,70,0,1
156818,-100,4,1,2,70,0,0
173931,722.89156626506,4,1,2,70,1,0
175318,759.493670886076,4,1,2,70,1,0
176875,1071.42857142857,4,1,2,70,1,0

[Colours]
Combo1 : 192,139,14
Combo2 : 52,169,58
Combo3 : 35,35,171
Combo4 : 199,35,35

[HitObjects]
304,112,4943,5,0
368,64,5211,2,0,B|420:106|379:213|296:192,1,170,2|2
200,192,6282,1,2
200,192,7086,5,0
136,144,7354,2,0,B|84:186|125:293|208:272,1,170,2|2
304,272,8425,1,2
312,120,8961,5,2
368,64,9229,1,0
296,40,9497,1,2
200,160,10032,5,2
144,216,10300,1,0
216,240,10568,1,2
352,312,13247,5,4
408,240,13515,1,0
456,168,13782,2,0,B|368:120|280:176,1,170,2|2
192,256,14854,1,2
192,256,15122,1,0
112,176,15925,5,0
56,104,16193,1,0
8,32,16460,2,0,B|96:-16|184:40,2,170,2|2|0
136,104,17800,5,0
136,104,18068,2,0,B|224:136|312:104,1,170,2|2
256,264,19943,5,0
178,278,20211,2,0,B|193:356|282:360|312:319,1,170,2|2
400,152,21818,5,4
344,80,22086,1,0
256,64,22354,1,2
168,80,22622,1,0
112,152,22890,1,2
136,296,23961,6,0,B|256:336|400:296,1,255,4|2
256,208,25568,5,0
256,208,25836,1,0
296,120,26104,2,0,B|488:120,1,170,4|2
216,40,27175,2,0,B|24:40,1,170,2|2
168,168,28515,6,0,B|72:168,2,85,0|2|0
256,192,29318,2,0,B|328:144|264:56,2,127.5,2|0|0
352,256,30390,2,0,B|504:256,1,127.5,4|0
344,144,31193,5,0
256,192,31461,2,0,B|184:240|248:328,2,127.5,2|0|0
160,128,32533,2,0,B|8:128,1,127.5,4|0
120,264,33336,5,0
192,312,33604,2,0,B|256:344|328:312,2,127.5,2|0|2
256,208,34675,12,0,36282
256,32,37086,5,0
256,112,37354,1,2
256,192,37622,1,0
256,272,37890,1,2
256,352,38157,1,0
88,356,38961,6,0,B|8:188|102:-5,1,340,4|4
168,64,41372,1,0
224,128,41640,1,2
224,256,42175,1,0
168,320,42443,1,2
88,192,43247,6,0,B|432:192,1,340,4|2
336,112,44854,2,0,B|136:112,1,170,2|4
32,112,45925,5,2
32,112,46193,1,0
32,112,46461,2,0,B|40:192|128:224|176:208,1,170,2|0
423,356,47532,6,0,B|503:188|410:-5,1,340,4|4
344,64,49943,1,0
288,128,50211,1,2
224,192,50479,1,0
288,256,50746,1,0
344,320,51014,1,2
424,192,51818,6,0,B|80:192,1,340,2|2
256,288,53425,1,2
256,208,53961,12,4,56104
56,104,64675,6,0,B|136:72|224:104,1,170,4|2
144,192,65747,1,2
144,192,66282,1,2
288,280,66818,6,0,B|368:312|456:280,1,170,4|2
368,192,67890,1,2
368,192,68425,1,10
256,48,68961,6,0,B|168:120|256:192|256:192|336:264|248:344,1,340,4|2
254,338,70568,1,8
104,272,71104,6,0,B|48:192|112:96,3,170,4|10|2|10
256,40,73247,5,4
328,80,73515,1,0
408,64,73782,1,10
256,144,74318,5,2
184,184,74586,1,0
104,168,74853,1,10
86,335,75390,6,0,B|438:335,1,340,8|2
344,248,76997,1,8
256,248,77265,1,2
144,136,78068,6,0,B|150:32|252:32|252:32|358:33|372:145,1,340,8|8
344,248,79675,2,12,B|152:248,3,170,12|12|12|12
256,128,81818,5,4
256,296,82354,5,10
168,296,82622,1,0
80,296,82890,1,2
16,232,83157,2,8,B|32:152|184:120|216:240,1,255,0|8
184,368,84497,1,8
328,368,85032,1,8
256,208,85568,1,6
256,208,85836,1,6
256,208,86104,12,4,87711
256,96,88515,5,4
256,96,89318,1,4
256,96,90122,1,4
321,32,90390,2,4,B|491:71|496:275|400:403|287:422|132:378|98:290,1,680,4|4
68,242,92800,1,0
69,241,93068,2,0,B|27:124|126:-7|275:21,1,340
256,105,94407,6,0,B|413:120|368:344|208:339|120:219|192:139,1,425,6|2
256,192,96282,1,6
176,256,97086,5,0
168,152,97354,1,8
296,272,97890,1,4
352,184,98158,1,0
280,96,98425,1,8
191,32,98693,5,0
191,32,98961,2,4,B|21:71|16:275|112:403|225:422|380:378|414:290,1,680,4|0
444,242,101371,1,0
443,241,101639,2,0,B|485:124|386:-7|237:21,1,340
256,105,102978,6,0,B|99:120|144:344|303:339|391:219|319:139,1,425,6|2
256,192,104853,1,6
256,208,105390,12,4,107532
80,344,116104,6,4,B|120:312|80:272|80:272|40:232|96:184,3,170,6|6|6|6
432,40,118247,6,4,B|392:72|432:112|432:112|472:152|416:200,3,170,6|6|6|6
272,352,120390,6,0,B|168:352,1,85,6|0
232,272,120926,2,0,B|336:272,1,85,6|0
272,192,121461,2,0,B|168:192,1,85,6|0
232,112,121997,2,0,B|336:112,1,85,6|0
400,112,122532,5,6
112,112,123068,1,6
112,272,123604,1,6
400,272,124140,1,6
339,143,124675,6,4,B|256:103|171:145,2,170,6|6|4
171,305,126818,2,4,B|254:345|339:303,2,170,6|6|4
80,216,128961,5,6
256,216,129497,1,2
432,216,130032,1,2
432,216,130300,1,0
432,216,130568,1,8
344,72,131372,6,0,B|144:72,1,170,4|0
203,155,132175,2,6,B|200:224|320:224|312:144,1,170
472,128,133247,2,6,B|471:154|471:154|466:342|256:332|256:332|32:332|40:148|40:148|40:108,1,680
176,32,135925,5,2
336,32,136461,1,8
256,168,136997,1,4
256,168,137265,1,4
256,208,137532,12,0,141282
48,216,141818,6,0,B|0:128|56:32,1,170,6|8
144,88,142890,2,0,B|256:88,1,85,6|0
229,176,143425,2,0,B|144:176,1,85,2|0
96,248,143961,6,0,B|128:320|216:232|248:304,1,170,6|8
416,328,145032,2,0,B|488:272,1,85,6|0
400,240,145568,2,0,B|472:184,1,85,2|0
384,152,146104,6,0,B|304:216|304:216|208:216,2,170,6|8|6
448,80,147443,1,0
352,64,147711,1,2
256,192,148247,5,4
256,192,148782,1,4
256,192,149318,1,4
256,192,149854,1,4
152,312,150390,6,0,B|16:296|24:72|168:72,1,340,6|2
256,192,151997,1,2
360,312,152532,2,0,B|496:296|488:72|344:72,1,340,6|2
256,192,154140,1,2
176,368,154675,6,4,B|360:368,3,170,6|4|6|6
256,208,156818,12,4,158961
