osu file format v6

[General]
AudioFilename: 103-silbermond_-_ich_bereue_ni.mp3
AudioLeadIn: 0
PreviewTime: 89854
Countdown: 0
SampleSet: Soft
StackLeniency: 0.7
Mode: 0
LetterboxInBreaks: 1

[Editor]
DistanceSpacing: 0.899999976158142
BeatDivisor: 4
GridSize: 8

[Metadata]
Title:Ich Bereue Nichts
Artist:Silbermond
Creator:Larto
Version:No Regrets
Source:
Tags:German

[Difficulty]
HPDrainRate:7
CircleSize:4
OverallDifficulty:7
SliderMultiplier:1.7
SliderTickRate:1

[Events]
//Background and Video events
0,0,"iregretnothing.jpg"
//Break Periods
2,56304,63775
2,107732,115204
//Storyboard Layer 0 (Background)
//Storyboard Layer 1 (Fail)
//Storyboard Layer 2 (Pass)
//Storyboard Layer 3 (Foreground)
//Storyboard Sound Samples
//Background Colour Transformations
3,100,163,162,255

[TimingPoints]
390,535.714285714286,4,2,0,50,1,0
5073,-100,4,2,0,65,0,0
5340,-100,4,2,0,80,0,0
5607,-100,4,2,0,65,0,0
5874,-100,4,2,0,50,0,0
6141,-100,4,2,0,35,0,0
6680,-100,4,2,0,50,0,0
7215,-100,4,2,0,65,0,0
7482,-100,4,2,0,80,0,0
7749,-100,4,2,0,65,0,0
8016,-100,4,2,0,50,0,0
8283,-100,4,2,0,35,0,0
8550,-100,4,2,0,50,0,0
10162,-100,4,2,0,40,0,0
10429,-100,4,2,0,30,0,0
10696,-100,4,2,0,20,0,0
11636,-100,4,1,0,40,0,0
13377,-100,4,2,0,50,0,0
13912,-100,4,2,0,65,0,0
14179,-100,4,2,0,80,0,0
14446,-100,4,2,0,75,0,0
14713,-100,4,2,0,50,0,0
14980,-100,4,2,0,35,0,0
15247,-100,4,2,0,50,0,0
15787,-100,4,2,0,65,0,0
16054,-100,4,2,0,75,0,0
16321,-100,4,2,0,65,0,0
16588,-100,4,2,0,50,0,0
16855,-100,4,2,0,35,0,0
17122,-100,4,2,0,50,0,0
18466,-100,4,2,0,40,0,0
19135,-100,4,2,0,30,0,0
19670,-100,4,2,0,20,0,0
20073,-100,4,2,0,30,0,0
20340,-100,4,2,0,30,0,0
20607,-100,4,2,0,50,0,0
21546,-100,4,1,0,70,0,0
21947,-100,4,2,0,50,0,0
22216,-100,4,2,0,65,0,0
22483,-100,4,2,0,80,0,0
22750,-100,4,2,0,65,0,0
23017,-100,4,2,0,50,0,0
23284,-100,4,2,0,50,0,0
23823,-100,4,1,0,40,0,0
24090,-100,4,2,0,50,0,0
25966,-100,4,1,0,40,0,0
26233,-100,4,2,0,50,0,0
26769,-100,4,2,0,40,0,0
27303,-100,4,2,0,30,0,0
27570,-100,4,2,0,40,0,0
28644,-100,4,2,0,50,0,0
28911,-100,4,2,0,70,0,0
29178,-100,4,2,0,50,0,0
29448,-100,4,2,0,35,0,0
30252,-100,4,1,0,50,0,0
30519,-100,4,2,0,50,0,0
32394,-100,4,1,0,50,0,0
32661,-100,4,2,0,50,0,0
34537,-100,4,1,0,40,0,0
34804,-100,4,2,0,50,0,0
36278,-100,4,2,1,50,0,0
36411,-100,4,1,0,40,0,0
36948,-100,4,2,0,40,0,0
37216,-100,4,2,0,50,0,0
37483,-100,4,2,0,55,0,0
37750,-100,4,2,0,60,0,0
38151,-100,4,2,0,70,0,0
38418,-100,4,2,0,40,0,0
38957,-200,4,1,1,50,0,0
39091,-200,4,2,1,50,0,0
41099,-100,4,1,1,50,0,0
41234,-100,4,2,0,50,0,0
41502,-100,4,2,0,40,0,0
41769,-100,4,2,0,30,0,0
42036,-100,4,2,0,20,0,0
42303,-100,4,2,0,10,0,0
42707,-100,4,2,0,20,0,0
43109,-100,4,1,0,40,0,0
43376,-100,4,2,0,50,0,0
44180,-100,4,2,0,65,0,0
44448,-100,4,2,0,50,0,0
44715,-100,4,2,0,35,0,0
44982,-100,4,2,0,50,0,0
45256,-100,4,1,1,50,0,0
45523,-100,4,2,0,50,0,0
45787,-100,4,2,0,55,0,0
46054,-100,4,2,0,65,0,0
46321,-100,4,2,0,55,0,0
46588,-100,4,2,0,50,0,0
47528,-200,4,1,0,50,0,0
47661,-200,4,2,0,50,0,0
49683,-100,4,1,0,50,0,0
49816,-100,4,2,0,50,0,0
50073,-100,4,2,0,55,0,0
50340,-100,4,2,0,60,0,0
50607,-100,4,2,0,65,0,0
50874,-100,4,2,0,50,0,0
52488,-100,4,2,0,40,0,0
52755,-100,4,2,0,30,0,0
53022,-100,4,2,0,25,0,0
53289,-100,4,2,0,40,0,0
53556,-100,4,2,0,50,0,0
55568,-100,4,1,0,50,0,0
57725,-100,4,1,0,60,0,0
64809,-100,4,2,2,55,0,0
66684,-100,4,1,0,55,0,0
66951,-100,4,2,2,55,0,0
68827,-100,4,1,2,55,0,0
69094,-100,4,2,2,55,0,0
70836,-100,4,1,2,55,0,0
71237,-100,4,2,2,55,0,0
72979,-100,4,1,2,55,0,0
73380,-100,4,2,2,55,0,0
80345,-100,4,2,2,65,0,0
80880,-100,4,2,2,75,0,0
81281,-100,4,2,2,85,0,0
81682,-100,4,1,2,90,0,0
81950,-100,4,2,2,55,0,0
85300,-100,4,1,2,80,0,0
88381,-100,4,2,2,55,0,0
88648,-100,4,1,2,55,0,0
89183,-100,4,2,2,70,0,0
89450,-100,4,1,2,70,0,0
90252,-100,4,1,2,80,0,0
90386,-100,4,1,2,80,0,1
107532,-100,4,1,2,80,0,0
116506,-100,4,1,2,65,0,0
117041,-100,4,1,2,50,0,0
117576,-100,4,1,2,65,0,0
118111,-100,4,1,2,80,0,0
118646,-100,4,1,2,65,0,0
119181,-100,4,1,2,50,0,0
119716,-100,4,1,2,65,0,0
120791,-100,4,1,2,60,0,0
121326,-100,4,1,2,50,0,0
122931,-100,4,1,2,50,0,0
123466,-100,4,1,2,70,0,0
123872,-100,4,1,2,80,0,0
124407,-100,4,1,2,90,0,0
124675,-100,4,1,2,90,0,1
124942,-100,4,1,2,70,0,1
156818,-100,4,1,2,70,0,0
173931,722.89156626506,4,1,2,70,1,0
175318,759.493670886076,4,1,2,70,1,0
176875,1071.42857142857,4,1,2,70,1,0

[Colours]
Combo1 : 192,139,14
Combo2 : 52,169,58
Combo3 : 35,35,171
Combo4 : 199,35,35

[HitObjects]
64,160,4943,5,0
128,104,5211,1,2
208,64,5479,1,0
256,136,5747,2,0,B|256:240,1,85,2|0
256,304,6282,1,2
448,224,7086,5,0
384,280,7354,1,2
304,320,7622,1,0
256,248,7890,2,0,B|256:144,1,85,2|0
256,80,8425,1,2
176,56,8693,1,0
96,80,8961,6,0,B|96:200,1,85,2|0
176,160,9497,2,0,B|176:272,1,85,2|0
96,248,10032,2,0,B|96:352,2,85,2|0|2
298,344,13247,5,4
360,280,13515,1,0
402,192,13782,1,2
360,104,14051,1,0
298,40,14318,2,0,B|178:40,2,85,2|0|2
360,104,15122,1,0
213,40,15657,5,0
152,104,15925,1,2
109,192,16192,1,0
152,280,16461,1,2
213,344,16728,2,0,B|333:344,2,85,0|2|0
256,72,17800,5,0
256,160,18068,1,2
256,248,18336,1,0
333,212,18604,2,0,B|379:291|280:388|181:346|137:263|184:200,1,340,2|0
256,160,19943,2,0,B|256:56,2,85,0|2|0
256,248,20747,1,2
256,248,21818,5,4
344,280,22086,1,0
424,232,22354,1,2
448,144,22622,1,0
448,56,22890,2,0,B|360:32,1,85,2|0
288,96,23425,2,0,B|376:120,1,85,2|0
304,192,23961,1,4
304,192,24229,1,0
304,192,24497,1,2
304,192,24765,1,0
88,352,25568,5,2
56,272,25836,1,0
40,192,26104,1,4
56,112,26372,1,0
88,32,26640,1,2
168,48,26907,1,0
216,112,27175,2,0,B|320:112,2,85,2|0|2
256,304,28515,5,0
256,304,28782,1,2
256,304,29050,1,0
196,244,29318,2,0,B|256:208|320:246,2,127.5,2|0|0
256,136,30390,2,0,B|316:172|380:134,1,127.5,4|0
384,304,31193,5,0
316,244,31461,2,0,B|256:208|192:246,2,127.5,2|0|0
256,136,32532,2,0,B|196:172|132:134,1,127.5,4|0
256,312,33336,5,0
256,224,33604,1,2
332,356,34006,1,0
179,356,34407,1,2
179,356,34675,1,4
256,208,34809,12,0,36282
144,192,36818,5,4
208,248,37086,1,0
304,248,37354,1,2
368,192,37622,1,0
318,118,37890,2,0,B|256:88|192:120,1,127.5,2|0
64,342,38961,6,0,B|-7:258|71:194|71:194|145:112|37:15,1,340,4|4
25,127,41372,1,0
25,127,41640,1,2
25,127,41907,1,0
25,127,42175,2,0,B|97:159|161:119,1,127.5,2|0
256,64,42979,5,0
336,104,43247,2,0,B|392:128|456:88,1,85,4|0
496,64,43782,2,0,B|528:112|496:152,1,85,2|0
440,208,44318,1,2
368,256,44586,1,0
296,304,44854,1,2
224,344,45122,1,0
160,64,45657,5,0
256,56,45925,1,2
352,64,46193,1,0
256,144,46461,2,0,B|216:200|304:208|248:272,1,127.5,2|0
447,341,47265,5,0
448,342,47532,2,0,B|519:258|441:194|441:194|367:112|475:15,1,340,4|4
506,128,49943,1,0
506,128,50211,1,2
506,128,50478,1,0
506,128,50747,1,2
506,128,51015,1,0
338,240,51550,6,0,B|256:280|152:232,1,170,2|0
112,184,52354,1,2
69,116,52622,1,0
137,73,52890,1,2
179,141,53157,1,0
224,208,53425,1,2
264,280,53693,1,0
256,208,53961,12,0,55568
256,256,56104,5,4
192,224,64675,6,0,B|128:128,1,85,4|0
256,168,65211,2,0,B|256:64,1,85,10|0
320,224,65747,2,0,B|384:128,2,85,2|0|10
256,272,66550,1,0
176,312,66818,2,0,B|72:312,1,85,4|0
40,240,67354,2,0,B|136:240,1,85,10|0
176,168,67890,2,0,B|72:168,1,85,2|0
40,104,68425,1,8
112,64,68693,1,0
184,24,68961,6,0,B|280:-16,1,85,4|0
272,72,69497,2,0,B|368:32,1,85,10|0
352,128,70032,2,0,B|448:88,2,85,2|0|10
176,256,71104,6,0,B|224:296|296:216|344:264,2,170,4|10|8
216,184,72443,1,0
296,128,72711,1,10
128,112,73247,6,0,B|40:152,1,85,4|0
120,208,73782,2,0,B|64:280,1,85,10|0
176,280,74318,2,0,B|160:368,2,85,8|0|10
192,200,75122,2,0,B|200:136|312:136|312:208,1,170,2|0
335,280,75925,6,0,B|351:363,1,85,8|0
392,207,76461,2,0,B|444:275,1,85,2|0
384,112,76996,2,0,B|461:147,1,85,10|2
256,8,78068,5,8
176,64,78336,1,2
112,136,78604,1,0
112,232,78872,1,2
177,304,79140,2,0,B|231:345|296:344|352:296,1,170,8|2
392,232,79943,6,0,B|448:128,1,85,0|8
344,160,80479,2,0,B|392:72,1,85,0|8
296,88,81015,2,0,B|344:0,2,85,0|10|0
256,160,81818,1,4
256,256,82086,5,0
200,336,82354,1,8
104,336,82622,1,0
48,256,82890,1,2
152,256,83157,1,0
136,112,83693,6,2,B|192:40|304:192|384:104,1,255,2|2
256,248,85032,1,8
256,248,85568,1,4
256,248,85836,1,4
256,208,86104,12,4,88247
52,22,88515,5,4
20,105,88782,1,0
19,194,89050,1,0
60,276,89318,1,4
129,338,89586,1,0
222,364,89854,1,0
312,368,90122,1,0
392,360,90390,6,0,B|562:321|567:117|471:-11|358:-30|203:14|171:105,1,680,4|0
256,136,92800,1,0
256,224,93068,1,8
256,312,93336,1,0
336,344,93604,1,4
256,384,93872,1,4
176,344,94140,1,8
128,264,94407,2,2,B|80:208|200:160|128:96,1,170
216,32,95211,6,0,B|312:32,1,85,12|0
344,112,95747,2,0,B|296:195,1,85,0|0
208,184,96282,2,0,B|166:111,1,85,10|0
256,104,96818,1,4
256,104,97086,1,0
256,104,97354,1,8
256,104,97622,1,0
256,104,97890,2,0,B|296:176|216:208|272:288,1,170,4|12
256,208,98961,12,4,101104
144,192,101372,5,0
200,136,101640,1,8
256,80,101907,1,0
312,136,102175,1,4
368,192,102443,1,0
341,343,102979,6,2,B|157:343,1,170
96,344,103782,1,8
8,344,104050,1,0
51,280,104318,1,4
96,216,104586,1,0
8,216,104854,2,8,B|-7:127|125:54|248:176|152:288,1,340,8|4
256,208,106461,12,4,107532
48,72,116104,5,6
120,32,116372,1,0
192,72,116640,1,2
256,8,116907,1,0
320,72,117175,1,2
392,32,117443,1,0
464,72,117711,2,0,B|504:112|488:168,1,85,2|2
464,232,118247,5,6
392,192,118515,1,0
320,232,118783,1,2
256,168,119050,1,0
192,232,119318,1,2
120,192,119586,1,0
48,232,119854,2,0,B|8:272|24:328,1,85,2|2
64,368,120390,6,0,B|184:368,1,85,6|0
464,368,120925,2,0,B|344:368,1,85,6|0
96,368,121461,2,0,B|216:368,1,85,2|0
416,368,121996,2,0,B|296:368,1,85,2|0
256,368,122532,5,4
256,296,122800,1,0
256,224,123068,1,4
256,152,123336,1,0
256,80,123604,5,4
256,80,124140,1,4
256,80,124675,2,0,B|344:136|424:72,1,170,6|2
480,32,125479,1,0
480,32,125747,2,0,B|480:144,1,85,2|0
256,192,126550,6,0,B|168:248|88:184,1,170,6|0
32,144,127354,1,2
32,144,127622,1,0
32,144,127890,2,0,B|32:256,1,85,2|0
175,314,128693,6,0,B|260:365|355:306,1,170,6|0
368,224,129497,2,0,B|304:144,1,85,2|0
197,157,130032,2,0,B|144:224,1,85,4|0
256,240,130568,1,6
256,240,130836,1,2
416,64,131372,5,0
336,64,131640,1,8
256,64,131907,1,0
176,64,132175,1,4
96,64,132443,1,0
24,192,132979,5,0
24,192,133247,2,0,B|123:306|255:194|255:194|387:96|491:196,1,510,4|0
368,224,135122,2,2,B|408:136|352:40|248:40,1,255
144,96,136193,2,6,B|104:184|160:280|264:280,1,255
256,160,137265,5,0
256,160,137532,2,0,B|368:104,1,85,6|0
312,224,138068,2,0,B|424:168,1,85,8|0
368,288,138604,2,0,B|480:232,2,85,6|0|10
296,312,139407,1,0
216,312,139675,6,0,B|144:232|208:128,1,170,4|8
224,80,140479,1,0
272,24,140747,1,8
344,16,141015,1,0
408,56,141282,1,8
432,128,141550,1,0
432,208,141818,6,0,B|320:208,1,85,6|0
272,208,142354,2,0,B|168:208,1,85,8|0
96,280,142890,2,0,B|208:280,1,85,2|0
256,280,143426,2,0,B|360:280,1,85,2|0
368,208,143961,6,0,B|368:104,1,85,6|0
296,160,144497,2,0,B|296:56,1,85,8|0
216,160,145032,2,0,B|216:75,1,85,2|0
144,208,145568,2,0,B|144:123,1,85,2|0
144,288,146104,6,0,B|216:360,1,85,6|0
307,348,146640,2,0,B|368:288,1,85,8|0
368,184,147175,2,0,B|296:112,1,85,2|0
204,123,147711,2,0,B|144:184,1,85,2|0
80,256,148247,5,4
256,336,148782,1,4
432,256,149318,1,4
256,176,149853,1,4
96,64,150390,6,0,B|216:40,1,85,6|0
416,64,150925,2,0,B|296:40,1,85,8|0
128,152,151461,2,0,B|248:128,1,85,2|0
384,152,151997,2,0,B|264:128,1,85,2|0
216,264,152532,6,0,B|168:304|120:248,1,85,6|0
293,263,153068,2,0,B|341:303|389:247,1,85,8|0
216,352,153604,2,0,B|168:392|120:336,1,85,2|0
296,352,154140,2,0,B|344:392|392:336,1,85,2|0
384,64,154675,6,0,B|336:72|336:72|344:128,1,85,6|0
376,320,155211,2,0,B|328:312|328:312|336:256,1,85,8|0
136,320,155747,2,0,B|184:312|184:312|176:256,1,85,2|0
136,64,156283,2,0,B|184:72|184:72|176:128,1,85,2|0
256,208,156818,1,6
256,208,156952,12,4,158961
