osu file format v14

[General]
AudioFilename: music.mp3
AudioLeadIn: 0
PreviewTime: 33074
Countdown: 0
SampleSet: Soft
StackLeniency: 0.8
Mode: 0
LetterboxInBreaks: 0
WidescreenStoryboard: 0

[Editor]
DistanceSpacing: 1
BeatDivisor: 4
GridSize: 32
TimelineZoom: 1.8

[Metadata]
Title:Changing
TitleUnicode:Changing
Artist:Sigma ft. Paloma Faith
ArtistUnicode:Sigma ft. Paloma Faith
Creator:Exote
Version:Normal
Source:
Tags:dnb drum and bass life edm 3beat all around the world
BeatmapID:783429
BeatmapSetID:353546

[Difficulty]
HPDrainRate:4
CircleSize:3.5
OverallDifficulty:4
ApproachRate:5.5
SliderMultiplier:1
SliderTickRate:1

[Events]
//Background and Video events
0,0,"bg.jpg",0,0
//Break Periods
//Storyboard Layer 0 (Background)
//Storyboard Layer 1 (Fail)
//Storyboard Layer 2 (Pass)
//Storyboard Layer 3 (Foreground)
//Storyboard Sound Samples

[TimingPoints]
180,350.877192982456,4,2,1,100,1,0
11408,-100,4,2,1,30,0,0
22636,-100,4,2,1,45,0,0
28250,-100,4,2,1,55,0,0
31057,-100,4,3,1,35,0,0
32460,-100,4,3,1,40,0,0
33162,-100,4,3,1,45,0,0
33864,-100,4,2,1,70,0,1
33886,-100,4,2,1,70,0,0
45092,-100,4,2,1,70,0,1
45114,-100,4,2,1,70,0,0
53513,-100,4,3,1,50,0,0
54916,-100,4,3,1,5,0,0
56320,-100,4,2,1,85,0,1
78776,-100,4,2,1,100,0,0

[Colours]
Combo1 : 167,82,148
Combo2 : 242,193,134
Combo3 : 255,113,130

[HitObjects]
432,202,11408,6,0,L|439:80,1,100,2|0,0:0|0:0,0:0:0:0:
348,56,12109,2,0,P|334:32|327:1,2,50
331,154,12811,6,0,L|336:253,1,100,2|0,0:0|0:0,0:0:0:0:
247,300,13513,1,0,0:0:0:0:
175,230,13864,1,0,0:0:0:0:
86,277,14215,6,0,P|73:224|89:178,1,100,2|0,0:0|0:0,0:0:0:0:
168,125,14916,2,0,L|234:131,1,50
302,75,15443,1,2,0:0:0:0:
481,294,17022,6,0,P|433:289|390:315,1,100,2|0,0:0|0:0,0:0:0:0:
298,275,17723,2,0,L|291:209,2,50
206,315,18425,6,0,P|164:340|115:335,1,100,2|0,0:0|0:0,0:0:0:0:
35,275,19127,2,0,L|28:210,1,50
23,175,19478,1,0,0:0:0:0:
68,85,19829,6,0,P|109:59|158:64,1,100,2|0,0:0|0:0,0:0:0:0:
236,127,20530,2,0,L|232:190,1,50
224,276,21057,1,2,0:0:0:0:
55,91,21934,6,0,L|46:19,1,50
24,189,22636,6,0,L|17:293,2,100,4|2|0,0:0|0:1|0:0,0:0:0:0:
70,170,23513,1,2,0:1:0:0:
213,127,24039,2,0,P|266:127|307:155,1,100,0|2,0:0|0:1,0:0:0:0:
301,201,24565,2,0,L|294:305,1,100,0|2,0:0|0:1,0:0:0:0:
391,185,25443,6,0,L|381:72,2,100,0|2|0,0:0|0:1|0:0,0:0:0:0:
432,212,26320,1,2,0:1:0:0:
485,351,26846,2,0,P|442:334|388:337,1,100,0|2,0:0|0:1,0:0:0:0:
339,342,27372,2,0,L|222:348,1,100,0|2,0:0|0:1,0:0:0:0:
121,253,28250,6,0,L|4:247,2,100,0|2|0,0:0|0:1|0:0,0:0:0:0:
152,291,29127,1,2,0:1:0:0:
298,257,29653,2,0,P|315:211|310:157,1,100,0|2,0:0|0:1,0:0:0:0:
280,121,30179,2,0,L|175:127,1,100,0|2,0:0|0:1,0:0:0:0:
51,48,31057,5,0,0:0:0:0:
17,142,31408,1,0,0:0:0:0:
96,200,31758,1,0,0:0:0:0:
175,140,32109,1,0,0:0:0:0:
142,46,32460,1,0,0:0:0:0:
328,118,33162,5,0,0:0:0:0:
427,105,33513,1,0,0:0:0:0:
463,197,33864,6,0,L|462:313,1,100,4|8,0:0|0:0,0:0:0:0:
427,332,34390,2,0,P|385:357|323:348,1,100,0|8,0:0|0:0,0:0:0:0:
288,336,34916,1,0,0:0:0:0:
189,351,35267,6,0,L|73:347,1,100,0|8,3:0|0:0,0:0:0:0:
52,313,35794,2,0,P|33:266|45:215,1,100,0|8,0:0|0:0,0:0:0:0:
73,179,36320,1,0,0:0:0:0:
80,79,36671,6,0,P|125:56|175:62,1,100,4|8,0:1|0:0,0:0:0:0:
206,99,37197,2,0,B|241:108|241:108|315:96,1,100,0|8,0:0|0:0,0:0:0:0:
349,77,37723,1,0,0:0:0:0:
437,31,38074,5,0,3:0:0:0:
507,102,38425,1,8,0:0:0:0:
462,191,38776,2,0,L|464:253,1,50,0|8,0:0|0:0,0:0:0:0:
427,276,39127,2,0,L|429:338,1,50
385,351,39478,6,0,P|338:363|280:339,1,100,4|8,0:0|0:0,0:0:0:0:
250,316,40004,2,0,L|246:210,1,100,0|8,0:0|0:0,0:0:0:0:
244,165,40530,1,0,0:0:0:0:
343,157,40881,6,0,L|339:256,1,100,0|8,3:0|0:0,0:0:0:0:
369,297,41408,2,0,P|413:312|474:303,1,100,0|8,0:0|0:0,0:0:0:0:
488,209,42109,6,0,P|477:160|495:110,1,100
507,65,42636,1,8,0:0:0:0:
414,26,42987,1,0,0:0:0:0:
380,62,43162,2,0,L|274:73,1,100,8|0,0:0|0:0,0:0:0:0:
243,105,43688,5,0,3:0:0:0:
294,190,44039,2,0,L|290:259,1,50,8|0,0:0|0:0,0:0:0:0:
306,287,44390,1,2,0:0:0:0:
256,374,44741,1,2,0:0:0:0:
187,300,45092,6,0,P|137:290|87:306,1,100,4|8,0:0|0:0,0:0:0:0:
43,286,45618,2,0,B|27:249|27:249|33:185,1,100,0|8,0:0|0:0,0:0:0:0:
35,139,46144,1,0,0:0:0:0:
44,39,46495,6,0,L|147:31,1,100,0|8,3:0|0:0,0:0:0:0:
183,62,47022,2,0,B|199:99|199:99|193:163,1,100,0|8,0:0|0:0,0:0:0:0:
282,113,47723,6,0,P|332:112|380:83,1,100
414,56,48250,1,8,0:0:0:0:
503,105,48601,1,0,0:0:0:0:
497,154,48776,2,0,L|487:275,1,100,8|0,0:0|0:0,0:0:0:0:
483,303,49302,5,0,3:0:0:0:
401,360,49653,1,8,0:0:0:0:
321,299,50004,2,0,L|322:248,1,50,0|8,0:0|0:0,0:0:0:0:
348,206,50355,2,0,L|349:156,1,50
372,111,50706,6,0,P|391:65|377:12,1,100,4|8,0:0|0:0,0:0:0:0:
330,21,51232,2,0,L|226:33,1,100,0|8,0:0|0:0,0:0:0:0:
181,39,51758,1,0,0:0:0:0:
82,41,52109,6,0,P|61:84|71:142,1,100,0|8,3:0|0:0,0:0:0:0:
81,182,52636,2,0,L|71:286,1,100,0|8,0:0|0:0,0:0:0:0:
32,313,53162,1,0,0:0:0:0:
256,192,53513,12,0,54916,0:0:0:0:
449,79,56320,6,0,L|455:15,2,50,4|0|8,0:0|0:0|0:0,0:0:0:0:
382,153,57022,1,0,0:0:0:0:
449,227,57372,2,0,L|455:291,1,50
423,316,57723,2,0,P|384:337|325:335,1,100,0|8,3:0|0:0,0:0:0:0:
279,249,58425,2,0,L|273:185,1,50,0|8,0:0|0:0,0:0:0:0:
169,91,59127,6,0,L|164:140,1,50,4|0,0:1|0:0,0:0:0:0:
146,186,59478,2,0,P|113:224|64:243,1,100,8|0,0:0|0:0,0:0:0:0:
19,255,60004,1,8,0:0:0:0:
127,358,60530,1,0,3:0:0:0:
208,299,60881,1,8,0:0:0:0:
289,357,61232,2,0,L|339:353,2,50,2|10|0,0:0|0:0|0:0,0:0:0:0:
208,299,61934,6,0,L|204:249,2,50,4|0|8,0:0|0:0|0:0,0:0:0:0:
289,357,62636,1,0,0:0:0:0:
370,298,62987,2,0,P|395:298|420:301,1,50
468,293,63337,2,0,P|486:252|483:196,1,100,0|8,3:0|0:0,0:0:0:0:
474,97,64039,2,0,L|482:41,1,50,0|8,0:0|0:0,0:0:0:0:
332,25,64741,6,0,L|346:78,1,50,4|0,0:1|0:0,0:0:0:0:
360,120,65092,2,0,P|374:167|365:216,1,100,8|0,0:0|0:0,0:0:0:0:
346,262,65618,1,8,0:0:0:0:
225,172,66144,6,0,B|116:167,1,100,0|8,3:0|0:0,0:0:0:0:
80,190,66671,2,0,P|65:237|75:286,1,100,0|8,0:0|0:0,0:0:0:0:
90,333,67197,1,0,0:0:0:0:
184,299,67548,6,0,L|190:244,2,50,4|0|8,0:0|0:0|0:0,0:0:0:0:
270,350,68250,1,0,0:0:0:0:
356,299,68601,2,0,L|350:244,1,50
382,210,68951,2,0,P|427:188|480:194,1,100,0|8,3:0|0:0,0:0:0:0:
511,98,69653,2,0,L|505:43,1,50,0|8,0:0|0:0,0:0:0:0:
355,49,70355,6,0,L|349:98,1,50,4|0,0:1|0:0,0:0:0:0:
322,141,70706,2,0,P|280:154|210:139,1,100,8|0,0:0|0:0,0:0:0:0:
179,126,71232,1,8,0:0:0:0:
87,7,71758,6,0,P|44:16|3:62,1,100,0|8,3:0|0:0,0:0:0:0:
12,105,72285,1,0,0:0:0:0:
20,154,72460,2,0,L|28:225,1,50,2|10,0:0|0:0,0:0:0:0:
31,253,72811,1,0,0:0:0:0:
119,299,73162,6,0,L|110:352,2,50,4|0|8,0:0|0:0|0:0,0:0:0:0:
195,233,73864,1,0,0:0:0:0:
271,299,74215,2,0,L|280:352,1,50
327,362,74565,2,0,P|373:367|424:335,1,100,0|8,3:0|0:0,0:0:0:0:
444,298,75092,2,0,B|435:257|435:257|442:198,1,100,0|8,0:0|0:0,0:0:0:0:
458,152,75618,1,0,0:0:0:0:
457,55,75969,6,0,L|450:0,1,50,4|0,0:1|0:0,0:0:0:0:
402,19,76320,2,0,P|356:43|300:37,1,100,8|0,0:0|0:0,0:0:0:0:
262,21,76846,1,8,0:0:0:0:
118,54,77372,6,0,P|108:96|128:152,1,100,0|8,3:0|0:0,0:0:0:0:
145,195,77899,1,0,0:0:0:0:
190,283,78250,2,0,L|178:355,2,50,8|0|0,0:0|0:0|0:0,0:0:0:0:
224,246,78776,5,4,2:0:0:0:
