osu file format v14

[General]
AudioFilename: music.mp3
AudioLeadIn: 0
PreviewTime: 33074
Countdown: 0
SampleSet: Soft
StackLeniency: 0.8
Mode: 0
LetterboxInBreaks: 0
WidescreenStoryboard: 0

[Editor]
DistanceSpacing: 1.4
BeatDivisor: 4
GridSize: 32
TimelineZoom: 1.8

[Metadata]
Title:Changing
TitleUnicode:Changing
Artist:Sigma ft. Paloma Faith
ArtistUnicode:Sigma ft. Paloma Faith
Creator:Exote
Version:Insane
Source:
Tags:dnb drum and bass life edm 3beat all around the world
BeatmapID:783428
BeatmapSetID:353546

[Difficulty]
HPDrainRate:6
CircleSize:4
OverallDifficulty:7
ApproachRate:9
SliderMultiplier:1.6
SliderTickRate:1

[Events]
//Background and Video events
0,0,"bg.jpg",0,0
//Break Periods
//Storyboard Layer 0 (Background)
//Storyboard Layer 1 (Fail)
//Storyboard Layer 2 (Pass)
//Storyboard Layer 3 (Foreground)
//Storyboard Sound Samples

[TimingPoints]
180,350.877192982456,4,2,1,100,1,0
11408,-125,4,2,1,30,0,0
22636,-111.111111111111,4,2,1,45,0,0
28250,-111.111111111111,4,2,1,55,0,0
31057,-111.111111111111,4,3,1,35,0,0
32460,-111.111111111111,4,3,1,40,0,0
32811,-111.111111111111,4,3,1,45,0,0
33162,-111.111111111111,4,3,1,50,0,0
33864,-100,4,2,1,70,0,1
33886,-100,4,2,1,70,0,0
45092,-100,4,2,1,70,0,1
45114,-100,4,2,1,70,0,0
53513,-100,4,2,1,50,0,0
54916,-100,4,3,1,35,0,0
55267,-100,4,3,1,40,0,0
55618,-100,4,3,1,45,0,0
55969,-200,4,3,1,45,0,0
56057,-200,4,3,1,5,0,0
56320,-90.9090909090909,4,2,1,85,0,1
61583,-200,4,2,1,85,0,1
61846,-200,4,3,1,5,0,1
61934,-90.9090909090909,4,2,1,85,0,1
72811,-200,4,2,1,85,0,1
73074,-200,4,3,1,5,0,1
73162,-90.9090909090909,4,2,1,85,0,1
78776,-100,4,2,1,100,0,0

[Colours]
Combo1 : 167,82,148
Combo2 : 242,193,134
Combo3 : 255,113,130

[HitObjects]
382,240,11408,6,0,B|396:103,1,128,2|0,0:0|0:0,0:0:0:0:
291,33,11934,1,0,0:0:0:0:
234,108,12109,2,0,L|243:184,1,64
291,33,12460,1,0,0:0:0:0:
291,33,12811,5,2,0:0:0:0:
287,185,12987,1,0,0:0:0:0:
234,108,13162,2,0,P|203:97|168:100,1,64
55,163,13513,2,0,L|60:290,1,128,0|0,0:0|0:0,0:0:0:0:
211,339,14215,5,2,0:0:0:0:
157,263,14390,1,0,0:0:0:0:
233,209,14565,1,0,0:0:0:0:
287,285,14741,1,0,0:0:0:0:
417,307,14916,2,0,P|449:303|479:280,1,64
474,285,15443,1,2,0:0:0:0:
464,129,17022,6,0,L|327:124,1,128,2|0,0:0|0:0,0:0:0:0:
212,51,17548,1,0,0:0:0:0:
146,112,17723,2,0,P|139:145|147:193,2,64,0|0|0,0:0|0:0|0:0,0:0:0:0:
178,261,18425,6,0,P|145:269|106:262,1,64,2|0,0:0|0:0,0:0:0:0:
64,127,18776,1,0,0:0:0:0:
39,215,18951,1,0,0:0:0:0:
107,278,19127,2,0,P|139:281|170:274,1,64
249,142,19478,1,0,0:0:0:0:
332,200,19653,1,0,0:0:0:0:
332,200,19741,1,0,0:0:0:0:
332,200,19829,6,0,L|329:290,1,64,2|0,0:0|0:0,0:0:0:0:
454,331,20179,2,0,L|456:267,1,64,0|0,0:0|0:0,0:0:0:0:
390,135,20530,2,0,P|363:116|327:112,1,64
332,111,21057,1,2,0:0:0:0:
90,159,21934,6,0,L|8:170,1,64
107,333,22460,1,0,0:0:0:0:
107,333,22636,6,0,L|191:344,1,71.9999978027344,4|0,0:0|0:0,0:0:0:0:
282,355,22987,2,0,B|356:376|356:332|426:356,1,143.999995605469,2|0,0:1|0:0,0:0:0:0:
498,288,23513,1,2,0:1:0:0:
457,196,23688,1,0,0:0:0:0:
356,206,23864,1,0,0:0:0:0:
356,206,23951,1,0,0:0:0:0:
356,206,24039,6,0,P|324:218|277:215,1,71.9999978027344,0|0,0:0|0:0,0:0:0:0:
214,144,24390,2,0,P|245:202|217:280,1,143.999995605469,2|0,0:1|0:0,0:0:0:0:
348,355,24916,1,2,0:1:0:0:
223,273,25092,1,0,0:0:0:0:
356,206,25267,6,0,L|366:38,1,143.999995605469,0|0,0:0|0:0,0:0:0:0:
454,28,25794,1,2,0:1:0:0:
267,63,25969,2,0,P|196:74|135:35,1,143.999995605469,0|2,0:0|0:1,0:0:0:0:
37,33,26495,2,0,L|39:110,1,71.9999978027344
91,239,26846,5,0,0:0:0:0:
132,146,27022,1,0,0:0:0:0:
167,307,27197,2,0,P|199:319|243:316,1,71.9999978027344,2|0,0:1|0:0,0:0:0:0:
236,318,27460,1,0,0:0:0:0:
236,318,27548,1,0,0:0:0:0:
323,178,27723,1,2,0:1:0:0:
221,215,27899,1,0,0:0:0:0:
338,281,28074,1,0,0:0:0:0:
338,281,28162,1,0,0:0:0:0:
338,281,28250,6,0,L|333:374,1,71.9999978027344
481,314,28601,2,0,L|484:242,1,71.9999978027344,2|0,0:1|0:0,0:0:0:0:
484,242,28864,1,0,0:0:0:0:
483,242,28951,1,0,0:0:0:0:
311,185,29127,1,2,0:1:0:0:
488,128,29302,1,0,0:0:0:0:
377,95,29478,1,0,0:0:0:0:
377,95,29565,1,0,0:0:0:0:
377,95,29653,6,0,P|345:78|302:74,1,71.9999978027344
123,76,30004,1,2,0:1:0:0:
215,7,30179,1,0,0:0:0:0:
215,7,30267,1,0,0:0:0:0:
215,7,30355,1,0,0:0:0:0:
123,76,30530,1,2,0:1:0:0:
160,184,30706,2,0,B|169:249|169:249|145:288,1,107.999996704102
147,285,31057,5,0,0:0:0:0:
213,355,31232,1,0,0:0:0:0:
299,314,31408,1,0,0:0:0:0:
286,219,31583,1,0,0:0:0:0:
191,202,31758,5,0,0:0:0:0:
191,202,31934,1,0,0:0:0:0:
330,134,32109,1,0,0:0:0:0:
330,134,32285,1,0,0:0:0:0:
202,47,32461,5,0,0:0:0:0:
175,45,32548,1,0,0:0:0:0:
149,52,32636,1,0,0:0:0:0:
126,67,32724,1,0,0:0:0:0:
110,88,32812,6,0,L|114:154,1,35.9999989013672
170,183,32988,2,0,L|174:249,1,35.9999989013672,0|0,0:0|0:0,0:0:0:0:
164,298,33163,5,0,0:0:0:0:
148,319,33250,1,0,0:0:0:0:
125,334,33338,1,0,0:0:0:0:
99,341,33426,1,0,0:0:0:0:
72,339,33513,1,0,0:0:0:0:
286,281,33864,6,0,P|353:236|436:255,1,160,4|8,0:0|0:0,0:0:0:0:
408,116,34390,2,0,L|403:76,3,40
397,32,34740,1,8,0:0:0:0:
512,108,34916,1,0,0:0:0:0:
299,134,35092,1,0,0:0:0:0:
299,134,35179,1,0,0:0:0:0:
299,134,35267,6,0,L|296:232,1,80,0|0,3:0|0:0,0:0:0:0:
391,283,35618,1,8,0:0:0:0:
292,339,35794,1,0,0:0:0:0:
292,339,35881,1,0,0:0:0:0:
292,339,35969,1,0,0:0:0:0:
197,269,36144,1,8,0:0:0:0:
297,214,36320,1,0,0:0:0:0:
114,191,36495,1,0,0:0:0:0:
114,191,36583,1,0,0:0:0:0:
114,191,36671,6,0,L|100:25,1,160,4|8,0:1|0:0,0:0:0:0:
235,17,37197,2,0,L|230:77,3,40
228,101,37547,1,8,0:0:0:0:
387,133,37723,1,0,0:0:0:0:
323,36,37899,1,0,0:0:0:0:
291,196,38074,6,0,P|320:226|356:242,1,80,0|0,3:0|0:0,0:0:0:0:
500,132,38425,1,8,0:0:0:0:
467,240,38601,2,0,L|478:303,3,40
483,323,38951,1,8,0:0:0:0:
355,242,39127,1,0,0:0:0:0:
238,338,39302,1,0,0:0:0:0:
238,338,39390,1,0,0:0:0:0:
238,338,39478,6,0,B|184:362|184:362|64:341,1,160,4|8,0:0|0:0,0:0:0:0:
2,259,40004,1,0,0:0:0:0:
2,259,40092,1,0,0:0:0:0:
2,259,40179,1,0,0:0:0:0:
58,155,40355,1,8,0:0:0:0:
174,176,40530,2,0,L|227:187,3,40
255,168,40881,6,0,P|274:132|274:87,1,80,0|0,3:0|0:0,0:0:0:0:
191,21,41231,1,8,0:0:0:0:
369,35,41407,2,0,L|418:16,3,40
446,0,41757,1,8,0:0:0:0:
467,132,41933,1,0,0:0:0:0:
342,180,42108,1,0,0:0:0:0:
342,180,42196,1,0,0:0:0:0:
342,180,42284,6,0,P|304:188|272:212,1,80,4|0,0:1|0:0,0:0:0:0:
445,254,42636,1,8,0:0:0:0:
348,288,42810,1,0,0:0:0:0:
348,288,42899,1,0,0:0:0:0:
348,288,42987,1,0,0:0:0:0:
426,356,43162,1,8,0:0:0:0:
255,316,43337,2,0,P|235:318|206:329,3,40
173,340,43688,6,0,L|78:327,1,80,0|0,3:0|0:0,0:0:0:0:
0,226,44039,2,0,L|79:215,1,80,8|0,0:0|0:0,0:0:0:0:
193,192,44390,1,2,0:0:0:0:
236,25,44565,1,10,0:0:0:0:
299,185,44741,1,2,0:0:0:0:
154,92,44916,1,2,0:0:0:0:
323,88,45092,6,0,B|404:61|404:117|480:87,1,160,4|8,0:0|0:0,0:0:0:0:
372,175,45618,1,0,0:0:0:0:
372,175,45706,1,0,0:0:0:0:
372,175,45794,1,0,0:0:0:0:
441,6,45969,1,8,0:0:0:0:
497,185,46144,2,0,L|492:259,3,40
488,270,46495,6,0,P|448:285|408:280,1,80,0|0,3:0|0:0,0:0:0:0:
284,171,46846,1,8,0:0:0:0:
323,335,47022,1,0,0:0:0:0:
323,335,47109,1,0,0:0:0:0:
323,335,47197,1,0,0:0:0:0:
388,180,47372,1,8,0:0:0:0:
244,268,47547,2,0,P|227:280|198:286,3,40
163,290,47899,6,0,B|64:277,1,80,4|0,0:1|0:0,0:0:0:0:
0,141,48249,2,0,B|99:128,1,80,8|0,0:0|0:0,0:0:0:0:
79,130,48512,1,0,0:0:0:0:
79,130,48600,1,0,0:0:0:0:
180,15,48775,1,8,0:0:0:0:
228,159,48951,2,0,P|222:183|211:203,3,40
195,237,49302,6,0,P|191:275|211:316,1,80,0|0,3:0|0:0,0:0:0:0:
383,257,49653,1,8,0:0:0:0:
315,349,49828,1,0,0:0:0:0:
315,349,49915,1,0,0:0:0:0:
315,349,50003,1,0,0:0:0:0:
317,164,50178,1,8,0:0:0:0:
431,154,50355,1,0,0:0:0:0:
383,257,50530,1,0,0:0:0:0:
383,257,50618,1,0,0:0:0:0:
383,257,50706,6,0,L|220:253,1,160,4|8,0:0|0:0,0:0:0:0:
317,164,51232,1,0,0:0:0:0:
317,164,51320,1,0,0:0:0:0:
317,164,51408,1,0,0:0:0:0:
492,223,51583,1,8,0:0:0:0:
383,257,51758,1,0,0:0:0:0:
426,130,51934,1,0,0:0:0:0:
426,130,52022,1,0,0:0:0:0:
426,130,52109,6,0,P|439:91|432:46,1,80,0|0,3:0|0:0,0:0:0:0:
260,37,52460,2,0,L|360:18,1,80,8|0,0:0|0:0,0:0:0:0:
338,22,52723,1,0,0:0:0:0:
338,22,52811,1,0,0:0:0:0:
317,164,52987,1,8,0:0:0:0:
208,142,53162,2,0,L|141:155,3,40
125,162,53513,5,2,0:0:0:0:
94,253,53688,1,2,0:0:0:0:
172,311,53864,1,2,0:0:0:0:
251,255,54039,1,2,0:0:0:0:
222,163,54215,5,2,0:0:0:0:
222,163,54390,1,2,0:0:0:0:
172,311,54565,1,2,0:0:0:0:
172,311,54741,1,2,0:0:0:0:
125,162,54916,6,0,L|60:144,3,40
222,163,55267,2,0,L|260:173,3,40
175,78,55618,5,0,0:0:0:0:
193,70,55705,1,0,0:0:0:0:
212,66,55793,1,0,0:0:0:0:
232,67,55881,1,0,0:0:0:0:
251,74,55969,6,0,L|315:95,1,60
384,116,56320,6,0,P|411:80|413:31,1,88.000002685547,4|0,0:0|0:0,0:0:0:0:
326,171,56671,1,8,0:0:0:0:
460,182,56846,1,0,0:0:0:0:
460,182,56934,1,0,0:0:0:0:
460,182,57022,1,0,0:0:0:0:
328,51,57197,1,8,0:0:0:0:
187,118,57372,2,0,L|175:184,3,44.0000013427735
144,197,57723,6,0,L|125:290,1,88.000002685547,0|0,3:0|0:0,0:0:0:0:
257,350,58074,2,0,L|274:263,1,88.000002685547,8|0,0:0|0:0,0:0:0:0:
274,263,58337,1,0,0:0:0:0:
274,263,58425,1,0,0:0:0:0:
126,283,58601,1,8,0:0:0:0:
51,167,58776,2,0,P|46:142|31:114,3,44.0000013427735
44,76,59127,6,0,P|71:42|119:26,1,88.000002685547,4|0,0:1|0:0,0:0:0:0:
245,38,59478,1,8,0:0:0:0:
139,134,59653,1,0,0:0:0:0:
139,134,59741,1,0,0:0:0:0:
139,134,59829,1,0,0:0:0:0:
191,269,60004,1,8,0:0:0:0:
344,257,60179,2,0,L|386:261,3,44.0000013427735
429,249,60530,6,0,P|455:216|457:169,1,88.000002685547,0|0,3:0|0:0,0:0:0:0:
403,49,60881,2,0,L|285:58,1,88.000002685547,8|0,0:0|0:0,0:0:0:0:
237,142,61233,1,2,0:0:0:0:
239,171,61319,1,0,0:0:0:0:
252,198,61408,1,10,0:0:0:0:
274,218,61495,1,0,0:0:0:0:
302,229,61583,6,0,L|298:303,1,60
240,343,61934,6,0,B|196:355|196:355|148:349,1,88.000002685547,4|0,0:0|0:0,0:0:0:0:
114,150,62285,1,8,0:0:0:0:
184,257,62460,1,0,0:0:0:0:
184,257,62548,1,0,0:0:0:0:
184,257,62636,1,0,0:0:0:0:
56,264,62811,1,8,0:0:0:0:
127,59,62987,2,0,P|151:65|167:75,3,44.0000013427735
199,108,63337,6,0,P|238:136|290:135,1,88.000002685547,0|0,3:0|0:0,0:0:0:0:
402,258,63688,2,0,P|406:210|379:165,1,88.000002685547,8|0,0:0|0:0,0:0:0:0:
389,175,63951,1,0,0:0:0:0:
389,175,64039,1,0,0:0:0:0:
241,240,64215,1,8,0:0:0:0:
336,308,64390,2,0,L|341:352,3,44.0000013427735
381,368,64741,6,0,P|428:369|472:342,1,88.000002685547,4|0,0:1|0:0,0:0:0:0:
482,198,65092,2,0,L|477:81,1,88.000002685547,8|0,0:0|0:0,0:0:0:0:
479,111,65355,1,0,0:0:0:0:
479,111,65443,1,0,0:0:0:0:
370,32,65618,1,8,0:0:0:0:
237,72,65794,2,0,P|215:68|195:60,3,44.0000013427735
150,41,66144,6,0,P|95:37|52:60,1,88.000002685547,0|0,3:0|0:0,0:0:0:0:
119,146,66495,2,0,L|122:241,1,88.000002685547,8|0,0:0|0:0,0:0:0:0:
122,234,66758,1,0,0:0:0:0:
122,234,66846,1,0,0:0:0:0:
8,254,67022,1,8,0:0:0:0:
155,311,67197,2,0,P|174:301|190:286,3,44.0000013427735
210,247,67548,6,0,L|207:154,1,88.000002685547,4|0,0:0|0:0,0:0:0:0:
130,66,67899,1,8,0:0:0:0:
295,105,68074,1,0,0:0:0:0:
295,105,68162,1,0,0:0:0:0:
295,105,68250,1,0,0:0:0:0:
424,68,68424,1,8,0:0:0:0:
429,209,68601,2,0,L|473:215,3,44.0000013427735
500,252,68951,6,0,P|506:302|485:343,1,88.000002685547,0|0,3:0|0:0,0:0:0:0:
306,248,69302,1,8,0:0:0:0:
323,363,69478,1,0,0:0:0:0:
323,363,69565,1,0,0:0:0:0:
323,363,69653,1,0,0:0:0:0:
418,288,69828,1,8,0:0:0:0:
206,330,70004,2,0,L|162:336,3,44.0000013427735
119,337,70355,6,0,P|81:310|66:267,1,88.000002685547,4|0,0:1|0:0,0:0:0:0:
190,153,70706,1,8,0:0:0:0:
160,263,70881,1,0,0:0:0:0:
160,263,70969,1,0,0:0:0:0:
160,263,71057,1,0,0:0:0:0:
271,234,71232,1,8,0:0:0:0:
77,172,71408,2,0,L|71:127,3,44.0000013427735
86,82,71758,6,0,P|121:45|173:33,1,88.000002685547,0|0,3:0|0:0,0:0:0:0:
299,51,72109,2,0,L|291:173,1,88.000002685547,8|0,0:0|0:0,0:0:0:0:
234,247,72461,1,2,0:0:0:0:
204,242,72547,1,0,0:0:0:0:
177,227,72636,1,10,0:0:0:0:
157,205,72723,1,0,0:0:0:0:
146,178,72811,6,0,L|79:189,1,60
30,248,73162,6,0,B|18:295|18:295|30:354,1,88.000002685547,4|0,0:0|0:0,0:0:0:0:
210,293,73513,2,0,P|166:283|120:299,1,88.000002685547,8|0,0:0|0:0,0:0:0:0:
126,295,73776,1,0,0:0:0:0:
126,295,73864,1,0,0:0:0:0:
171,383,74039,1,8,0:0:0:0:
300,282,74215,2,0,L|312:240,3,44.0000013427735
349,225,74565,6,0,L|374:122,1,88.000002685547,0|0,3:0|0:0,0:0:0:0:
427,48,74916,2,0,P|386:31|343:33,1,88.000002685547,8|0,0:0|0:0,0:0:0:0:
343,33,75179,1,0,0:0:0:0:
343,33,75267,1,0,0:0:0:0:
252,118,75443,1,8,0:0:0:0:
119,106,75618,2,0,P|95:96|73:76,3,44.0000013427735
40,101,75969,6,0,L|49:208,1,88.000002685547,4|0,0:1|0:0,0:0:0:0:
176,297,76320,2,0,L|183:210,1,88.000002685547,8|0,0:0|0:0,0:0:0:0:
183,210,76583,1,0,0:0:0:0:
183,210,76671,1,0,0:0:0:0:
287,112,76846,1,8,0:0:0:0:
366,232,77022,2,0,L|370:275,3,44.0000013427735
405,302,77372,6,0,P|453:308|501:282,1,88.000002685547,0|0,3:0|0:0,0:0:0:0:
432,185,77723,2,0,L|439:97,1,88.000002685547,8|0,0:0|0:0,0:0:0:0:
439,97,77987,1,0,0:0:0:0:
439,97,78074,1,0,0:0:0:0:
510,12,78250,1,8,0:0:0:0:
336,55,78425,2,0,P|309:53|278:40,3,44.0000013427735
253,30,78776,5,4,0:0:0:0:
