osu file format v14

[General]
AudioFilename: music.mp3
AudioLeadIn: 0
PreviewTime: 33074
Countdown: 0
SampleSet: Soft
StackLeniency: 0.8
Mode: 0
LetterboxInBreaks: 0
WidescreenStoryboard: 0

[Editor]
DistanceSpacing: 1.4
BeatDivisor: 4
GridSize: 32
TimelineZoom: 1.8

[Metadata]
Title:Changing
TitleUnicode:Changing
Artist:Sigma ft. Paloma Faith
ArtistUnicode:Sigma ft. Paloma Faith
Creator:Exote
Version:Hard
Source:
Tags:dnb drum and bass life edm 3beat all around the world
BeatmapID:783427
BeatmapSetID:353546

[Difficulty]
HPDrainRate:5
CircleSize:3.8
OverallDifficulty:6
ApproachRate:8
SliderMultiplier:1.4
SliderTickRate:1

[Events]
//Background and Video events
0,0,"bg.jpg",0,0
//Break Periods
//Storyboard Layer 0 (Background)
//Storyboard Layer 1 (Fail)
//Storyboard Layer 2 (Pass)
//Storyboard Layer 3 (Foreground)
//Storyboard Sound Samples

[TimingPoints]
180,350.877192982456,4,2,1,100,1,0
11408,-125,4,2,1,30,0,0
22636,-125,4,2,1,45,0,0
28250,-125,4,2,1,55,0,0
31057,-125,4,3,1,35,0,0
32460,-125,4,3,1,40,0,0
32811,-125,4,3,1,45,0,0
33162,-125,4,3,1,50,0,0
33864,-100,4,2,1,70,0,1
33886,-100,4,2,1,70,0,0
45092,-100,4,2,1,70,0,1
45114,-100,4,2,1,70,0,0
53513,-100,4,2,1,50,0,0
54916,-100,4,3,1,35,0,0
55267,-100,4,3,1,40,0,0
55618,-100,4,3,1,45,0,0
56320,-100,4,2,1,85,0,1
78776,-100,4,2,1,100,0,0

[Colours]
Combo1 : 167,82,148
Combo2 : 242,193,134
Combo3 : 255,113,130

[HitObjects]
417,189,11408,6,0,L|423:77,1,112,2|0,0:0|0:0,0:0:0:0:
363,25,11934,1,0,0:0:0:0:
294,65,12109,2,0,P|263:62|231:48,2,56
296,222,12811,6,0,L|302:291,1,56,2|0,0:0|0:0,0:0:0:0:
242,331,13162,2,0,P|215:321|187:319,1,56
121,277,13513,2,0,L|129:153,1,112
209,30,14215,6,0,P|238:24|270:30,2,56,2|0|0,0:0|0:0|0:0,0:0:0:0:
164,94,14741,1,0,0:0:0:0:
241,103,14916,2,0,L|248:184,1,56
245,158,15443,1,2,0:0:0:0:
150,284,17022,6,0,P|201:307|261:294,1,112,2|0,0:0|0:0,0:0:0:0:
312,247,17548,1,0,0:0:0:0:
378,286,17723,2,0,P|407:289|434:299,2,56
442,142,18425,6,0,L|454:80,1,56,2|0,0:0|0:0,0:0:0:0:
401,26,18776,2,0,P|372:26|340:16,1,56
282,65,19127,2,0,L|292:119,1,56
246,183,19478,2,0,P|218:176|186:179,1,56
212,253,19829,6,0,L|201:307,1,56,2|0,0:0|0:0,0:0:0:0:
257,361,20179,2,0,P|284:354|317:357,1,56
389,346,20530,2,0,P|395:319|393:286,1,56
393,290,21057,1,2,0:0:0:0:
305,150,21934,6,0,L|377:156,1,56
462,54,22460,1,0,0:0:0:0:
462,55,22636,6,0,L|390:61,1,56,4|0,0:0|0:0,0:0:0:0:
326,68,22987,2,0,L|200:63,1,112,2|0,0:1|0:0,0:0:0:0:
148,20,23513,1,2,0:1:0:0:
85,66,23688,1,0,0:0:0:0:
115,143,23864,1,0,0:0:0:0:
115,143,24039,6,0,L|111:214,1,56
52,250,24390,2,0,P|93:275|156:263,1,112,2|0,0:1|0:0,0:0:0:0:
218,220,24916,2,0,L|221:164,1,56,2|0,0:1|0:0,0:0:0:0:
291,129,25267,6,0,L|284:3,1,112
208,39,25794,1,2,0:1:0:0:
208,39,25969,2,0,P|161:61|103:54,1,112,0|2,0:0|0:1,0:0:0:0:
35,95,26495,1,0,0:0:0:0:
55,172,26671,1,0,0:0:0:0:
2,229,26846,6,0,P|22:243|57:250,1,56,0|0,0:0|0:0,0:0:0:0:
129,236,27197,1,2,0:1:0:0:
184,181,27372,2,0,L|181:132,2,28,0|0|0,0:0|0:0|0:0,0:0:0:0:
253,216,27723,1,2,0:1:0:0:
235,292,27899,1,0,0:0:0:0:
311,327,28074,1,0,0:0:0:0:
311,327,28250,6,0,L|371:331,1,56,0|0,0:0|0:0,0:0:0:0:
441,306,28601,2,0,P|417:260|429:204,1,112,2|0,0:1|0:0,0:0:0:0:
490,154,29127,1,2,0:1:0:0:
463,81,29302,1,0,0:0:0:0:
385,84,29478,6,0,B|346:94|346:94|267:80,1,112,0|0,0:0|0:0,0:0:0:0:
215,29,30004,1,2,0:1:0:0:
146,70,30179,2,0,P|130:119|157:175,1,112,0|2,0:0|0:1,0:0:0:0:
129,247,30706,2,0,L|58:256,1,56,0|0,0:0|0:0,0:0:0:0:
27,190,31057,6,0,P|6:169|-5:141,1,56
71,126,31408,2,0,P|84:99|107:80,1,56
145,148,31758,2,0,P|174:152|199:168,1,56
146,225,32109,2,0,P|150:254|143:283,1,56
198,336,32460,6,0,L|245:342,3,28
271,361,32811,2,0,L|318:367,3,28
344,342,33162,2,0,L|391:348,3,28
417,367,33513,1,0,0:0:0:0:
361,232,33864,6,0,L|365:147,1,70,4|0,0:0|0:0,0:0:0:0:
447,109,34215,2,0,P|404:71|319:73,1,140,8|0,0:0|0:0,0:0:0:0:
241,122,34741,1,8,0:0:0:0:
166,60,34916,1,0,0:0:0:0:
83,112,35092,1,0,0:0:0:0:
83,112,35267,6,0,L|79:181,1,70,0|0,3:0|0:0,0:0:0:0:
17,258,35618,2,0,P|76:223|147:241,1,140,8|0,0:0|0:0,0:0:0:0:
175,145,36144,1,8,0:0:0:0:
271,127,36320,1,0,0:0:0:0:
334,201,36495,1,0,0:0:0:0:
334,201,36671,6,0,P|365:214|412:212,1,70,4|0,0:1|0:0,0:0:0:0:
498,228,37022,1,8,0:0:0:0:
448,310,37197,1,0,0:0:0:0:
448,310,37372,2,0,P|417:323|370:321,1,70,0|8,0:0|0:0,0:0:0:0:
290,286,37723,1,0,0:0:0:0:
227,362,37899,1,0,0:0:0:0:
135,325,38074,6,0,L|131:239,1,70,0|0,3:0|0:0,0:0:0:0:
47,204,38425,1,8,0:0:0:0:
98,120,38601,1,0,0:0:0:0:
98,120,38776,2,0,P|134:122|172:109,1,70,0|8,0:0|0:0,0:0:0:0:
248,58,39127,1,0,0:0:0:0:
271,152,39302,1,0,0:0:0:0:
348,95,39478,6,0,P|412:65|485:91,1,140,4|8,0:0|0:0,0:0:0:0:
421,166,40004,2,0,L|432:313,1,140,0|8,0:0|0:0,0:0:0:0:
335,283,40530,1,0,0:0:0:0:
285,368,40706,1,0,0:0:0:0:
285,368,40881,6,0,P|251:357|212:362,1,70,0|0,3:0|0:0,0:0:0:0:
119,357,41232,2,0,B|101:274|101:274|115:214,1,140,8|0,0:0|0:0,0:0:0:0:
75,129,41758,1,8,0:0:0:0:
150,65,41934,1,0,0:0:0:0:
234,116,42109,1,0,0:0:0:0:
234,116,42285,6,0,P|269:127|307:124,1,70,4|0,0:1|0:0,0:0:0:0:
399,110,42636,1,8,0:0:0:0:
444,199,42811,1,0,0:0:0:0:
444,199,42987,2,0,L|430:290,1,70,0|8,0:0|0:0,0:0:0:0:
356,328,43337,1,0,0:0:0:0:
276,274,43513,1,0,0:0:0:0:
200,334,43688,6,0,P|165:345|127:342,1,70,0|0,3:0|0:0,0:0:0:0:
52,285,44039,2,0,L|41:215,1,70,8|0,0:0|0:0,0:0:0:0:
93,130,44390,1,2,0:0:0:0:
176,181,44565,1,10,0:0:0:0:
250,117,44741,1,2,0:0:0:0:
211,26,44916,1,2,0:0:0:0:
112,34,45092,6,0,P|35:48|-2:96,1,140,4|8,0:0|0:0,0:0:0:0:
93,130,45618,2,0,B|149:137|149:137|179:130|179:130|233:138,1,140,0|8,0:0|0:0,0:0:0:0:
323,172,46144,1,0,0:0:0:0:
385,96,46320,1,0,0:0:0:0:
476,131,46495,6,0,L|472:229,1,70,0|0,3:0|0:0,0:0:0:0:
446,295,46846,2,0,P|390:264|319:285,1,140,8|0,0:0|0:0,0:0:0:0:
240,341,47372,2,0,P|207:353|162:348,1,70,8|0,0:0|0:0,0:0:0:0:
78,323,47723,1,0,0:0:0:0:
78,323,47899,6,0,L|70:243,1,70,4|0,0:1|0:0,0:0:0:0:
60,155,48250,1,8,0:0:0:0:
51,57,48425,2,0,B|97:39|97:39|196:54,1,140,0|8,0:0|0:0,0:0:0:0:
260,117,48951,1,0,0:0:0:0:
338,60,49127,1,0,0:0:0:0:
338,60,49302,6,0,L|418:56,1,70,0|0,3:0|0:0,0:0:0:0:
470,131,49653,2,0,P|456:196|496:263,1,140,8|0,0:0|0:0,0:0:0:0:
426,333,50179,1,8,0:0:0:0:
335,295,50355,1,0,0:0:0:0:
343,196,50530,1,0,0:0:0:0:
439,173,50706,6,0,B|454:90|454:90|441:34,1,140,4|8,0:0|0:0,0:0:0:0:
343,44,51232,2,0,P|284:71|214:51,1,140,0|8,0:0|0:0,0:0:0:0:
122,15,51758,1,0,0:0:0:0:
58,91,51934,1,0,0:0:0:0:
58,91,52109,6,0,L|61:172,1,70,0|0,3:0|0:0,0:0:0:0:
5,242,52460,2,0,P|68:258|138:222,1,140,8|0,0:0|0:0,0:0:0:0:
155,130,52987,1,8,0:0:0:0:
254,120,53162,1,0,0:0:0:0:
294,211,53337,1,0,0:0:0:0:
294,211,53513,6,2,P|308:246|343:272,1,70,2|0,0:0|0:0,0:0:0:0:
219,278,53864,2,0,P|189:303|175:343,1,70,2|2,0:0|0:0,0:0:0:0:
132,227,54215,2,0,P|99:207|56:206,1,70,2|2,0:0|0:0,0:0:0:0:
155,130,54565,2,0,P|163:92|151:51,1,70,2|2,0:0|0:0,0:0:0:0:
132,227,54916,6,0,P|126:245|129:272,3,35
114,306,55267,2,0,P|129:317|155:322,3,35
183,347,55618,2,0,P|198:335|211:312,3,35
243,293,55969,1,0,0:0:0:0:
183,140,56320,6,0,L|172:45,1,70,4|0,0:0|0:0,0:0:0:0:
89,22,56671,1,8,0:0:0:0:
19,90,56846,2,0,L|15:135,2,35
89,22,57197,1,8,0:0:0:0:
175,71,57372,2,0,P|210:83|251:79,1,70
338,101,57723,6,0,L|329:170,1,70,0|0,3:0|0:0,0:0:0:0:
385,251,58074,1,8,0:0:0:0:
286,258,58250,2,0,L|241:263,2,35,0|0|0,0:0|0:0|0:0,0:0:0:0:
385,251,58601,1,8,0:0:0:0:
421,160,58776,2,0,P|438:123|438:87,1,70,0|0,0:0|0:0,0:0:0:0:
382,9,59127,5,4,0:1:0:0:
338,101,59302,1,0,0:0:0:0:
236,87,59478,1,8,0:0:0:0:
191,179,59653,2,0,L|197:226,2,35,0|0|0,0:0|0:0|0:0,0:0:0:0:
236,87,60004,1,8,0:0:0:0:
144,42,60179,1,0,0:0:0:0:
99,134,60355,1,0,0:0:0:0:
99,134,60530,6,0,L|91:218,1,70,0|0,3:0|0:0,0:0:0:0:
120,297,60881,2,0,P|155:296|190:312,1,70,8|0,0:0|0:0,0:0:0:0:
273,354,61232,1,2,0:0:0:0:
341,285,61408,1,10,0:0:0:0:
296,199,61583,1,0,0:0:0:0:
296,199,61934,6,0,L|302:129,1,70,4|0,0:0|0:0,0:0:0:0:
375,64,62285,2,0,P|412:70|451:59,1,70,8|0,0:0|0:0,0:0:0:0:
443,62,62548,1,0,0:0:0:0:
443,62,62636,2,0,L|449:132,1,70,0|8,0:0|0:0,0:0:0:0:
396,214,62987,1,0,0:0:0:0:
470,278,63162,1,0,0:0:0:0:
435,369,63337,6,0,P|401:367|363:351,1,70,0|0,3:0|0:0,0:0:0:0:
325,265,63688,2,0,L|237:272,1,70,8|0,0:0|0:0,0:0:0:0:
255,270,63951,1,0,0:0:0:0:
255,270,64039,2,0,P|236:302|232:339,1,70,0|8,0:0|0:0,0:0:0:0:
138,364,64390,1,0,0:0:0:0:
82,288,64565,1,0,0:0:0:0:
146,213,64741,6,0,P|165:181|169:144,1,70,4|0,0:1|0:0,0:0:0:0:
71,151,65092,1,8,0:0:0:0:
118,63,65267,1,0,0:0:0:0:
118,63,65443,2,0,L|208:58,1,70,0|8,0:0|0:0,0:0:0:0:
267,117,65794,1,0,0:0:0:0:
346,59,65969,1,0,0:0:0:0:
425,116,66144,6,0,P|412:147|412:192,1,70,0|0,3:0|0:0,0:0:0:0:
389,271,66495,1,8,0:0:0:0:
299,279,66671,1,0,0:0:0:0:
299,279,66846,2,0,L|223:270,1,70,0|8,0:0|0:0,0:0:0:0:
159,332,67197,1,0,0:0:0:0:
159,332,67548,6,0,P|127:319|86:319,1,70,4|0,0:0|0:0,0:0:0:0:
22,248,67899,1,8,0:0:0:0:
66,159,68074,2,0,L|60:110,2,35,0|0|0,0:0|0:0|0:0,0:0:0:0:
164,173,68425,1,8,0:0:0:0:
181,271,68601,1,0,0:0:0:0:
279,286,68776,1,0,0:0:0:0:
279,286,68951,6,0,L|373:291,1,70,0|0,3:0|0:0,0:0:0:0:
436,245,69302,1,8,0:0:0:0:
354,191,69478,2,0,L|305:194,2,35,0|0|0,0:0|0:0|0:0,0:0:0:0:
436,245,69829,1,8,0:0:0:0:
493,165,70004,2,0,P|505:132|501:92,1,70,0|0,0:0|0:0,0:0:0:0:
427,34,70355,6,0,L|344:28,1,70,4|0,0:1|0:0,0:0:0:0:
276,85,70706,1,8,0:0:0:0:
194,30,70881,2,0,L|135:38,2,35
276,85,71232,1,8,0:0:0:0:
207,149,71408,2,0,P|167:150|135:137,1,70,0|0,0:0|0:0,0:0:0:0:
44,115,71758,6,0,L|49:206,1,70,0|0,3:0|0:0,0:0:0:0:
90,273,72109,2,0,P|130:272|162:285,1,70,8|0,0:0|0:0,0:0:0:0:
242,332,72460,1,2,0:0:0:0:
291,248,72636,1,10,0:0:0:0:
207,199,72811,1,0,0:0:0:0:
207,199,73162,6,0,L|203:111,1,70,4|0,0:0|0:0,0:0:0:0:
153,56,73513,2,0,P|122:45|77:47,1,70,8|0,0:0|0:0,0:0:0:0:
86,46,73776,1,0,0:0:0:0:
86,46,73864,2,0,L|89:115,1,70,0|8,0:0|0:0,0:0:0:0:
113,211,74215,1,0,0:0:0:0:
30,263,74390,1,0,0:0:0:0:
53,358,74565,6,0,L|134:364,1,70,0|0,3:0|0:0,0:0:0:0:
211,319,74916,2,0,P|230:283|226:235,1,70,8|0,0:0|0:0,0:0:0:0:
231,254,75179,1,0,0:0:0:0:
231,254,75267,2,0,L|224:155,1,70,0|8,0:0|0:0,0:0:0:0:
192,91,75618,1,0,0:0:0:0:
266,24,75794,1,0,0:0:0:0:
350,77,75969,6,0,P|408:114|483:99,1,140,4|8,0:1|0:0,0:0:0:0:
480,201,76495,2,0,L|488:244,2,35,0|0|0,0:0|0:0|0:0,0:0:0:0:
383,206,76846,1,8,0:0:0:0:
358,300,77022,2,0,L|352:381,1,70,0|0,0:0|0:0,0:0:0:0:
269,318,77372,5,0,3:0:0:0:
193,381,77548,1,0,0:0:0:0:
109,328,77723,1,8,0:0:0:0:
133,231,77899,2,0,L|137:168,2,35
109,328,78250,1,8,0:0:0:0:
193,381,78425,1,0,0:0:0:0:
269,318,78601,1,0,0:0:0:0:
232,226,78776,5,4,0:0:0:0:
