osu file format v14

[General]
AudioFilename: music.mp3
AudioLeadIn: 0
PreviewTime: 33074
Countdown: 0
SampleSet: Soft
StackLeniency: 0.8
Mode: 0
LetterboxInBreaks: 0
WidescreenStoryboard: 0

[Editor]
DistanceSpacing: 1
BeatDivisor: 4
GridSize: 32
TimelineZoom: 1.62

[Metadata]
Title:Changing
TitleUnicode:Changing
Artist:Sigma ft. Paloma Faith
ArtistUnicode:Sigma ft. Paloma Faith
Creator:Exote
Version:Freedom
Source:
Tags:dnb drum and bass life edm 3beat all around the world
BeatmapID:778929
BeatmapSetID:353546

[Difficulty]
HPDrainRate:6.5
CircleSize:4.2
OverallDifficulty:8.5
ApproachRate:9.2
SliderMultiplier:1.7
SliderTickRate:1

[Events]
//Background and Video events
0,0,"bg.jpg",0,0
//Break Periods
//Storyboard Layer 0 (Background)
//Storyboard Layer 1 (Fail)
//Storyboard Layer 2 (Pass)
//Storyboard Layer 3 (Foreground)
//Storyboard Sound Samples

[TimingPoints]
180,350.877192982456,4,2,1,100,1,0
11408,-142.857142857143,4,2,1,30,0,0
22636,-125,4,2,1,45,0,0
28250,-125,4,2,1,55,0,0
31057,-125,4,3,1,35,0,0
32460,-125,4,3,1,40,0,0
32811,-125,4,3,1,45,0,0
33162,-125,4,3,1,50,0,0
33513,-200,4,3,1,50,0,0
33601,-200,4,3,1,5,0,0
33864,-100,4,2,1,70,0,1
33886,-100,4,2,1,70,0,0
44390,-90.9090909090909,4,2,1,70,0,0
45092,-100,4,2,1,70,0,1
45114,-100,4,2,1,70,0,0
53513,-100,4,2,1,50,0,0
54916,-90.9090909090909,4,3,1,35,0,0
55267,-90.9090909090909,4,3,1,40,0,0
55618,-100,4,3,1,45,0,0
55969,-200,4,3,1,45,0,0
56057,-200,4,3,1,5,0,0
56320,-90.9090909090909,4,2,1,85,0,1
61583,-142.857142857143,4,2,1,85,0,1
61846,-142.857142857143,4,3,1,5,0,1
61934,-90.9090909090909,4,2,1,85,0,1
72811,-142.857142857143,4,2,1,85,0,1
73074,-142.857142857143,4,3,1,5,0,1
73162,-90.9090909090909,4,2,1,85,0,1
78776,-100,4,2,1,100,0,0

[Colours]
Combo1 : 167,82,148
Combo2 : 242,193,134
Combo3 : 255,113,130

[HitObjects]
454,204,11408,6,0,L|461:63,1,118.999996368408,2|0,0:0|0:0,0:0:0:0:
335,26,11934,1,0,0:0:0:0:
265,80,12109,2,0,L|270:151,2,59.4999981842042
223,222,12811,6,0,P|250:234|290:233,1,59.4999981842042,2|0,0:0|0:0,0:0:0:0:
457,278,13162,2,0,P|427:279|400:291,1,59.4999981842042
187,299,13513,2,0,P|140:251|144:190,1,118.999996368408
265,80,14215,5,2,0:0:0:0:
298,163,14390,1,0,0:0:0:0:
176,86,14565,2,0,P|147:81|113:88,1,59.4999981842042
45,184,14916,2,0,L|51:267,1,59.4999981842042
49,243,15443,1,2,0:0:0:0:
376,33,17022,6,0,P|314:24|268:56,1,118.999996368408,2|0,0:0|0:0,0:0:0:0:
272,216,17548,1,0,0:0:0:0:
345,164,17723,2,0,P|345:132|333:101,2,59.4999981842042
203,276,18425,6,0,L|120:273,1,59.4999981842042,2|0,0:0|0:0,0:0:0:0:
25,171,18776,2,0,L|108:168,1,59.4999981842042
132,51,19127,2,0,P|105:30|75:23,1,59.4999981842042
85,169,19478,1,0,0:0:0:0:
209,151,19653,1,0,0:0:0:0:
209,151,19741,1,0,0:0:0:0:
209,151,19829,6,0,P|240:138|261:115,1,59.4999981842042,2|0,0:0|0:0,0:0:0:0:
376,21,20179,2,0,L|383:95,1,59.4999981842042
500,212,20530,2,0,L|494:152,1,59.4999981842042
494,152,21057,1,2,0:0:0:0:
293,291,21934,6,0,L|295:227,1,59.4999981842042
108,101,22460,1,0,0:0:0:0:
108,101,22636,6,0,L|111:190,1,68,4|0,0:0|0:0,0:0:0:0:
151,311,22987,2,0,P|214:340|294:320,1,136,2|0,0:1|0:0,0:0:0:0:
409,268,23513,2,0,L|412:200,1,68,2|0,0:1|0:0,0:0:0:0:
225,128,23864,1,0,0:0:0:0:
225,128,23951,1,0,0:0:0:0:
225,128,24039,6,0,L|227:195,1,68
295,72,24390,2,0,P|233:40|161:63,1,136,2|0,0:1|0:0,0:0:0:0:
82,99,24916,1,2,0:1:0:0:
225,128,25092,1,0,0:0:0:0:
103,320,25267,6,0,B|113:286|98:255|98:255|82:224|92:188,1,136
192,348,25794,1,2,0:1:0:0:
312,211,25969,2,0,B|265:197|265:197|172:213,1,136,0|2,0:0|0:1,0:0:0:0:
42,261,26495,1,0,0:0:0:0:
178,302,26671,1,0,0:0:0:0:
92,188,26846,6,0,P|76:152|82:112,1,68
140,16,27197,1,2,0:1:0:0:
170,146,27372,1,0,0:0:0:0:
170,146,27460,1,0,0:0:0:0:
170,146,27548,1,0,0:0:0:0:
238,36,27723,1,2,0:1:0:0:
92,188,27899,1,0,0:0:0:0:
110,209,27987,1,0,0:0:0:0:
135,222,28074,1,0,0:0:0:0:
163,228,28162,1,0,0:0:0:0:
191,225,28250,6,0,P|225:220|264:237,1,68
424,264,28601,2,0,P|390:259|351:276,1,68,2|0,0:1|0:0,0:0:0:0:
359,270,28864,1,0,0:0:0:0:
358,270,28951,1,0,0:0:0:0:
505,335,29127,1,2,0:1:0:0:
492,180,29302,1,0,0:0:0:0:
489,151,29390,1,0,0:0:0:0:
486,123,29478,1,0,0:0:0:0:
483,94,29565,1,0,0:0:0:0:
480,65,29653,5,0,0:0:0:0:
382,27,29829,1,0,0:0:0:0:
313,108,30004,1,2,0:1:0:0:
368,198,30179,1,0,0:0:0:0:
368,198,30267,1,0,0:0:0:0:
368,198,30355,1,0,0:0:0:0:
382,27,30530,1,2,0:1:0:0:
313,108,30706,1,0,0:0:0:0:
291,126,30794,1,0,0:0:0:0:
275,149,30881,1,0,0:0:0:0:
267,177,30969,1,0,0:0:0:0:
268,205,31057,5,0,0:0:0:0:
351,269,31232,1,0,0:0:0:0:
182,265,31408,1,0,0:0:0:0:
316,367,31583,1,0,0:0:0:0:
212,365,31758,5,0,0:0:0:0:
351,269,31934,1,0,0:0:0:0:
182,265,32109,1,0,0:0:0:0:
316,367,32285,1,0,0:0:0:0:
268,205,32460,5,0,0:0:0:0:
283,187,32548,1,0,0:0:0:0:
303,173,32636,1,0,0:0:0:0:
325,165,32723,1,0,0:0:0:0:
348,161,32811,1,0,0:0:0:0:
372,163,32899,1,0,0:0:0:0:
395,171,32987,1,0,0:0:0:0:
415,183,33074,1,0,0:0:0:0:
433,199,33162,5,0,0:0:0:0:
462,179,33250,1,0,0:0:0:0:
481,149,33337,1,0,0:0:0:0:
486,114,33425,1,0,0:0:0:0:
476,80,33513,6,0,L|423:40,1,63.75
407,29,33864,5,4,0:0:0:0:
220,89,34039,1,0,0:0:0:0:
296,5,34215,1,8,0:0:0:0:
331,113,34390,1,0,0:0:0:0:
339,146,34478,1,0,0:0:0:0:
348,181,34565,1,0,0:0:0:0:
357,216,34653,1,0,0:0:0:0:
366,251,34741,1,8,0:0:0:0:
455,341,34916,1,0,0:0:0:0:
429,365,35004,1,0,0:0:0:0:
396,378,35092,1,0,0:0:0:0:
361,379,35179,1,0,0:0:0:0:
327,367,35267,6,0,P|289:348|238:353,1,85,0|0,3:0|0:0,0:0:0:0:
38,253,35618,1,8,0:0:0:0:
116,336,35794,1,0,0:0:0:0:
136,312,35881,1,0,0:0:0:0:
149,282,35969,1,0,0:0:0:0:
153,251,36057,1,0,0:0:0:0:
148,220,36144,1,8,0:0:0:0:
33,93,36320,1,0,0:0:0:0:
57,66,36408,1,0,0:0:0:0:
88,50,36495,1,0,0:0:0:0:
123,45,36583,1,0,0:0:0:0:
158,52,36671,6,0,P|231:92|323:62,1,170,4|8,0:1|0:0,0:0:0:0:
457,93,37197,1,0,0:0:0:0:
461,128,37285,1,0,0:0:0:0:
464,164,37372,1,0,0:0:0:0:
466,199,37460,1,0,0:0:0:0:
469,235,37548,1,8,0:0:0:0:
298,292,37723,1,0,0:0:0:0:
412,349,37899,1,0,0:0:0:0:
355,178,38074,6,0,P|316:163|265:167,1,85,0|0,3:0|0:0,0:0:0:0:
96,154,38425,1,8,0:0:0:0:
63,278,38601,1,0,0:0:0:0:
102,284,38688,1,0,0:0:0:0:
141,278,38776,1,0,0:0:0:0:
175,258,38864,1,0,0:0:0:0:
200,227,38951,1,8,0:0:0:0:
117,28,39127,1,0,0:0:0:0:
93,53,39214,1,0,0:0:0:0:
81,86,39302,1,0,0:0:0:0:
81,121,39390,1,0,0:0:0:0:
96,154,39478,6,0,L|277:145,1,170,4|8,0:0|0:0,0:0:0:0:
443,284,40004,1,0,0:0:0:0:
406,287,40091,1,0,0:0:0:0:
373,276,40179,1,0,0:0:0:0:
346,254,40267,1,0,0:0:0:0:
329,223,40354,1,8,0:0:0:0:
320,61,40530,1,0,0:0:0:0:
422,187,40706,1,0,0:0:0:0:
266,146,40881,6,0,P|222:141|186:160,1,85,0|0,3:0|0:0,0:0:0:0:
56,315,41232,1,8,0:0:0:0:
27,201,41408,1,0,0:0:0:0:
63,197,41495,1,0,0:0:0:0:
99,206,41583,1,0,0:0:0:0:
130,227,41671,1,0,0:0:0:0:
152,257,41758,1,8,0:0:0:0:
56,315,41934,1,0,0:0:0:0:
237,331,42109,1,0,0:0:0:0:
237,331,42197,1,0,0:0:0:0:
237,331,42285,6,0,L|339:323,1,85,4|0,0:1|0:0,0:0:0:0:
466,201,42636,2,0,L|364:193,1,85,8|0,0:0|0:0,0:0:0:0:
381,194,42899,1,0,0:0:0:0:
381,194,42987,1,0,0:0:0:0:
351,5,43162,1,8,0:0:0:0:
269,70,43337,1,0,0:0:0:0:
294,94,43425,1,0,0:0:0:0:
326,108,43513,1,0,0:0:0:0:
362,110,43601,1,0,0:0:0:0:
396,100,43688,5,0,3:0:0:0:
239,197,43864,1,0,0:0:0:0:
366,227,44039,1,8,0:0:0:0:
269,70,44215,1,0,0:0:0:0:
373,239,44390,6,0,L|399:282,1,46.7500014266968,2|0,0:0|0:0,0:0:0:0:
262,58,44565,2,0,L|236:15,1,46.7500014266968,10|0,0:0|0:0,0:0:0:0:
227,204,44741,2,0,L|186:228,1,46.7500014266968,2|0,0:0|0:0,0:0:0:0:
408,93,44916,2,0,L|448:68,1,46.7500014266968,2|0,0:0|0:0,0:0:0:0:
262,58,45092,6,0,P|183:18|101:36,1,170,4|8,0:0|0:0,0:0:0:0:
161,259,45618,1,0,0:0:0:0:
164,223,45706,1,0,0:0:0:0:
166,188,45794,1,0,0:0:0:0:
169,152,45881,1,0,0:0:0:0:
171,117,45969,1,8,0:0:0:0:
54,222,46144,1,0,0:0:0:0:
255,193,46320,1,0,0:0:0:0:
255,193,46408,1,0,0:0:0:0:
255,193,46495,5,0,3:0:0:0:
66,111,46671,1,0,0:0:0:0:
267,82,46846,1,8,0:0:0:0:
161,259,47022,1,0,0:0:0:0:
186,284,47109,1,0,0:0:0:0:
217,299,47197,1,0,0:0:0:0:
253,303,47285,1,0,0:0:0:0:
287,295,47372,1,8,0:0:0:0:
493,192,47548,1,0,0:0:0:0:
459,184,47636,1,0,0:0:0:0:
423,188,47723,1,0,0:0:0:0:
392,203,47811,1,0,0:0:0:0:
367,229,47899,6,0,L|379:342,1,85,4|0,0:1|0:0,0:0:0:0:
493,192,48250,2,0,L|501:107,1,85,8|0,0:0|0:0,0:0:0:0:
501,107,48513,1,0,0:0:0:0:
501,107,48601,1,0,0:0:0:0:
455,297,48776,1,8,0:0:0:0:
409,150,48951,1,0,0:0:0:0:
375,139,49039,1,0,0:0:0:0:
339,143,49127,1,0,0:0:0:0:
308,159,49215,1,0,0:0:0:0:
286,187,49302,6,0,P|247:209|197:206,1,85,0|0,3:0|0:0,0:0:0:0:
33,92,49653,2,0,P|75:92|111:114,1,85,8|0,0:0|0:0,0:0:0:0:
111,114,49916,1,0,0:0:0:0:
111,114,50004,1,0,0:0:0:0:
144,282,50179,1,8,0:0:0:0:
226,131,50355,1,0,0:0:0:0:
224,107,50443,1,0,0:0:0:0:
222,83,50530,1,0,0:0:0:0:
220,59,50618,1,0,0:0:0:0:
219,36,50706,5,4,0:0:0:0:
343,111,50881,1,0,0:0:0:0:
111,114,51057,1,8,0:0:0:0:
315,200,51232,1,0,0:0:0:0:
350,204,51320,1,0,0:0:0:0:
384,196,51408,1,0,0:0:0:0:
412,174,51495,1,0,0:0:0:0:
431,144,51583,1,8,0:0:0:0:
291,292,51758,1,0,0:0:0:0:
343,111,51934,1,0,0:0:0:0:
343,111,52022,1,0,0:0:0:0:
343,111,52109,5,0,3:0:0:0:
408,288,52285,1,0,0:0:0:0:
251,181,52460,1,8,0:0:0:0:
440,176,52636,1,0,0:0:0:0:
450,175,52723,1,0,0:0:0:0:
461,174,52811,1,0,0:0:0:0:
471,173,52899,1,0,0:0:0:0:
482,172,52986,1,8,0:0:0:0:
291,292,53162,1,0,0:0:0:0:
262,312,53250,1,0,0:0:0:0:
228,323,53337,1,0,0:0:0:0:
192,322,53425,1,0,0:0:0:0:
159,310,53513,5,2,0:0:0:0:
62,252,53688,1,2,0:0:0:0:
87,141,53864,1,2,0:0:0:0:
200,130,54039,1,2,0:0:0:0:
245,234,54215,5,2,0:0:0:0:
87,141,54390,1,2,0:0:0:0:
159,310,54565,1,2,0:0:0:0:
200,130,54741,1,2,0:0:0:0:
62,252,54916,6,0,L|12:273,3,46.7500014266968
245,234,55267,2,0,L|288:215,3,46.7500014266968
200,130,55618,5,0,0:0:0:0:
186,110,55706,1,0,0:0:0:0:
179,88,55794,1,0,0:0:0:0:
180,64,55881,1,0,0:0:0:0:
188,42,55969,6,0,L|253:4,1,63.75
260,0,56320,5,4,0:0:0:0:
299,129,56495,1,0,0:0:0:0:
502,195,56671,2,0,P|458:174|410:178,1,93.5000028533936,8|0,0:0|0:0,0:0:0:0:
245,234,57022,1,0,0:0:0:0:
443,267,57197,1,8,0:0:0:0:
302,172,57372,1,0,0:0:0:0:
264,152,57460,1,0,0:0:0:0:
222,152,57548,1,0,0:0:0:0:
184,171,57636,1,0,0:0:0:0:
161,207,57723,6,0,L|170:317,1,93.5000028533936,0|0,3:0|0:0,0:0:0:0:
368,238,58074,2,0,L|360:331,1,93.5000028533936,8|0,0:0|0:0,0:0:0:0:
360,331,58337,1,0,0:0:0:0:
360,331,58425,1,0,0:0:0:0:
222,152,58601,1,8,0:0:0:0:
68,253,58776,1,0,0:0:0:0:
39,221,58864,1,0,0:0:0:0:
28,180,58951,1,0,0:0:0:0:
35,138,59039,1,0,0:0:0:0:
59,104,59127,6,0,L|174:98,1,93.5000028533936,4|0,0:1|0:0,0:0:0:0:
322,54,59478,1,8,0:0:0:0:
142,182,59653,1,0,0:0:0:0:
142,182,59741,1,0,0:0:0:0:
142,182,59829,1,0,0:0:0:0:
229,15,60004,1,8,0:0:0:0:
235,221,60180,1,0,0:0:0:0:
263,248,60267,1,0,0:0:0:0:
300,265,60355,1,0,0:0:0:0:
341,268,60443,1,0,0:0:0:0:
380,257,60530,5,0,3:0:0:0:
423,42,60706,1,0,0:0:0:0:
294,128,60881,1,8,0:0:0:0:
509,171,61057,1,0,0:0:0:0:
275,138,61232,2,0,L|222:142,1,46.7500014266968,2|0,0:0|0:0,0:0:0:0:
442,180,61408,2,0,L|495:184,1,46.7500014266968,10|0,0:0|0:0,0:0:0:0:
235,221,61583,6,0,L|127:229,1,89.2499972763062
122,231,61934,5,4,0:0:0:0:
183,98,62109,1,0,0:0:0:0:
184,309,62285,2,0,P|134:330|79:321,1,93.5000028533936,8|0,0:0|0:0,0:0:0:0:
60,153,62636,1,0,0:0:0:0:
184,309,62811,1,8,0:0:0:0:
269,204,62987,1,0,0:0:0:0:
301,177,63075,1,0,0:0:0:0:
342,164,63163,1,0,0:0:0:0:
383,168,63250,1,0,0:0:0:0:
420,189,63338,5,0,3:0:0:0:
356,303,63513,1,0,0:0:0:0:
220,129,63688,1,8,0:0:0:0:
439,97,63864,1,0,0:0:0:0:
439,97,63951,1,0,0:0:0:0:
439,97,64039,1,0,0:0:0:0:
188,13,64215,1,8,0:0:0:0:
138,118,64390,1,0,0:0:0:0:
178,132,64478,1,0,0:0:0:0:
220,129,64565,1,0,0:0:0:0:
258,109,64653,1,0,0:0:0:0:
285,77,64741,5,4,0:1:0:0:
168,218,64916,1,0,0:0:0:0:
349,249,65092,1,8,0:0:0:0:
185,113,65267,1,0,0:0:0:0:
185,113,65355,1,0,0:0:0:0:
185,113,65443,1,0,0:0:0:0:
249,285,65618,1,8,0:0:0:0:
366,144,65794,1,0,0:0:0:0:
388,108,65881,1,0,0:0:0:0:
394,66,65969,1,0,0:0:0:0:
383,25,66057,1,0,0:0:0:0:
356,0,66144,6,0,L|232:14,1,93.5000028533936,0|0,3:0|0:0,0:0:0:0:
92,175,66495,1,8,0:0:0:0:
158,259,66671,1,0,0:0:0:0:
190,231,66758,1,0,0:0:0:0:
207,192,66846,1,0,0:0:0:0:
205,150,66934,1,0,0:0:0:0:
185,113,67022,1,8,0:0:0:0:
315,77,67197,1,0,0:0:0:0:
322,118,67285,1,0,0:0:0:0:
347,152,67372,1,0,0:0:0:0:
385,172,67460,1,0,0:0:0:0:
427,173,67548,5,4,0:0:0:0:
288,234,67723,1,0,0:0:0:0:
417,72,67899,1,8,0:0:0:0:
491,265,68074,1,0,0:0:0:0:
491,265,68162,1,0,0:0:0:0:
491,265,68250,1,0,0:0:0:0:
250,127,68425,1,8,0:0:0:0:
145,206,68601,1,0,0:0:0:0:
147,248,68688,1,0,0:0:0:0:
149,291,68776,1,0,0:0:0:0:
151,334,68864,1,0,0:0:0:0:
153,377,68951,6,0,P|104:382|54:366,1,93.5000028533936,0|0,3:0|0:0,0:0:0:0:
265,311,69302,1,8,0:0:0:0:
211,153,69478,1,0,0:0:0:0:
211,153,69565,1,0,0:0:0:0:
211,153,69653,1,0,0:0:0:0:
153,377,69829,1,8,0:0:0:0:
291,229,70004,1,0,0:0:0:0:
324,202,70092,1,0,0:0:0:0:
365,190,70179,1,0,0:0:0:0:
407,194,70267,1,0,0:0:0:0:
445,212,70355,5,4,0:1:0:0:
316,90,70530,1,0,0:0:0:0:
375,286,70706,1,8,0:0:0:0:
416,114,70881,1,0,0:0:0:0:
416,114,70969,1,0,0:0:0:0:
416,114,71057,1,0,0:0:0:0:
273,262,71232,1,8,0:0:0:0:
445,212,71408,1,0,0:0:0:0:
468,247,71495,1,0,0:0:0:0:
474,289,71583,1,0,0:0:0:0:
464,330,71671,1,0,0:0:0:0:
437,363,71758,5,0,3:0:0:0:
273,262,71934,1,0,0:0:0:0:
445,212,72109,1,8,0:0:0:0:
398,380,72285,1,0,0:0:0:0:
277,219,72460,2,0,L|282:156,1,46.7500014266968,2|0,0:0|0:0,0:0:0:0:
159,337,72636,2,0,L|162:383,1,46.7500014266968,10|0,0:0|0:0,0:0:0:0:
92,196,72811,6,0,P|133:180|177:182,1,89.2499972763062
201,195,73162,5,4,0:0:0:0:
192,46,73337,1,0,0:0:0:0:
83,279,73513,1,8,0:0:0:0:
291,132,73688,1,0,0:0:0:0:
291,132,73776,1,0,0:0:0:0:
291,132,73864,1,0,0:0:0:0:
66,118,74039,1,8,0:0:0:0:
201,195,74215,1,0,0:0:0:0:
200,238,74302,1,0,0:0:0:0:
199,281,74390,1,0,0:0:0:0:
197,324,74478,1,0,0:0:0:0:
196,366,74565,5,0,3:0:0:0:
83,279,74741,1,0,0:0:0:0:
303,253,74916,1,8,0:0:0:0:
113,180,75092,1,0,0:0:0:0:
113,180,75179,1,0,0:0:0:0:
113,180,75267,1,0,0:0:0:0:
196,366,75443,1,8,0:0:0:0:
237,173,75618,1,0,0:0:0:0:
272,150,75706,1,0,0:0:0:0:
314,145,75794,1,0,0:0:0:0:
354,159,75881,1,0,0:0:0:0:
383,190,75969,6,0,P|424:218|472:219,1,93.5000028533936,4|0,0:1|0:0,0:0:0:0:
346,41,76320,1,8,0:0:0:0:
453,129,76495,1,0,0:0:0:0:
453,129,76583,1,0,0:0:0:0:
453,129,76671,1,0,0:0:0:0:
327,300,76846,1,8,0:0:0:0:
237,173,77022,1,0,0:0:0:0:
232,130,77109,1,0,0:0:0:0:
227,87,77197,1,0,0:0:0:0:
223,45,77285,1,0,0:0:0:0:
218,2,77372,5,0,3:0:0:0:
112,100,77548,1,0,0:0:0:0:
342,74,77723,1,8,0:0:0:0:
237,173,77899,1,0,0:0:0:0:
237,173,77987,1,0,0:0:0:0:
237,173,78074,1,0,0:0:0:0:
458,209,78250,1,8,0:0:0:0:
370,138,78425,1,0,0:0:0:0:
348,175,78512,1,0,0:0:0:0:
343,219,78600,1,0,0:0:0:0:
355,260,78688,1,0,0:0:0:0:
383,294,78775,5,4,0:0:0:0:
