osu file format v14

[General]
AudioFilename: music.mp3
AudioLeadIn: 0
PreviewTime: 33074
Countdown: 0
SampleSet: Soft
StackLeniency: 0.8
Mode: 0
LetterboxInBreaks: 0
WidescreenStoryboard: 0

[Editor]
DistanceSpacing: 1
BeatDivisor: 2
GridSize: 32
TimelineZoom: 1.2

[Metadata]
Title:Changing
TitleUnicode:Changing
Artist:Sigma ft. Paloma Faith
ArtistUnicode:Sigma ft. Paloma Faith
Creator:Exote
Version:Easy
Source:
Tags:dnb drum and bass life edm 3beat all around the world
BeatmapID:783426
BeatmapSetID:353546

[Difficulty]
HPDrainRate:2.5
CircleSize:2.5
OverallDifficulty:2
ApproachRate:3
SliderMultiplier:0.9
SliderTickRate:1

[Events]
//Background and Video events
0,0,"bg.jpg",0,0
//Break Periods
//Storyboard Layer 0 (Background)
//Storyboard Layer 1 (Fail)
//Storyboard Layer 2 (Pass)
//Storyboard Layer 3 (Foreground)
//Storyboard Sound Samples

[TimingPoints]
180,350.877192982456,4,2,1,100,1,0
11408,-100,4,2,1,30,0,0
22636,-100,4,2,1,45,0,0
28250,-100,4,2,1,55,0,0
31057,-100,4,3,1,35,0,0
32460,-100,4,3,1,40,0,0
33162,-100,4,3,1,45,0,0
33864,-100,4,2,1,70,0,1
33886,-100,4,2,1,70,0,0
45092,-100,4,2,1,70,0,1
45114,-100,4,2,1,70,0,0
53513,-100,4,3,1,50,0,0
54916,-100,4,3,1,5,0,0
56320,-100,4,2,1,85,0,1
78776,-100,4,2,1,100,0,0

[Colours]
Combo1 : 167,82,148
Combo2 : 242,193,134
Combo3 : 255,113,130

[HitObjects]
36,43,11408,6,0,L|41:241,1,180,2|0,0:0|0:0,0:0:0:0:
185,329,12811,2,0,P|228:315|273:322,1,90,2|0,0:0|0:0,0:0:0:0:
356,352,13513,1,0,0:0:0:0:
455,201,14215,2,0,P|490:127|461:38,1,180,2|0,0:0|0:0,0:0:0:0:
351,117,15443,1,2,0:0:0:0:
2,323,17022,6,0,B|88:347|88:300|180:323,1,180,2|0,0:0|0:0,0:0:0:0:
48,198,18425,2,0,L|31:83,2,90,2|0|0,0:0|0:0|0:0,0:0:0:0:
117,255,19478,1,0,0:0:0:0:
192,206,19829,2,0,L|203:15,1,180,2|0,0:0|0:0,0:0:0:0:
67,12,21057,1,2,0:0:0:0:
371,278,22636,6,0,P|460:255|519:180,2,180,4|0|0,0:0|0:0|0:0,0:0:0:0:
367,97,24741,1,2,0:1:0:0:
193,48,25443,6,0,B|57:63|57:63|6:32,2,180
218,227,27548,1,2,0:1:0:0:
394,190,28250,6,0,L|373:6,2,180
248,296,30355,1,2,0:1:0:0:
67,291,31057,6,0,P|53:249|64:196,1,90
116,131,31758,2,0,P|161:130|204:103,1,90,0|0,0:0|0:0,0:0:0:0:
137,42,32460,1,0,0:0:0:0:
315,17,33162,1,0,0:0:0:0:
463,118,33864,6,0,L|471:269,2,135,4|0|0,0:0|0:0|0:0,0:0:0:0:
377,90,35267,1,0,3:0:0:0:
290,114,35618,2,0,P|226:122|164:81,1,135,8|8,0:0|0:0,0:0:0:0:
49,31,36671,6,0,L|42:171,2,135,4|0|0,0:1|0:0|0:0,0:0:0:0:
137,45,38074,1,0,3:0:0:0:
193,114,38425,2,0,B|191:172|191:172|227:248,1,135,8|8,0:0|0:0,0:0:0:0:
352,281,39478,6,0,P|425:279|478:244,2,135,4|0|0,0:0|0:0|0:0,0:0:0:0:
267,312,40881,1,0,3:0:0:0:
219,235,41232,2,0,L|208:93,1,135,8|8,0:0|0:0,0:0:0:0:
90,33,42285,5,4,0:1:0:0:
23,93,42636,2,0,B|37:143|37:143|21:237,1,135,8|8,0:0|0:0,0:0:0:0:
113,325,43688,2,0,P|158:340|205:331,1,90,0|8,3:0|0:0,0:0:0:0:
257,264,44390,1,2,2:0:0:0:
334,310,44741,1,2,2:0:0:0:
423,299,45092,6,0,B|449:252|449:252|445:149,2,135,4|0|0,0:0|0:0|0:0,0:0:0:0:
334,310,46495,1,0,3:0:0:0:
265,251,46846,2,0,P|202:236|141:275,1,135,8|8,0:0|0:0,0:0:0:0:
57,166,47899,6,0,B|31:119|31:119|35:16,2,135,4|0|0,0:1|0:0|0:0,0:0:0:0:
111,237,49302,1,0,3:0:0:0:
200,240,49653,2,0,P|270:241|324:200,1,135,8|8,0:0|0:0,0:0:0:0:
455,198,50706,6,0,B|444:249|444:249|463:340,2,135,4|0|0,0:0|0:0|0:0,0:0:0:0:
478,111,52109,1,0,3:0:0:0:
403,60,52460,2,0,P|338:75|277:46,1,135,8|8,0:0|0:0,0:0:0:0:
256,192,53513,12,0,54916,0:0:0:0:
234,219,56320,6,0,P|155:180|63:203,1,180,4|0,0:0|0:0,0:0:0:0:
41,21,57723,2,0,L|145:30,1,90,0|8,3:0|0:0,0:0:0:0:
220,37,58425,1,0,0:0:0:0:
400,37,59127,6,0,B|381:100|381:100|403:221,1,180,4|0,0:1|0:0,0:0:0:0:
295,358,60530,2,0,P|252:371|206:368,1,90,0|8,3:0|0:0,0:0:0:0:
118,356,61232,1,2,0:0:0:0:
146,269,61583,1,2,0:0:0:0:
65,228,61934,6,0,P|28:147|52:61,1,180,4|0,0:0|0:0,0:0:0:0:
228,32,63337,2,0,L|223:128,1,90,0|8,3:0|0:0,0:0:0:0:
266,201,64039,1,0,0:0:0:0:
391,329,64741,6,0,B|415:275|415:275|411:152,1,180,4|0,0:1|0:0,0:0:0:0:
285,24,66144,2,0,P|241:31|195:20,1,90,0|8,3:0|0:0,0:0:0:0:
107,25,66846,2,0,P|61:27|21:51,1,90
19,138,67548,6,0,B|25:257|25:257|54:309,1,180,4|0,0:0|0:0,0:0:0:0:
231,344,68951,2,0,L|238:239,1,90,0|8,3:0|0:0,0:0:0:0:
295,185,69653,1,0,0:0:0:0:
240,13,70355,6,0,P|160:46|61:27,1,180,4|0,0:1|0:0,0:0:0:0:
1,194,71758,2,0,L|4:302,1,90,0|8,3:0|0:0,0:0:0:0:
57,355,72460,1,2,0:0:0:0:
126,298,72811,1,2,0:0:0:0:
187,363,73162,6,0,L|381:370,1,180,4|0,0:0|0:0,0:0:0:0:
492,242,74565,2,0,P|506:201|500:152,1,90,0|8,3:0|0:0,0:0:0:0:
459,74,75267,2,0,P|418:56|388:22,1,90
298,34,75969,6,0,P|217:64|117:37,1,180,4|0,0:1|0:0,0:0:0:0:
39,200,77372,2,0,L|44:301,1,90,0|8,3:0|0:0,0:0:0:0:
104,356,78074,2,0,P|139:331|185:320,1,90
272,301,78776,5,4,0:0:0:0:
