osu file format v13

[General]
AudioFilename: riphula.mp3
AudioLeadIn: 0
PreviewTime: 56225
Countdown: 0
SampleSet: Normal
StackLeniency: 0.7
Mode: 1
LetterboxInBreaks: 0
WidescreenStoryboard: 0

[Editor]
Bookmarks: 22527,26737,33761,43593,44997,52006,53410,54817,56217,60431,66045,67449,73067,75870,78673,89901,101129,105344,106747,109554,110958,112361,122186,123589,130603,132014,133414,134813,144646,146049,151663,154462,155874,157269,179726,190954
DistanceSpacing: 0.5
BeatDivisor: 4
GridSize: 32
TimelineZoom: 2.999999

[Metadata]
Title:Changing Ft. Paloma Faith
TitleUnicode:Changing Ft. Paloma Faith
Artist:Sigma
ArtistUnicode:Sigma
Creator:Kurosanyan
Version:Inner Oni
Source:
Tags:dnb d'n'b Drum and bass n uk top 40 pop Tess Collab -GN GN Ayu Nwolf Hula edm English British
BeatmapID:569241
BeatmapSetID:247250

[Difficulty]
HPDrainRate:5
CircleSize:4
OverallDifficulty:5
ApproachRate:5
SliderMultiplier:1.4
SliderTickRate:1

[Events]
//Background and Video events
0,0,"hularip.jpg",0,-100
//Break Periods
//Storyboard Layer 0 (Background)
//Storyboard Layer 1 (Fail)
//Storyboard Layer 2 (Pass)
//Storyboard Layer 3 (Foreground)
//Storyboard Sound Samples

[TimingPoints]
85,350.877192982456,4,1,0,100,1,0
85,-133.333333333333,4,1,0,100,0,0
10962,-133.333333333333,4,1,0,80,0,0
22190,-100,4,1,0,90,0,0
33330,-100,4,1,0,100,0,0
53330,-100,4,1,0,90,0,0
56225,-100,4,1,0,100,0,1
75874,-100,4,1,0,100,0,0
78593,-100,4,1,0,40,0,0
83681,-100,4,1,0,80,0,0
84207,-100,4,1,0,40,0,0
89821,-133.333333333333,4,1,0,80,0,0
100962,-100,4,1,0,90,0,0
106663,-100,4,1,0,70,0,0
109470,-100,4,1,0,80,0,0
110874,-100,4,1,0,90,0,0
111927,-100,4,1,0,100,0,0
131927,-100,4,1,0,90,0,0
134734,-100,4,1,0,100,0,0
134821,-100,4,1,0,100,0,1
154470,-100,4,1,0,100,0,0

[Colours]
Combo1 : 210,224,39
Combo2 : 221,102,247
Combo3 : 55,95,200
Combo4 : 244,154,55
Combo5 : 206,57,114

[HitObjects]
256,192,85,5,0,0:0:0:0:
256,192,611,1,0,0:0:0:0:
256,192,1137,1,8,0:0:0:0:
256,192,1488,1,0,0:0:0:0:
256,192,2014,1,0,0:0:0:0:
256,192,2541,1,8,0:0:0:0:
256,192,2892,1,0,0:0:0:0:
256,192,3418,1,0,0:0:0:0:
256,192,3944,1,8,0:0:0:0:
256,192,4295,1,0,0:0:0:0:
256,192,4646,1,0,0:0:0:0:
256,192,4821,1,0,0:0:0:0:
256,192,4997,1,8,0:0:0:0:
256,192,5699,1,0,0:0:0:0:
256,192,6225,1,0,0:0:0:0:
256,192,6751,1,8,0:0:0:0:
256,192,7102,1,0,0:0:0:0:
256,192,7628,1,0,0:0:0:0:
256,192,8155,1,8,0:0:0:0:
256,192,8506,1,0,0:0:0:0:
256,192,9032,1,0,0:0:0:0:
256,192,11313,1,0,0:0:0:0:
256,192,11663,1,8,0:0:0:0:
256,192,12190,1,8,0:0:0:0:
256,192,12541,1,0,0:0:0:0:
256,192,13067,1,8,0:0:0:0:
256,192,13593,1,8,0:0:0:0:
256,192,14120,1,0,0:0:0:0:
256,192,14470,1,8,0:0:0:0:
256,192,14997,1,8,0:0:0:0:
256,192,15348,1,0,0:0:0:0:
256,192,16927,1,0,0:0:0:0:
256,192,17277,1,8,0:0:0:0:
256,192,17804,1,8,0:0:0:0:
256,192,18155,1,0,0:0:0:0:
256,192,18681,5,8,0:0:0:0:
256,192,19207,1,8,0:0:0:0:
256,192,19734,1,0,0:0:0:0:
256,192,20084,1,8,0:0:0:0:
256,192,20611,1,8,0:0:0:0:
256,192,20962,1,0,0:0:0:0:
256,192,22541,5,0,0:0:0:0:
256,192,22892,1,8,0:0:0:0:
256,192,23418,1,8,0:0:0:0:
256,192,23769,1,0,0:0:0:0:
256,192,23944,1,0,0:0:0:0:
256,192,24295,1,8,0:0:0:0:
256,192,24821,1,8,0:0:0:0:
256,192,25172,1,0,0:0:0:0:
256,192,25348,1,0,0:0:0:0:
256,192,25699,1,8,0:0:0:0:
256,192,26049,1,0,0:0:0:0:
256,192,26225,1,8,0:0:0:0:
256,192,26576,1,0,0:0:0:0:
256,192,26751,1,0,0:0:0:0:
256,192,27102,1,8,0:0:0:0:
256,192,27277,1,0,0:0:0:0:
256,192,27365,1,0,0:0:0:0:
256,192,27453,1,0,0:0:0:0:
256,192,27628,1,8,0:0:0:0:
256,192,27979,1,8,0:0:0:0:
256,192,28155,1,0,0:0:0:0:
256,192,28330,1,0,0:0:0:0:
256,192,28418,1,0,0:0:0:0:
256,192,28506,1,8,0:0:0:0:
256,192,28681,1,0,0:0:0:0:
256,192,28769,1,0,0:0:0:0:
256,192,28856,1,0,0:0:0:0:
256,192,29032,1,8,0:0:0:0:
256,192,29207,1,0,0:0:0:0:
256,192,29383,1,8,0:0:0:0:
256,192,29558,1,0,0:0:0:0:
256,192,29734,1,0,0:0:0:0:
256,192,29821,1,0,0:0:0:0:
256,192,29909,1,8,0:0:0:0:
256,192,30084,1,0,0:0:0:0:
256,192,30172,1,0,0:0:0:0:
256,192,30260,1,0,0:0:0:0:
256,192,30348,1,0,0:0:0:0:
256,192,30435,1,8,0:0:0:0:
256,192,30611,1,0,0:0:0:0:
256,192,30786,1,8,0:0:0:0:
256,192,30962,1,0,0:0:0:0:
256,192,31137,1,0,0:0:0:0:
256,192,31225,1,0,0:0:0:0:
256,192,31313,1,8,0:0:0:0:
256,192,31488,1,0,0:0:0:0:
256,192,31576,1,0,0:0:0:0:
256,192,31663,1,0,0:0:0:0:
256,192,31751,1,0,0:0:0:0:
256,192,31839,1,8,0:0:0:0:
256,192,32014,1,0,0:0:0:0:
256,192,32190,1,8,0:0:0:0:
256,192,32365,1,0,0:0:0:0:
256,192,32453,1,0,0:0:0:0:
256,192,32541,1,0,0:0:0:0:
256,192,32628,1,0,0:0:0:0:
256,192,32716,1,8,0:0:0:0:
256,192,32892,1,0,0:0:0:0:
256,192,32979,1,0,0:0:0:0:
256,192,33067,1,0,0:0:0:0:
256,192,33155,1,0,0:0:0:0:
256,192,33242,1,0,0:0:0:0:
256,192,33418,5,12,0:0:0:0:
256,192,33769,5,4,0:0:0:0:
256,192,33944,1,0,0:0:0:0:
256,192,34032,1,0,0:0:0:0:
256,192,34120,1,8,0:0:0:0:
256,192,34295,1,0,0:0:0:0:
256,192,34646,1,8,0:0:0:0:
256,192,34821,1,0,0:0:0:0:
256,192,34997,1,8,0:0:0:0:
256,192,35172,1,0,0:0:0:0:
256,192,35348,1,0,0:0:0:0:
256,192,35435,1,0,0:0:0:0:
256,192,35523,1,8,0:0:0:0:
256,192,35699,1,0,0:0:0:0:
256,192,36049,1,8,0:0:0:0:
256,192,36225,1,0,0:0:0:0:
256,192,36313,1,0,0:0:0:0:
256,192,36400,1,8,0:0:0:0:
256,192,36576,1,0,0:0:0:0:
256,192,36751,1,0,0:0:0:0:
256,192,36839,1,0,0:0:0:0:
256,192,36927,1,8,0:0:0:0:
256,192,37102,1,0,0:0:0:0:
256,192,37453,1,8,0:0:0:0:
256,192,37804,1,0,0:0:0:0:
256,192,37979,1,0,0:0:0:0:
256,192,38155,1,0,0:0:0:0:
256,192,38242,1,0,0:0:0:0:
256,192,38330,1,8,0:0:0:0:
256,192,38506,1,0,0:0:0:0:
256,192,38593,1,8,0:0:0:0:
256,192,38681,1,0,0:0:0:0:
256,192,38769,1,0,0:0:0:0:
256,192,38856,1,8,0:0:0:0:
256,192,39032,1,8,0:0:0:0:
256,192,39207,1,8,0:0:0:0:
256,192,39383,5,4,0:0:0:0:
256,192,39558,1,0,0:0:0:0:
256,192,39646,1,0,0:0:0:0:
256,192,39734,1,8,0:0:0:0:
256,192,39909,1,0,0:0:0:0:
256,192,40260,1,8,0:0:0:0:
256,192,40435,1,0,0:0:0:0:
256,192,40611,1,8,0:0:0:0:
256,192,40786,1,0,0:0:0:0:
256,192,40962,1,0,0:0:0:0:
256,192,41049,1,0,0:0:0:0:
256,192,41137,1,8,0:0:0:0:
256,192,41313,1,0,0:0:0:0:
256,192,41663,1,8,0:0:0:0:
256,192,41839,1,0,0:0:0:0:
256,192,41927,1,0,0:0:0:0:
256,192,42014,1,8,0:0:0:0:
256,192,42190,1,0,0:0:0:0:
256,192,42365,1,0,0:0:0:0:
256,192,42453,1,0,0:0:0:0:
256,192,42541,1,8,0:0:0:0:
256,192,42716,1,0,0:0:0:0:
256,192,43067,1,8,0:0:0:0:
256,192,43418,1,0,0:0:0:0:
256,192,43593,1,0,0:0:0:0:
256,192,43769,1,0,0:0:0:0:
256,192,43856,1,0,0:0:0:0:
256,192,43944,1,8,0:0:0:0:
256,192,44120,1,0,0:0:0:0:
256,192,44207,1,0,0:0:0:0:
256,192,44295,1,8,0:0:0:0:
256,192,44383,1,0,0:0:0:0:
256,192,44470,1,8,0:0:0:0:
256,192,44646,1,8,0:0:0:0:
256,192,44821,1,8,0:0:0:0:
256,192,44997,5,4,0:0:0:0:
256,192,45172,1,0,0:0:0:0:
256,192,45260,1,0,0:0:0:0:
256,192,45348,1,8,0:0:0:0:
256,192,45523,1,0,0:0:0:0:
256,192,45611,1,0,0:0:0:0:
256,192,45699,1,0,0:0:0:0:
256,192,45874,1,8,0:0:0:0:
256,192,46049,1,0,0:0:0:0:
256,192,46225,1,8,0:0:0:0:
256,192,46400,1,0,0:0:0:0:
256,192,46488,1,8,0:0:0:0:
256,192,46576,1,0,0:0:0:0:
256,192,46663,1,0,0:0:0:0:
256,192,46751,1,8,0:0:0:0:
256,192,46927,1,0,0:0:0:0:
256,192,47014,1,0,0:0:0:0:
256,192,47102,1,8,0:0:0:0:
256,192,47190,1,0,0:0:0:0:
256,192,47277,1,8,0:0:0:0:
256,192,47453,1,0,0:0:0:0:
256,192,47628,1,8,0:0:0:0:
256,192,47804,1,0,0:0:0:0:
256,192,47979,1,0,0:0:0:0:
256,192,48067,1,0,0:0:0:0:
256,192,48155,1,8,0:0:0:0:
256,192,48330,1,0,0:0:0:0:
256,192,48418,1,0,0:0:0:0:
256,192,48506,1,0,0:0:0:0:
256,192,48681,1,8,0:0:0:0:
256,192,49032,1,0,0:0:0:0:
256,192,49207,1,0,0:0:0:0:
256,192,49383,1,0,0:0:0:0:
256,192,49470,1,0,0:0:0:0:
256,192,49558,1,8,0:0:0:0:
256,192,49734,1,0,0:0:0:0:
256,192,49821,1,8,0:0:0:0:
256,192,49909,1,0,0:0:0:0:
256,192,49997,1,0,0:0:0:0:
256,192,50084,1,8,0:0:0:0:
256,192,50260,1,8,0:0:0:0:
256,192,50435,1,8,0:0:0:0:
256,192,50611,5,4,0:0:0:0:
256,192,50786,1,0,0:0:0:0:
256,192,50874,1,0,0:0:0:0:
256,192,50962,1,8,0:0:0:0:
256,192,51137,1,0,0:0:0:0:
256,192,51225,1,0,0:0:0:0:
256,192,51313,1,0,0:0:0:0:
256,192,51488,1,8,0:0:0:0:
256,192,51663,1,0,0:0:0:0:
256,192,51839,1,8,0:0:0:0:
256,192,52014,1,0,0:0:0:0:
256,192,52102,1,8,0:0:0:0:
256,192,52190,1,0,0:0:0:0:
256,192,52277,1,0,0:0:0:0:
256,192,52365,1,8,0:0:0:0:
256,192,52541,1,0,0:0:0:0:
256,192,52628,1,0,0:0:0:0:
256,192,52716,1,8,0:0:0:0:
256,192,52804,1,0,0:0:0:0:
256,192,52892,1,8,0:0:0:0:
256,192,53067,1,0,0:0:0:0:
256,192,53242,1,8,0:0:0:0:
256,192,53418,1,0,0:0:0:0:
256,192,53593,1,0,0:0:0:0:
256,192,53681,1,0,0:0:0:0:
256,192,53769,1,8,0:0:0:0:
256,192,53944,1,0,0:0:0:0:
256,192,54032,1,0,0:0:0:0:
256,192,54120,1,0,0:0:0:0:
256,192,54207,1,0,0:0:0:0:
256,192,54295,1,8,0:0:0:0:
256,192,54470,1,0,0:0:0:0:
256,192,54558,1,0,0:0:0:0:
256,192,54646,1,8,0:0:0:0:
256,192,54734,1,0,0:0:0:0:
256,192,54821,1,0,0:0:0:0:
256,192,54997,1,0,0:0:0:0:
256,192,55084,1,0,0:0:0:0:
256,192,55172,1,8,0:0:0:0:
256,192,55348,1,0,0:0:0:0:
256,192,55435,1,0,0:0:0:0:
256,192,55523,1,8,0:0:0:0:
256,192,55611,1,8,0:0:0:0:
256,192,55699,1,0,0:0:0:0:
256,192,55874,1,8,0:0:0:0:
256,192,56049,1,8,0:0:0:0:
256,192,56225,5,4,0:0:0:0:
256,192,56400,1,0,0:0:0:0:
256,192,56488,1,0,0:0:0:0:
256,192,56576,1,8,0:0:0:0:
256,192,56751,1,0,0:0:0:0:
256,192,56839,1,0,0:0:0:0:
256,192,56927,1,8,0:0:0:0:
256,192,57102,1,8,0:0:0:0:
256,192,57277,1,0,0:0:0:0:
256,192,57365,1,0,0:0:0:0:
256,192,57453,1,0,0:0:0:0:
256,192,57541,1,0,0:0:0:0:
256,192,57628,1,8,0:0:0:0:
256,192,57804,1,0,0:0:0:0:
256,192,57892,1,0,0:0:0:0:
256,192,57979,1,8,0:0:0:0:
256,192,58155,1,8,0:0:0:0:
256,192,58330,1,0,0:0:0:0:
256,192,58506,1,8,0:0:0:0:
256,192,59032,5,4,0:0:0:0:
256,192,59207,1,0,0:0:0:0:
256,192,59295,1,0,0:0:0:0:
256,192,59383,1,8,0:0:0:0:
256,192,59558,1,0,0:0:0:0:
256,192,59646,1,0,0:0:0:0:
256,192,59734,1,8,0:0:0:0:
256,192,59909,1,8,0:0:0:0:
256,192,60084,1,0,0:0:0:0:
256,192,60172,1,0,0:0:0:0:
256,192,60260,1,0,0:0:0:0:
256,192,60348,1,0,0:0:0:0:
256,192,60435,1,8,0:0:0:0:
256,192,60611,1,0,0:0:0:0:
256,192,60699,1,0,0:0:0:0:
256,192,60786,1,8,0:0:0:0:
256,192,60962,1,0,0:0:0:0:
256,192,61049,1,0,0:0:0:0:
256,192,61137,1,8,0:0:0:0:
256,192,61313,1,8,0:0:0:0:
256,192,61488,1,0,0:0:0:0:
256,192,61663,1,0,0:0:0:0:
256,192,61751,1,0,0:0:0:0:
256,192,61839,1,0,0:0:0:0:
256,192,62014,1,0,0:0:0:0:
256,192,62102,1,0,0:0:0:0:
256,192,62190,1,8,0:0:0:0:
256,192,62365,1,0,0:0:0:0:
256,192,62453,1,0,0:0:0:0:
256,192,62541,1,8,0:0:0:0:
256,192,62716,1,8,0:0:0:0:
256,192,62892,1,0,0:0:0:0:
256,192,62979,1,0,0:0:0:0:
256,192,63067,1,0,0:0:0:0:
256,192,63155,1,0,0:0:0:0:
256,192,63242,1,8,0:0:0:0:
256,192,63418,1,0,0:0:0:0:
256,192,63506,1,0,0:0:0:0:
256,192,63593,1,8,0:0:0:0:
256,192,63769,1,8,0:0:0:0:
256,192,63944,1,0,0:0:0:0:
256,192,64120,1,8,0:0:0:0:
256,192,64646,1,0,0:0:0:0:
256,192,64821,1,0,0:0:0:0:
256,192,64909,1,0,0:0:0:0:
256,192,64997,1,8,0:0:0:0:
256,192,65172,1,0,0:0:0:0:
256,192,65348,1,8,0:0:0:0:
256,192,65523,1,8,0:0:0:0:
256,192,65699,1,0,0:0:0:0:
256,192,65786,1,0,0:0:0:0:
256,192,65874,1,0,0:0:0:0:
256,192,65962,1,0,0:0:0:0:
256,192,66049,1,8,0:0:0:0:
256,192,66225,1,0,0:0:0:0:
256,192,66400,1,8,0:0:0:0:
256,192,66576,1,0,0:0:0:0:
256,192,66663,1,0,0:0:0:0:
256,192,66751,1,8,0:0:0:0:
256,192,66839,1,0,0:0:0:0:
256,192,66927,1,8,0:0:0:0:
256,192,67102,1,8,0:0:0:0:
256,192,67190,1,0,0:0:0:0:
256,192,67277,1,8,0:0:0:0:
256,192,67365,1,8,0:0:0:0:
256,192,67453,1,0,0:0:0:0:
256,192,67628,1,0,0:0:0:0:
256,192,67716,1,0,0:0:0:0:
256,192,67804,1,8,0:0:0:0:
256,192,67979,1,0,0:0:0:0:
256,192,68067,1,0,0:0:0:0:
256,192,68155,1,8,0:0:0:0:
256,192,68330,1,8,0:0:0:0:
256,192,68506,1,0,0:0:0:0:
256,192,68593,1,0,0:0:0:0:
256,192,68681,1,0,0:0:0:0:
256,192,68769,1,0,0:0:0:0:
256,192,68856,1,8,0:0:0:0:
256,192,69032,1,0,0:0:0:0:
256,192,69120,1,0,0:0:0:0:
256,192,69207,1,8,0:0:0:0:
256,192,69383,1,8,0:0:0:0:
256,192,69558,1,0,0:0:0:0:
256,192,69734,1,8,0:0:0:0:
256,192,70260,5,4,0:0:0:0:
256,192,70435,1,0,0:0:0:0:
256,192,70523,1,0,0:0:0:0:
256,192,70611,1,8,0:0:0:0:
256,192,70786,1,0,0:0:0:0:
256,192,70874,1,0,0:0:0:0:
256,192,70962,1,8,0:0:0:0:
256,192,71137,1,8,0:0:0:0:
256,192,71313,1,0,0:0:0:0:
256,192,71400,1,0,0:0:0:0:
256,192,71488,1,0,0:0:0:0:
256,192,71576,1,0,0:0:0:0:
256,192,71663,1,8,0:0:0:0:
256,192,71839,1,0,0:0:0:0:
256,192,71927,1,0,0:0:0:0:
256,192,72014,1,8,0:0:0:0:
256,192,72190,1,0,0:0:0:0:
256,192,72277,1,0,0:0:0:0:
256,192,72365,1,8,0:0:0:0:
256,192,72541,1,8,0:0:0:0:
256,192,72716,1,0,0:0:0:0:
256,192,72892,1,0,0:0:0:0:
256,192,72979,1,0,0:0:0:0:
256,192,73067,1,0,0:0:0:0:
256,192,73242,1,0,0:0:0:0:
256,192,73330,1,0,0:0:0:0:
256,192,73418,1,8,0:0:0:0:
256,192,73593,1,0,0:0:0:0:
256,192,73681,1,0,0:0:0:0:
256,192,73769,1,8,0:0:0:0:
256,192,73944,1,8,0:0:0:0:
256,192,74120,1,0,0:0:0:0:
256,192,74207,1,0,0:0:0:0:
256,192,74295,1,0,0:0:0:0:
256,192,74383,1,0,0:0:0:0:
256,192,74470,1,8,0:0:0:0:
256,192,74646,1,0,0:0:0:0:
256,192,74734,1,0,0:0:0:0:
256,192,74821,1,8,0:0:0:0:
256,192,74997,2,0,L|128:128,2,140,0|0|0,0:0|0:0|0:0,0:0:0:0:
256,192,75874,5,4,0:0:0:0:
256,192,76049,1,0,0:0:0:0:
256,192,76137,1,0,0:0:0:0:
256,192,76225,1,8,0:0:0:0:
256,192,76400,1,0,0:0:0:0:
256,192,76488,1,0,0:0:0:0:
256,192,76576,1,8,0:0:0:0:
256,192,76751,1,8,0:0:0:0:
256,192,76927,1,0,0:0:0:0:
256,192,77014,1,0,0:0:0:0:
256,192,77102,1,0,0:0:0:0:
256,192,77190,1,0,0:0:0:0:
256,192,77277,1,8,0:0:0:0:
256,192,77453,1,0,0:0:0:0:
256,192,77541,1,0,0:0:0:0:
256,192,77628,1,8,0:0:0:0:
256,192,77804,1,8,0:0:0:0:
256,192,77892,1,0,0:0:0:0:
256,192,77979,1,0,0:0:0:0:
256,192,78067,1,0,0:0:0:0:
256,192,78155,1,8,0:0:0:0:
256,192,78242,1,0,0:0:0:0:
256,192,78330,1,0,0:0:0:0:
256,192,78418,1,0,0:0:0:0:
256,192,78506,1,8,0:0:0:0:
256,192,78681,12,0,83593,0:0:0:0:
256,192,83769,5,0,0:0:0:0:
256,192,83944,1,8,0:0:0:0:
256,192,84120,1,0,0:0:0:0:
256,192,84295,12,0,89734,0:0:0:0:
256,192,89909,5,0,0:0:0:0:
256,192,90260,1,8,0:0:0:0:
256,192,90786,1,8,0:0:0:0:
256,192,91137,1,0,0:0:0:0:
256,192,91663,1,8,0:0:0:0:
256,192,92190,1,8,0:0:0:0:
256,192,92716,1,0,0:0:0:0:
256,192,93067,1,8,0:0:0:0:
256,192,93593,1,8,0:0:0:0:
256,192,93944,1,0,0:0:0:0:
256,192,95523,1,0,0:0:0:0:
256,192,95874,1,8,0:0:0:0:
256,192,96400,1,8,0:0:0:0:
256,192,96751,1,0,0:0:0:0:
256,192,97277,1,8,0:0:0:0:
256,192,97804,1,8,0:0:0:0:
256,192,98330,1,0,0:0:0:0:
256,192,98681,1,8,0:0:0:0:
256,192,99207,1,8,0:0:0:0:
256,192,99558,1,0,0:0:0:0:
256,192,101137,1,0,0:0:0:0:
256,192,101488,1,8,0:0:0:0:
256,192,102014,1,8,0:0:0:0:
256,192,102365,1,0,0:0:0:0:
256,192,102541,1,0,0:0:0:0:
256,192,102892,1,8,0:0:0:0:
256,192,103418,1,8,0:0:0:0:
256,192,103769,1,0,0:0:0:0:
256,192,103944,1,0,0:0:0:0:
256,192,104295,1,8,0:0:0:0:
256,192,104646,1,0,0:0:0:0:
256,192,104821,1,8,0:0:0:0:
256,192,105172,1,0,0:0:0:0:
256,192,105348,1,0,0:0:0:0:
256,192,105699,1,8,0:0:0:0:
256,192,105874,1,0,0:0:0:0:
256,192,105962,1,0,0:0:0:0:
256,192,106049,1,0,0:0:0:0:
256,192,106225,1,8,0:0:0:0:
256,192,106576,1,8,0:0:0:0:
256,192,106751,1,0,0:0:0:0:
256,192,106927,1,0,0:0:0:0:
256,192,107102,1,8,0:0:0:0:
256,192,107277,1,0,0:0:0:0:
256,192,107365,1,0,0:0:0:0:
256,192,107453,1,0,0:0:0:0:
256,192,107628,1,8,0:0:0:0:
256,192,107979,1,8,0:0:0:0:
256,192,108155,1,0,0:0:0:0:
256,192,108330,1,0,0:0:0:0:
256,192,108506,1,8,0:0:0:0:
256,192,108681,1,8,0:0:0:0:
256,192,108769,1,8,0:0:0:0:
256,192,108856,1,8,0:0:0:0:
256,192,109032,1,8,0:0:0:0:
256,192,109383,1,8,0:0:0:0:
256,192,109558,1,0,0:0:0:0:
256,192,109734,1,0,0:0:0:0:
256,192,109821,1,0,0:0:0:0:
256,192,109909,1,8,0:0:0:0:
256,192,110084,1,0,0:0:0:0:
256,192,110172,1,0,0:0:0:0:
256,192,110260,1,0,0:0:0:0:
256,192,110348,1,0,0:0:0:0:
256,192,110435,1,8,0:0:0:0:
256,192,110786,1,8,0:0:0:0:
256,192,110962,1,0,0:0:0:0:
256,192,111049,1,0,0:0:0:0:
256,192,111137,1,0,0:0:0:0:
256,192,111225,1,0,0:0:0:0:
256,192,111313,1,8,0:0:0:0:
256,192,111400,1,8,0:0:0:0:
256,192,111488,1,0,0:0:0:0:
256,192,111576,1,0,0:0:0:0:
256,192,111663,1,8,0:0:0:0:
256,192,111751,1,8,0:0:0:0:
256,192,111839,1,0,0:0:0:0:
256,192,112014,5,12,0:0:0:0:
256,192,112365,5,4,0:0:0:0:
256,192,112541,1,0,0:0:0:0:
256,192,112628,1,0,0:0:0:0:
256,192,112716,1,8,0:0:0:0:
256,192,112892,1,0,0:0:0:0:
256,192,113242,1,8,0:0:0:0:
256,192,113418,1,0,0:0:0:0:
256,192,113593,1,8,0:0:0:0:
256,192,113769,1,0,0:0:0:0:
256,192,113944,1,0,0:0:0:0:
256,192,114032,1,0,0:0:0:0:
256,192,114120,1,8,0:0:0:0:
256,192,114295,1,0,0:0:0:0:
256,192,114646,1,8,0:0:0:0:
256,192,114821,1,0,0:0:0:0:
256,192,114909,1,0,0:0:0:0:
256,192,114997,1,8,0:0:0:0:
256,192,115172,1,0,0:0:0:0:
256,192,115348,1,0,0:0:0:0:
256,192,115435,1,0,0:0:0:0:
256,192,115523,1,8,0:0:0:0:
256,192,115699,1,0,0:0:0:0:
256,192,116049,1,8,0:0:0:0:
256,192,116400,1,0,0:0:0:0:
256,192,116576,1,0,0:0:0:0:
256,192,116751,1,0,0:0:0:0:
256,192,116839,1,0,0:0:0:0:
256,192,116927,1,8,0:0:0:0:
256,192,117102,1,0,0:0:0:0:
256,192,117190,1,8,0:0:0:0:
256,192,117277,1,0,0:0:0:0:
256,192,117365,1,0,0:0:0:0:
256,192,117453,1,8,0:0:0:0:
256,192,117628,1,8,0:0:0:0:
256,192,117804,1,8,0:0:0:0:
256,192,117979,5,4,0:0:0:0:
256,192,118155,1,0,0:0:0:0:
256,192,118242,1,0,0:0:0:0:
256,192,118330,1,8,0:0:0:0:
256,192,118506,1,0,0:0:0:0:
256,192,118856,1,8,0:0:0:0:
256,192,119032,1,0,0:0:0:0:
256,192,119207,1,8,0:0:0:0:
256,192,119383,1,0,0:0:0:0:
256,192,119558,1,0,0:0:0:0:
256,192,119646,1,0,0:0:0:0:
256,192,119734,1,8,0:0:0:0:
256,192,119909,1,0,0:0:0:0:
256,192,120260,1,8,0:0:0:0:
256,192,120435,1,0,0:0:0:0:
256,192,120523,1,0,0:0:0:0:
256,192,120611,1,8,0:0:0:0:
256,192,120786,1,0,0:0:0:0:
256,192,120962,1,0,0:0:0:0:
256,192,121049,1,0,0:0:0:0:
256,192,121137,1,8,0:0:0:0:
256,192,121313,1,0,0:0:0:0:
256,192,121663,1,8,0:0:0:0:
256,192,122014,1,0,0:0:0:0:
256,192,122190,1,0,0:0:0:0:
256,192,122365,1,0,0:0:0:0:
256,192,122453,1,0,0:0:0:0:
256,192,122541,1,8,0:0:0:0:
256,192,122716,1,0,0:0:0:0:
256,192,122804,1,0,0:0:0:0:
256,192,122892,1,8,0:0:0:0:
256,192,122979,1,0,0:0:0:0:
256,192,123067,1,8,0:0:0:0:
256,192,123242,1,8,0:0:0:0:
256,192,123418,1,8,0:0:0:0:
256,192,123593,5,4,0:0:0:0:
256,192,123769,1,0,0:0:0:0:
256,192,123856,1,0,0:0:0:0:
256,192,123944,1,8,0:0:0:0:
256,192,124120,1,0,0:0:0:0:
256,192,124207,1,8,0:0:0:0:
256,192,124295,1,0,0:0:0:0:
256,192,124470,1,8,0:0:0:0:
256,192,124646,1,0,0:0:0:0:
256,192,124734,1,0,0:0:0:0:
256,192,124821,1,8,0:0:0:0:
256,192,124997,1,0,0:0:0:0:
256,192,125084,1,8,0:0:0:0:
256,192,125172,1,0,0:0:0:0:
256,192,125260,1,0,0:0:0:0:
256,192,125348,1,8,0:0:0:0:
256,192,125523,1,0,0:0:0:0:
256,192,125611,1,8,0:0:0:0:
256,192,125699,1,8,0:0:0:0:
256,192,125786,1,0,0:0:0:0:
256,192,125874,1,8,0:0:0:0:
256,192,126049,1,0,0:0:0:0:
256,192,126137,1,0,0:0:0:0:
256,192,126225,1,8,0:0:0:0:
256,192,126400,1,0,0:0:0:0:
256,192,126576,1,0,0:0:0:0:
256,192,126663,1,0,0:0:0:0:
256,192,126751,1,8,0:0:0:0:
256,192,126927,1,0,0:0:0:0:
256,192,127014,1,0,0:0:0:0:
256,192,127102,1,0,0:0:0:0:
256,192,127277,1,8,0:0:0:0:
256,192,127628,1,0,0:0:0:0:
256,192,127804,1,0,0:0:0:0:
256,192,127979,1,0,0:0:0:0:
256,192,128067,1,0,0:0:0:0:
256,192,128155,1,8,0:0:0:0:
256,192,128330,1,0,0:0:0:0:
256,192,128418,1,8,0:0:0:0:
256,192,128506,1,0,0:0:0:0:
256,192,128593,1,0,0:0:0:0:
256,192,128681,1,8,0:0:0:0:
256,192,128856,1,8,0:0:0:0:
256,192,129032,1,8,0:0:0:0:
256,192,129207,5,4,0:0:0:0:
256,192,129383,1,0,0:0:0:0:
256,192,129470,1,0,0:0:0:0:
256,192,129558,1,8,0:0:0:0:
256,192,129734,1,0,0:0:0:0:
256,192,129821,1,8,0:0:0:0:
256,192,129909,1,0,0:0:0:0:
256,192,130084,1,8,0:0:0:0:
256,192,130260,1,0,0:0:0:0:
256,192,130348,1,0,0:0:0:0:
256,192,130435,1,8,0:0:0:0:
256,192,130611,1,0,0:0:0:0:
256,192,130699,1,8,0:0:0:0:
256,192,130786,1,0,0:0:0:0:
256,192,130874,1,0,0:0:0:0:
256,192,130962,1,8,0:0:0:0:
256,192,131137,1,0,0:0:0:0:
256,192,131225,1,8,0:0:0:0:
256,192,131313,1,8,0:0:0:0:
256,192,131400,1,0,0:0:0:0:
256,192,131488,1,8,0:0:0:0:
256,192,131663,1,0,0:0:0:0:
256,192,131751,1,0,0:0:0:0:
256,192,131839,1,8,0:0:0:0:
256,192,132014,1,0,0:0:0:0:
256,192,132190,1,0,0:0:0:0:
256,192,132277,1,0,0:0:0:0:
256,192,132365,1,8,0:0:0:0:
256,192,132541,1,0,0:0:0:0:
256,192,132628,1,0,0:0:0:0:
256,192,132716,1,0,0:0:0:0:
256,192,132804,1,0,0:0:0:0:
256,192,132892,1,8,0:0:0:0:
256,192,133067,1,0,0:0:0:0:
256,192,133155,1,0,0:0:0:0:
256,192,133242,1,8,0:0:0:0:
256,192,133330,1,0,0:0:0:0:
256,192,133418,1,0,0:0:0:0:
256,192,133593,1,0,0:0:0:0:
256,192,133681,1,0,0:0:0:0:
256,192,133769,1,8,0:0:0:0:
256,192,133856,1,0,0:0:0:0:
256,192,133944,1,0,0:0:0:0:
256,192,134032,1,0,0:0:0:0:
256,192,134120,1,8,0:0:0:0:
256,192,134207,1,0,0:0:0:0:
256,192,134295,1,0,0:0:0:0:
256,192,134470,1,8,0:0:0:0:
256,192,134646,1,8,0:0:0:0:
256,192,134821,5,4,0:0:0:0:
256,192,134997,1,0,0:0:0:0:
256,192,135084,1,0,0:0:0:0:
256,192,135172,1,8,0:0:0:0:
256,192,135348,1,0,0:0:0:0:
256,192,135435,1,0,0:0:0:0:
256,192,135523,1,8,0:0:0:0:
256,192,135699,1,8,0:0:0:0:
256,192,135874,1,0,0:0:0:0:
256,192,135962,1,0,0:0:0:0:
256,192,136049,1,0,0:0:0:0:
256,192,136137,1,0,0:0:0:0:
256,192,136225,1,8,0:0:0:0:
256,192,136400,1,0,0:0:0:0:
256,192,136488,1,0,0:0:0:0:
256,192,136576,1,8,0:0:0:0:
256,192,136751,1,8,0:0:0:0:
256,192,136927,1,0,0:0:0:0:
256,192,137102,1,8,0:0:0:0:
256,192,137628,5,4,0:0:0:0:
256,192,137804,1,0,0:0:0:0:
256,192,137892,1,0,0:0:0:0:
256,192,137979,1,8,0:0:0:0:
256,192,138155,1,0,0:0:0:0:
256,192,138242,1,0,0:0:0:0:
256,192,138330,1,8,0:0:0:0:
256,192,138506,1,8,0:0:0:0:
256,192,138681,1,0,0:0:0:0:
256,192,138769,1,0,0:0:0:0:
256,192,138856,1,0,0:0:0:0:
256,192,138944,1,0,0:0:0:0:
256,192,139032,1,8,0:0:0:0:
256,192,139207,1,0,0:0:0:0:
256,192,139295,1,0,0:0:0:0:
256,192,139383,1,8,0:0:0:0:
256,192,139558,1,0,0:0:0:0:
256,192,139646,1,0,0:0:0:0:
256,192,139734,1,8,0:0:0:0:
256,192,139909,1,8,0:0:0:0:
256,192,140084,1,0,0:0:0:0:
256,192,140260,1,0,0:0:0:0:
256,192,140348,1,0,0:0:0:0:
256,192,140435,1,0,0:0:0:0:
256,192,140611,1,0,0:0:0:0:
256,192,140699,1,0,0:0:0:0:
256,192,140786,1,8,0:0:0:0:
256,192,140962,1,0,0:0:0:0:
256,192,141049,1,0,0:0:0:0:
256,192,141137,1,8,0:0:0:0:
256,192,141313,1,8,0:0:0:0:
256,192,141488,1,0,0:0:0:0:
256,192,141576,1,0,0:0:0:0:
256,192,141663,1,0,0:0:0:0:
256,192,141751,1,0,0:0:0:0:
256,192,141839,1,8,0:0:0:0:
256,192,142014,1,0,0:0:0:0:
256,192,142102,1,0,0:0:0:0:
256,192,142190,1,8,0:0:0:0:
256,192,142365,1,8,0:0:0:0:
256,192,142541,1,0,0:0:0:0:
256,192,142716,1,8,0:0:0:0:
256,192,143242,5,4,0:0:0:0:
256,192,143418,1,0,0:0:0:0:
256,192,143506,1,0,0:0:0:0:
256,192,143593,1,8,0:0:0:0:
256,192,143769,1,0,0:0:0:0:
256,192,143944,1,8,0:0:0:0:
256,192,144120,1,8,0:0:0:0:
256,192,144295,1,0,0:0:0:0:
256,192,144383,1,0,0:0:0:0:
256,192,144470,1,0,0:0:0:0:
256,192,144558,1,0,0:0:0:0:
256,192,144646,1,8,0:0:0:0:
256,192,144821,1,0,0:0:0:0:
256,192,144997,1,8,0:0:0:0:
256,192,145172,1,0,0:0:0:0:
256,192,145260,1,0,0:0:0:0:
256,192,145348,1,8,0:0:0:0:
256,192,145435,1,0,0:0:0:0:
256,192,145523,1,8,0:0:0:0:
256,192,145699,1,8,0:0:0:0:
256,192,145786,1,0,0:0:0:0:
256,192,145874,1,8,0:0:0:0:
256,192,145962,1,8,0:0:0:0:
256,192,146049,1,0,0:0:0:0:
256,192,146225,1,0,0:0:0:0:
256,192,146313,1,0,0:0:0:0:
256,192,146400,1,8,0:0:0:0:
256,192,146576,1,0,0:0:0:0:
256,192,146663,1,0,0:0:0:0:
256,192,146751,1,8,0:0:0:0:
256,192,146927,1,8,0:0:0:0:
256,192,147102,1,0,0:0:0:0:
256,192,147190,1,0,0:0:0:0:
256,192,147277,1,0,0:0:0:0:
256,192,147365,1,0,0:0:0:0:
256,192,147453,1,8,0:0:0:0:
256,192,147628,1,0,0:0:0:0:
256,192,147716,1,0,0:0:0:0:
256,192,147804,1,8,0:0:0:0:
256,192,147979,1,8,0:0:0:0:
256,192,148155,1,0,0:0:0:0:
256,192,148330,1,8,0:0:0:0:
256,192,148856,5,4,0:0:0:0:
256,192,149032,1,0,0:0:0:0:
256,192,149120,1,0,0:0:0:0:
256,192,149207,1,8,0:0:0:0:
256,192,149383,1,0,0:0:0:0:
256,192,149470,1,0,0:0:0:0:
256,192,149558,1,8,0:0:0:0:
256,192,149734,1,8,0:0:0:0:
256,192,149909,1,0,0:0:0:0:
256,192,149997,1,0,0:0:0:0:
256,192,150084,1,0,0:0:0:0:
256,192,150172,1,0,0:0:0:0:
256,192,150260,1,8,0:0:0:0:
256,192,150435,1,0,0:0:0:0:
256,192,150523,1,0,0:0:0:0:
256,192,150611,1,8,0:0:0:0:
256,192,150786,1,0,0:0:0:0:
256,192,150874,1,0,0:0:0:0:
256,192,150962,1,8,0:0:0:0:
256,192,151137,1,8,0:0:0:0:
256,192,151313,1,0,0:0:0:0:
256,192,151488,1,0,0:0:0:0:
256,192,151576,1,0,0:0:0:0:
256,192,151663,1,0,0:0:0:0:
256,192,151839,1,0,0:0:0:0:
256,192,151927,1,0,0:0:0:0:
256,192,152014,1,8,0:0:0:0:
256,192,152190,1,0,0:0:0:0:
256,192,152277,1,0,0:0:0:0:
256,192,152365,1,8,0:0:0:0:
256,192,152541,1,8,0:0:0:0:
256,192,152716,1,0,0:0:0:0:
256,192,152804,1,0,0:0:0:0:
256,192,152892,1,0,0:0:0:0:
256,192,152979,1,0,0:0:0:0:
256,192,153067,1,8,0:0:0:0:
256,192,153242,1,0,0:0:0:0:
256,192,153330,1,0,0:0:0:0:
256,192,153418,1,8,0:0:0:0:
256,192,153593,2,0,L|128:128,2,140,0|0|0,0:0|0:0|0:0,0:0:0:0:
256,192,154470,1,0,0:0:0:0:
256,192,154558,1,0,0:0:0:0:
256,192,154646,1,0,0:0:0:0:
256,192,154734,1,0,0:0:0:0:
256,192,154821,1,8,0:0:0:0:
256,192,154997,1,0,0:0:0:0:
256,192,155084,1,0,0:0:0:0:
256,192,155172,1,8,0:0:0:0:
256,192,155260,1,0,0:0:0:0:
256,192,155348,1,8,0:0:0:0:
256,192,155523,1,0,0:0:0:0:
256,192,155611,1,0,0:0:0:0:
256,192,155699,1,0,0:0:0:0:
256,192,155786,1,0,0:0:0:0:
256,192,155874,1,8,0:0:0:0:
256,192,156049,1,0,0:0:0:0:
256,192,156137,1,0,0:0:0:0:
256,192,156225,1,8,0:0:0:0:
256,192,156313,1,0,0:0:0:0:
256,192,156400,1,8,0:0:0:0:
256,192,156488,1,0,0:0:0:0:
256,192,156576,1,0,0:0:0:0:
256,192,156663,1,0,0:0:0:0:
256,192,156751,1,8,0:0:0:0:
256,192,156839,1,0,0:0:0:0:
256,192,156927,1,0,0:0:0:0:
256,192,157014,1,0,0:0:0:0:
256,192,157102,1,8,0:0:0:0:
256,192,157277,5,4,0:0:0:0:
