osu file format v4

[General]
AudioFilename: Sigh - midnight sun.mp3
AudioLeadIn: 0
AudioHash: d40a10bbd2f60b625626f9a22b895112
PreviewTime: -1
SampleSet: Normal

[Metadata]
Title:Midnight Sun
Artist:Sigh
Creator:awp
Version:Hard

[Difficulty]
HPDrainRate:7
CircleSize:5
OverallDifficulty:6
SliderMultiplier: 1.7
SliderTickRate: 1

[Events]
0,0,"ms.jpg"
2,47850,57787
2,85985,101177
2,171400,181167
2,189535,192014
3,0,163,162,255

[TimingPoints]
4590,338.983050847458,4,1,1

[HitObjects]
128,96,4589,1,0,
224,32,4928,1,0,
320,96,5267,2,0,B|320:96|128:96,1,170
128,192,5945,1,0,
224,128,6284,1,0,
320,192,6623,2,4,B|320:192|96:192,1,170
96,288,7301,6,0,B|96:288|160:352|224:352|320:352|416:288,3,340
352,192,10013,6,0,B|352:192|320:128|256:128|224:192|224:224|256:256|288:288|320:288|384:288|384:224,4,340
320,288,13064,1,0,
192,288,13403,1,0,
128,192,13742,1,0,
192,96,14081,1,0,
320,96,14420,1,0,
384,192,14759,2,2,B|384:192|192:192,1,170
256,256,15437,5,0,
192,256,15691,2,0,B|192:256|160:256,1,42.5
64,256,16115,1,0,
64,192,16369,2,0,B|64:192|64:160,1,42.5
128,96,16793,1,0,
192,96,17047,2,0,B|192:96|224:96,1,42.5
320,96,17471,1,0,
384,160,17725,2,0,B|384:160|384:192,1,42.5
256,288,18149,5,0,
192,288,18403,1,0,
192,288,18488,1,0,
96,224,18827,1,0,
96,160,19081,1,0,
96,160,19166,1,0,
192,96,19505,1,0,
256,96,19759,1,0,
256,96,19844,1,0,
352,160,20183,1,0,
352,224,20437,1,2,
352,224,20522,1,2,
256,192,20861,6,0,B|256:192|128:320,1,170
256,192,21539,2,4,B|256:192|128:64,1,170
256,192,22217,2,0,B|256:192|384:64,1,170
256,192,22895,2,4,B|256:192|384:320,1,170
426,192,23573,6,0,B|426:192|256:192,1,170
256,22,24251,2,0,B|256:22|256:192,1,170
86,192,24928,2,0,B|86:192|256:192,1,170
256,362,25606,2,0,B|256:362|256:192,1,170
256,192,26284,12,0,31369
256,192,31708,12,0,32725
256,192,33064,12,0,34081
256,192,34420,12,0,35437
160,192,35776,2,0,B|160:192|288:376|519:193|288:1|160:160,1,510
128,64,37132,6,0,B|128:64|288:64,1,127.5
255,64,37471,1,2,
352,64,37810,2,0,B|352:64|352:224,1,127.5
352,191,38149,1,2,
256,192,38488,2,0,B|256:192|96:192,1,127.5
128,192,38827,1,2,
128,288,39166,2,0,B|128:288|288:288,1,127.5
255,288,39505,1,4,
352,288,39844,5,0,
256,192,40183,1,2,
160,96,40522,1,0,
256,192,40861,1,4,
160,288,41200,1,0,
256,192,41539,1,2,
352,96,41878,1,0,
256,192,42217,1,4,
128,192,42556,5,0,
256,192,42895,1,2,
256,320,43234,1,0,
256,192,43573,1,4,
384,192,43912,1,0,
256,192,44251,1,2,
256,64,44589,1,0,
256,192,44928,1,4,
208,144,45267,5,0,
304,240,45606,1,0,
208,240,45945,1,0,
304,144,46284,1,0,
208,192,46623,1,0,
304,192,46962,1,0,
256,144,47301,1,2,
256,240,47640,1,4,
416,160,58827,6,0,B|416:160|249:67|64:176,1,340
160,256,59844,1,0,
256,288,60183,1,0,
352,256,60522,1,0,
256,160,60861,1,0,
459,163,61369,6,0,B|459:163|269:69|43:163,1,425
160,256,62556,1,0,
256,320,62895,1,0,
352,256,63234,1,0,
256,192,63573,1,0,
160,160,64081,6,0,C|160:160|192:224|256:96|384:256,1,425
224,224,65267,1,0,
224,128,65606,1,0,
320,128,65945,1,0,
320,224,66284,1,0,
256,320,66793,6,0,C|256:320|128:288|256:256|96:224,1,425
160,160,67979,2,0,C|160:160|352:160,3,170
256,192,69674,12,0,72217
256,192,73573,12,0,74928
64,192,76284,2,0,C|64:192|160:64|256:192|352:64|480:224,3,680
320,64,81708,2,0,C|320:64|164:96|159:162|321:191|322:260|128:320,3,680
256,64,102217,6,0,C|256:64|192:96|256:160|160:192|96:96|32:192|96:256|192:256,3,680
224,192,106962,2,0,C|224:192|288:192,3,42.5
352,160,107640,6,0,C|352:160|364:274|170:102|128:160|288:320,4,680
320,64,113403,1,0,
192,64,113742,1,0,
256,128,113996,1,0,
256,128,114081,1,0,
320,192,114420,5,0,
192,192,114759,1,0,
96,192,115098,1,0,
96,256,115352,1,0,
96,256,115437,1,0,
192,320,115776,5,0,
288,320,116115,1,0,
384,320,116454,1,0,
448,320,116708,1,0,
448,320,116793,1,0,
448,224,117132,5,0,
448,128,117471,1,0,
352,128,117810,1,0,
352,192,118064,1,0,
352,192,118149,1,0,
256,192,118488,5,0,
224,128,118742,1,0,
224,128,118827,1,0,
160,160,119081,2,0,C|160:160|64:224|160:256|64:320|224:352|228:224|288:288,2,722.5
96,64,122556,5,0,
160,64,122810,1,0,
160,64,122895,1,0,
224,64,123149,1,0,
224,64,123234,1,0,
288,64,123488,1,0,
288,64,123573,1,0,
352,160,123912,5,0,
288,160,124166,1,0,
288,160,124251,1,0,
224,160,124505,1,0,
224,160,124590,1,0,
160,160,124844,1,0,
160,160,124928,1,0,
96,224,125267,5,0,
96,192,125380,1,0,
96,160,125493,1,0,
96,128,125606,1,2,
224,128,125945,5,0,
256,160,126058,1,0,
288,192,126171,1,0,
320,224,126284,1,4,
448,224,126623,5,0,
448,192,126736,1,0,
448,160,126849,1,0,
448,128,126962,1,2,
320,128,127301,5,0,
288,160,127414,1,0,
256,192,127527,1,0,
224,224,127640,1,4,
128,224,127979,5,0,
128,160,128234,2,0,C|128:160|128:128,1,42.5
160,64,128573,2,0,C|160:64|192:64,1,42.5
288,64,128912,2,0,C|288:64|352:64,1,42.5
384,160,129335,5,0,
320,160,129589,2,0,C|320:160|256:160,1,42.5
192,160,129928,2,0,C|192:160|160:160,1,42.5
64,160,130267,2,0,C|64:160|64:192,1,42.5
128,256,130691,5,0,
192,256,130946,2,0,C|192:256|256:256,1,42.5
320,256,131368,1,0,
256,256,131623,2,0,C|256:256|192:256,1,42.5
256,160,132047,5,0,
256,96,132302,1,0,
256,96,132386,1,0,
352,128,132725,1,0,
384,192,132980,1,0,
384,192,133064,1,0,
384,288,133403,6,0,C|384:288|256:320|64:224|32:64,1,510
128,64,134674,2,0,C|128:64|300:50|417:109|448:352,1,552.5
384,320,136030,6,0,C|384:320|288:320|352:256|224:256|320:192|192:160,1,552.5
160,192,137386,2,0,C|160:192|224:224|215:154|131:132|122:244|320:256,1,552.5
384,192,138827,6,0,C|384:192|320:64|288:160|448:96|448:192,1,510
416,256,140098,2,0,C|416:256|288:288|192:160|320:192|192:256,1,552.5
128,224,141454,2,0,C|128:224|148:132|256:64,1,212.5
320,128,142217,2,0,C|320:128|416:224,1,127.5
320,256,142810,2,0,C|320:256|257:303|192:256|256:256,1,212.5
192,160,143573,1,0,
192,160,143912,5,0,
256,192,144251,12,0,146285
256,192,146962,12,0,149335
192,128,149674,2,0,C|192:128|320:256,1,170
416,192,150352,1,0,
320,192,150691,1,0,
192,192,151030,1,0,
64,192,151369,1,0,
192,192,151708,1,0,
256,192,152047,12,0,153064
256,192,153403,1,0,
160,192,153742,1,0,
160,96,154081,1,0,
256,96,154420,1,0,
352,96,154759,1,2,
256,192,155098,5,4,
416,192,156369,6,0,C|416:192|255:91|96:192,1,382.5
96,192,157301,1,0,
192,96,157725,1,0,
256,64,158149,5,0,
256,160,158488,1,0,
256,224,158742,1,0,
256,256,158827,1,0,
160,192,159166,1,0,
256,192,159505,1,0,
352,192,159844,1,0,
416,192,160098,1,0,
448,192,160183,1,0,
448,96,160522,5,0,
352,96,160861,1,0,
256,96,161200,1,0,
192,96,161454,1,0,
160,96,161539,1,0,
96,96,161708,2,0,C|96:96|131:276|239:86|288:352,3,680
416,192,167132,6,0,L|416:192|320:96|224:192|320:288|256:352|104:198,2,680
320,192,170352,1,0,
288,192,170522,1,0,
256,192,170691,1,0,
224,192,170861,1,0,
128,192,171200,1,0,
256,192,182132,12,0,183827
256,192,184420,1,0,
256,192,184674,1,0,
256,192,184928,12,0,186284
256,96,186623,2,0,L|256:96|224:96,2,42.5
256,128,186962,6,0,L|256:128|288:128,2,42.5
256,160,187301,6,0,L|256:160|224:160,2,42.5
256,192,187640,6,0,L|256:192|288:192,2,42.5
256,224,187979,6,0,L|256:224|192:224|160:192|160:32,1,255
256,64,188827,2,0,B|256:64|384:128|384:224|288:288,1,255
256,192,193064,5,0,
64,192,193573,5,0,
128,192,193742,1,0,
192,192,193912,1,0,
288,192,194251,2,0,B|288:192|287:128|32:128,1,255
64,64,194928,1,0,
128,64,195098,1,0,
192,64,195267,1,0,
256,160,195776,5,0,
256,224,196030,1,0,
256,256,196115,1,0,
320,256,196454,5,0,
320,192,196708,1,0,
320,160,196793,1,0,
256,160,197132,5,0,
256,224,197386,1,0,
256,256,197471,1,0,
192,256,197810,5,0,
192,192,198064,1,0,
192,160,198149,1,0,
128,96,198488,6,0,B|128:96|288:96,1,127.5
255,96,198827,1,0,
352,96,199166,2,0,B|352:96|352:256,1,127.5
352,223,199505,1,0,
288,320,199844,2,0,B|288:320|128:320,1,127.5
160,320,200183,1,0,
64,256,200522,2,0,B|64:256|192:160,1,127.5
166,179,200861,1,0,
256,128,201200,5,0,
256,192,201454,1,0,
256,224,201539,2,0,B|256:224|352:192|352:128|320:96,1,170
256,64,202132,1,0,
224,64,202217,6,0,B|224:64|128:96|96:192,1,170
96,256,202810,1,0,
96,288,202895,2,0,B|96:288|160:320|224:320|288:288,1,170
320,256,203487,1,0,
320,224,203572,6,0,B|320:224|384:192|384:160|256:160,1,170
256,192,204165,1,0,
256,192,204250,1,0,
256,192,204589,5,0,
256,192,204843,5,0,
256,192,204928,5,0,
256,192,205267,12,0,206623
160,96,207810,5,0,
320,96,208234,1,0,
384,160,208488,1,0,
416,192,208657,1,0,
448,224,208827,1,0,
320,288,209166,1,0,
256,192,210606,12,0,211878
256,192,211793,12,0,213234
256,192,213149,12,0,214674
256,192,215945,12,0,217386
256,192,217301,12,0,218657
256,64,219081,5,0,
256,128,219251,1,0,
256,192,219420,1,0,
188,192,219590,2,0,C|188:192|228:255|284:256|339:183,1,212.5
