osu file format v14

[General]
AudioFilename: elasticheart.mp3
AudioLeadIn: 0
PreviewTime: 54832
Countdown: 0
SampleSet: Soft
StackLeniency: 0.7
Mode: 0
LetterboxInBreaks: 0
EpilepsyWarning: 1
WidescreenStoryboard: 1

[Editor]
Bookmarks: 46849,57926
DistanceSpacing: 1.2
BeatDivisor: 4
GridSize: 4
TimelineZoom: 3

[Metadata]
Title:Elastic Heart
TitleUnicode:Elastic Heart
Artist:Sia
ArtistUnicode:Sia
Creator:Mao
Version:Collapse
Source:
Tags:Gero Irreversible Shia LaBeouf Maddie Ziegler Kate Isobelle Furler 1000 Forms of Fear The Hunger Games: Catching Fire cut power ballad Desperate-kun Lust
BeatmapID:632363
BeatmapSetID:279247

[Difficulty]
HPDrainRate:7
CircleSize:4
OverallDifficulty:7.5
ApproachRate:8.3
SliderMultiplier:1.8
SliderTickRate:2

[Events]
//Background and Video events
0,0,"beckgreunt.jpg",0,0
//Break Periods
//Storyboard Layer 0 (Background)
//Storyboard Layer 1 (Fail)
//Storyboard Layer 2 (Pass)
//Storyboard Layer 3 (Foreground)
Sprite,Foreground,Centre,"SB/flash.jpg",320,240 F,0,462,,0 S,0,462,,0.6 T,HitSoundClap,54832,84370 F,0,0,462,0.75,0
//Storyboard Sound Samples

[TimingPoints]
3140,461.538461538462,4,2,1,80,1,0
3140,-120.481927710843,4,2,1,80,0,0
8678,-120.481927710843,4,2,1,45,0,0
9024,-120.481927710843,4,2,1,20,0,0
9601,-120.481927710843,4,2,1,45,0,0
9947,-120.481927710843,4,2,1,20,0,0
10293,-120.481927710843,4,2,1,55,0,0
10524,-111.111111111111,4,2,1,70,0,0
14909,-111.111111111111,4,2,1,45,0,0
15140,-111.111111111111,4,2,1,70,0,0
15832,-111.111111111111,4,2,1,45,0,0
16063,-111.111111111111,4,2,1,70,0,0
16986,-111.111111111111,4,2,1,55,0,0
17909,-111.111111111111,4,2,1,70,0,0
31986,-111.111111111111,4,2,1,55,0,0
32678,-111.111111111111,4,2,1,70,0,0
38216,-111.111111111111,4,2,2,70,0,0
40063,-111.111111111111,4,2,1,70,0,0
46755,-111.111111111111,4,2,1,55,0,0
47447,-111.111111111111,4,2,1,70,0,0
49063,-111.111111111111,4,2,1,55,0,0
49293,-111.111111111111,4,2,1,70,0,0
51140,-111.111111111111,4,2,1,55,0,0
51486,-111.111111111111,4,2,1,15,0,0
51832,-111.111111111111,4,2,1,55,0,0
52409,-111.111111111111,4,2,1,15,0,0
52755,-111.111111111111,4,2,1,55,0,0
54832,-100,4,2,1,80,0,1
56447,-100,4,2,1,45,0,1
56678,-100,4,2,1,80,0,1
58293,-100,4,2,1,45,0,1
58524,-100,4,2,1,80,0,1
60140,-100,4,2,1,45,0,1
60370,-100,4,2,1,80,0,1
61524,-100,4,2,1,45,0,1
61755,-100,4,2,1,65,0,1
61986,-100,4,2,1,45,0,1
62216,-100,4,2,1,80,0,1
63832,-100,4,2,1,45,0,1
64063,-100,4,2,1,80,0,1
65678,-100,4,2,1,45,0,1
65909,-100,4,2,1,80,0,1
67524,-100,4,2,1,45,0,1
67755,-100,4,2,1,80,0,1
69486,-100,4,2,1,80,0,0
69601,-95.2380952380952,4,2,1,80,0,1
71216,-95.2380952380952,4,2,1,45,0,1
71332,-95.2380952380952,4,2,1,80,0,1
72832,-95.2380952380952,4,2,4,80,0,1
72887,-95.2380952380952,4,2,4,35,0,1
73063,-95.2380952380952,4,2,1,45,0,1
73120,-95.2380952380952,4,2,4,35,0,1
73293,-95.2380952380952,4,2,1,80,0,1
74909,-95.2380952380952,4,2,1,45,0,1
75140,-95.2380952380952,4,2,1,80,0,1
76524,-95.2380952380952,4,2,4,80,0,1
76582,-95.2380952380952,4,2,4,35,0,1
76755,-95.2380952380952,4,2,1,45,0,1
76813,-95.2380952380952,4,2,4,35,0,1
76986,-95.2380952380952,4,2,1,80,0,1
78024,-95.2380952380952,4,2,1,45,0,1
78140,-95.2380952380952,4,2,1,80,0,1
78255,-95.2380952380952,4,2,1,45,0,1
78370,-95.2380952380952,4,2,1,65,0,1
78486,-95.2380952380952,4,2,1,45,0,1
78601,-95.2380952380952,4,2,1,80,0,1
80447,-95.2380952380952,4,2,3,45,0,1
80678,-95.2380952380952,4,2,1,80,0,1
82293,-95.2380952380952,4,2,3,45,0,1
82409,-95.2380952380952,4,2,1,20,0,1
82524,-95.2380952380952,4,2,1,80,0,1
83563,-95.2380952380952,4,2,1,20,0,1
83678,-95.2380952380952,4,2,1,80,0,1
84370,-111.111111111111,4,2,1,60,0,0
88063,-111.111111111111,4,2,1,55,0,0
89909,-111.111111111111,4,2,1,50,0,0
91755,-111.111111111111,4,2,1,45,0,0
93601,-111.111111111111,4,2,1,40,0,0
95447,-111.111111111111,4,2,1,35,0,0
95909,-111.111111111111,4,2,1,30,0,0
96370,-111.111111111111,4,2,1,20,0,0
96832,-111.111111111111,4,2,1,10,0,0
97293,-111.111111111111,4,2,1,5,0,0

[Colours]
Combo1 : 200,184,147
Combo2 : 206,181,253
Combo3 : 250,211,177
Combo4 : 196,213,130

[HitObjects]
68,104,3140,6,0,B|143:88|123:145|214:130,1,149.40000216568,4|0,3:2|3:0,0:0:0:0:
313,73,3831,1,0,0:0:0:0:
410,138,4062,1,8,0:0:0:0:
309,196,4293,2,0,P|316:285|256:346,1,149.40000216568,0|0,3:0|3:0,0:0:0:0:
201,347,4985,5,2,0:0:0:0:
86,142,5447,2,0,P|49:143|16:160,1,74.70000108284,0|0,3:0|0:0,0:0:0:0:
176,172,5908,1,8,0:0:0:0:
252,112,6140,2,0,L|246:37,2,74.70000108284,0|0|0,3:0|2:0|3:0,0:0:0:0:
308,196,6831,5,2,0:0:0:0:
172,320,7293,2,0,P|138:315|98:335,1,74.70000108284,0|0,3:0|0:0,0:0:0:0:
256,368,7754,1,8,0:0:0:0:
356,340,7985,2,0,L|372:161,1,149.40000216568,0|0,3:0|3:0,0:0:0:0:
344,65,8677,6,0,P|388:86|474:93,2,112.05000162426,8|8|8,0:1|0:1|0:1,0:0:0:0:
240,115,9600,2,0,P|196:136|110:143,2,112.05000162426,8|8|0,0:1|0:1|1:0,0:0:0:0:
82,73,10524,6,0,L|96:239,1,161.999995056153,4|0,1:2|3:0,0:0:0:0:
146,317,11215,1,0,0:0:0:0:
231,269,11446,1,0,1:0:0:0:
283,351,11678,2,0,P|316:316|433:316,1,161.999995056153,2|0,3:2|0:0,0:0:0:0:
423,310,12254,1,0,0:0:0:0:
423,310,12369,5,0,1:0:0:0:
498,200,12601,2,0,L|411:206,1,80.9999975280763,2|0,0:0|3:0,0:0:0:0:
350,83,13062,1,4,3:0:0:0:
446,95,13293,1,0,1:0:0:0:
254,73,13524,2,0,P|195:97|91:84,1,161.999995056153,2|0,3:2|0:0,0:0:0:0:
2,193,14216,6,0,P|62:190|119:210,1,121.499996292114,0|0,1:0|0:0,0:0:0:0:
146,240,14678,2,0,L|140:334,1,80.9999975280763,0|8,3:0|3:0,0:0:0:0:
225,181,15139,1,0,1:0:0:0:
312,329,15370,2,0,P|356:346|470:324,1,161.999995056153,0|2,3:0|3:0,0:0:0:0:
509,221,16062,6,0,L|504:76,1,121.499996292114,4|0,1:2|0:0,0:0:0:0:
429,111,16524,2,0,L|424:191,1,80.9999975280763,0|0,3:0|0:0,0:0:0:0:
353,31,16985,5,2,3:0:0:0:
268,106,17215,1,8,3:0:0:0:
154,112,17446,1,4,3:0:0:0:
57,52,17677,1,4,3:0:0:0:
41,202,17908,6,0,B|129:198|100:250|194:248,1,161.999995056153,0|0,1:0|3:0,0:0:0:0:
285,220,18600,1,4,3:0:0:0:
380,332,18831,1,0,1:0:0:0:
443,188,19062,1,2,0:0:0:0:
442,187,19293,2,0,P|439:147|438:107,1,80.9999975280763,2|0,3:2|0:0,0:0:0:0:
293,40,19754,5,0,1:0:0:0:
209,89,19985,2,0,P|168:87|128:84,1,80.9999975280763,2|0,0:0|3:0,0:0:0:0:
35,184,20446,1,4,3:0:0:0:
17,81,20677,1,0,1:0:0:0:
54,290,20908,2,0,P|86:283|177:363,1,161.999995056153,2|0,0:0|3:0,0:0:0:0:
294,319,21600,6,0,P|289:258|287:185,1,121.499996292114,0|0,1:0|0:0,0:0:0:0:
287,197,22062,1,0,3:0:0:0:
369,368,22292,1,4,3:0:0:0:
216,370,22523,1,0,1:0:0:0:
412,249,22754,1,2,0:0:0:0:
412,249,22985,2,0,P|453:255|499:260,1,80.9999975280763,2|2,3:2|3:0,0:0:0:0:
453,114,23447,6,0,P|412:120|366:125,1,80.9999975280763,4|0,1:2|0:0,0:0:0:0:
372,124,23792,1,0,0:0:0:0:
372,124,23908,1,2,3:2:0:0:
278,60,24139,1,0,3:0:0:0:
169,156,24369,5,0,1:0:0:0:
31,106,24600,1,4,3:0:0:0:
141,10,24831,1,4,3:0:0:0:
278,60,25062,1,2,3:0:0:0:
406,128,25293,6,0,P|415:182|353:262,1,161.999995056153,0|0,1:0|3:0,0:0:0:0:
243,230,25986,1,4,3:0:0:0:
243,230,26101,1,0,0:0:0:0:
243,230,26216,1,0,1:0:0:0:
108,356,26447,1,0,0:0:0:0:
148,265,26678,2,0,P|144:226|137:174,1,80.9999975280763,0|2,3:0|3:0,0:0:0:0:
138,184,27024,1,0,0:0:0:0:
138,184,27140,5,2,1:2:0:0:
91,69,27370,1,0,0:0:0:0:
18,170,27601,1,0,3:0:0:0:
176,98,27832,1,4,3:0:0:0:
176,98,27947,1,0,0:0:0:0:
176,98,28063,1,0,1:0:0:0:
9,40,28293,1,0,0:0:0:0:
247,46,28524,2,0,P|287:68|365:67,1,121.499996292114,2|0,0:0|0:0,0:0:0:0:
433,104,28986,6,0,P|384:89|300:158,1,161.999995056153,4|0,1:2|3:0,0:0:0:0:
343,238,29678,1,4,3:0:0:0:
391,322,29909,2,0,L|477:313,2,80.9999975280763,0|0|0,1:0|3:0|0:0,0:0:0:0:
263,241,30601,1,2,3:2:0:0:
184,347,30832,6,0,P|143:365|66:355,1,121.499996292114,2|0,1:2|0:0,0:0:0:0:
14,298,31293,2,0,L|17:214,1,80.9999975280763,2|0,0:0|3:0,0:0:0:0:
115,92,31755,5,0,1:0:0:0:
231,182,31986,1,8,3:0:0:0:
119,200,32216,1,4,3:0:0:0:
236,41,32447,1,4,3:0:0:0:
349,116,32678,6,0,L|343:279,1,161.999995056153,4|0,1:2|3:0,0:0:0:0:
408,349,33370,1,4,3:0:0:0:
439,256,33601,1,0,1:0:0:0:
299,365,33832,2,0,P|246:349|218:347,1,80.9999975280763,2|0,0:0|3:0,0:0:0:0:
54,266,34293,1,0,0:0:0:0:
54,266,34409,1,0,0:0:0:0:
54,266,34524,6,0,L|147:271,2,80.9999975280763,0|0|0,1:0|0:0|3:0,0:0:0:0:
181,186,35216,1,4,3:0:0:0:
44,119,35447,1,0,1:0:0:0:
173,33,35678,2,0,B|257:36|229:89|323:94,1,161.999995056153,2|2,3:2|3:0,0:0:0:0:
465,36,36370,6,0,L|462:166,1,121.499996292114,0|0,1:0|0:0,0:0:0:0:
481,195,36832,1,0,3:0:0:0:
354,239,37063,1,4,3:0:0:0:
504,280,37293,2,0,L|417:291,1,80.9999975280763,0|2,1:0|0:0,0:0:0:0:
286,187,37755,1,0,3:0:0:0:
245,349,37986,5,2,3:0:0:0:
245,349,38101,1,0,0:0:0:0:
245,349,38216,1,2,0:0:0:0:
169,287,38447,1,2,0:0:0:0:
71,285,38678,1,2,0:0:0:0:
114,372,38909,1,2,0:0:0:0:
127,197,39140,5,2,1:2:0:0:
244,84,39370,1,2,0:0:0:0:
244,84,39486,1,2,0:0:0:0:
244,84,39601,2,0,P|277:71|327:63,1,80.9999975280763,2|0,0:0|0:0,0:0:0:0:
465,118,40063,6,0,P|429:152|439:267,1,161.999995056153,4|0,0:0|3:0,0:0:0:0:
400,349,40755,1,4,3:0:0:0:
309,314,40986,2,0,P|264:249|186:238,1,161.999995056153,0|0,1:0|0:0,0:0:0:0:
124,313,41678,1,0,3:0:0:0:
10,238,41909,6,0,L|14:151,1,80.9999975280763,0|0,1:0|0:0,0:0:0:0:
29,63,42370,1,0,3:0:0:0:
115,18,42601,1,4,3:0:0:0:
195,71,42832,1,0,1:0:0:0:
389,47,43063,2,0,P|332:48|266:134,1,161.999995056153,2|0,0:0|0:0,0:0:0:0:
275,137,43640,1,0,0:0:0:0:
282,151,43755,6,0,B|370:141|347:199|438:194,1,161.999995056153,4|0,3:0|3:0,0:0:0:0:
470,292,44447,1,4,3:0:0:0:
378,345,44678,2,0,P|334:326|292:320,1,80.9999975280763,0|0,1:0|0:0,0:0:0:0:
138,324,45140,1,0,3:0:0:0:
222,277,45370,1,0,3:0:0:0:
45,302,45601,6,0,L|52:175,1,121.499996292114,0|0,1:0|0:0,0:0:0:0:
78,155,46063,1,0,3:0:0:0:
37,44,46293,1,0,0:0:0:0:
176,105,46524,5,0,1:0:0:0:
281,110,46755,1,8,0:3:0:0:
380,75,46986,1,4,3:0:0:0:
463,193,47216,1,2,3:0:0:0:
463,193,47332,1,0,0:0:0:0:
463,193,47447,6,0,B|448:273|448:273|452:320,1,121.499996292114,4|0,1:2|0:0,0:0:0:0:
380,352,47909,2,0,L|374:263,1,80.9999975280763,0|4,3:0|3:0,0:0:0:0:
262,227,48370,2,0,P|241:283|149:320,1,161.999995056153,0|0,1:0|3:0,0:0:0:0:
60,265,49063,1,2,3:0:0:0:
171,58,49293,6,0,L|163:220,1,161.999995056153,0|0,1:0|3:0,0:0:0:0:
69,134,49986,1,4,3:0:0:0:
272,123,50216,2,0,P|313:133|364:129,2,80.9999975280763,0|0|0,1:0|0:0|0:0,0:0:0:0:
320,46,50909,1,2,3:0:0:0:
426,206,51140,6,0,B|430:250|430:250|412:284|412:284|418:330,2,121.499996292114,8|8|8,0:1|0:1|0:1,0:0:0:0:
287,250,52063,2,0,B|283:294|283:294|300:328|300:328|295:374,2,121.499996292114,8|8|0,0:1|0:1|0:0,0:0:0:0:
271,244,52870,1,0,0:0:0:0:
256,236,52986,5,8,0:1:0:0:
231,268,53101,1,0,0:0:0:0:
199,291,53216,1,2,3:0:0:0:
160,305,53332,1,8,3:1:0:0:
120,306,53447,1,2,3:0:0:0:
81,296,53562,1,0,0:0:0:0:
47,274,53678,1,8,0:1:0:0:
136,149,53909,6,0,L|134:186,7,20.2499993820191
109,120,54370,6,0,L|104:57,2,53.9999983520508
194,30,54832,6,0,P|206:75|319:122,1,180,4|0,1:2|3:0,0:0:0:0:
291,34,55524,1,4,3:0:0:0:
353,210,55755,2,0,P|346:257|351:306,1,90,8|0,1:0|0:0,0:0:0:0:
478,269,56216,2,0,P|481:224|474:179,1,90,0|8,0:0|0:1,0:0:0:0:
423,361,56678,5,2,1:2:0:0:
258,298,56909,1,2,0:0:0:0:
183,356,57140,2,0,P|136:340|94:331,1,90,0|4,3:0|3:0,0:0:0:0:
30,199,57601,2,0,P|73:189|116:174,1,90,8|0,1:0|0:0,0:0:0:0:
158,51,58063,1,0,3:0:0:0:
46,81,58293,1,8,0:1:0:0:
235,142,58524,6,0,P|276:105|405:96,1,180,4|0,1:2|3:0,0:0:0:0:
433,266,59216,1,4,3:0:0:0:
486,186,59447,2,0,L|492:84,1,90,8|0,1:0|0:0,0:0:0:0:
344,261,59909,2,0,L|349:350,1,90,4|8,3:0|0:1,0:0:0:0:
216,312,60370,6,0,P|180:276|97:272,1,135,4|0,1:2|0:0,0:0:0:0:
32,320,60832,2,0,L|24:224,1,90,0|4,3:0|3:0,0:0:0:0:
173,102,61293,1,8,1:0:0:0:
34,137,61524,1,8,3:0:0:0:
160,200,61755,1,4,3:0:0:0:
65,51,61986,1,8,3:1:0:0:
245,49,62216,6,0,L|432:64,1,180,4|0,1:2|3:0,0:0:0:0:
491,154,62909,1,4,3:0:0:0:
448,259,63140,2,0,L|348:268,1,90,8|0,1:0|0:0,0:0:0:0:
212,351,63601,2,0,L|312:360,1,90,0|8,3:0|0:1,0:0:0:0:
263,258,64063,5,4,1:2:0:0:
108,340,64293,1,0,0:0:0:0:
108,340,64409,1,0,0:0:0:0:
108,340,64524,1,0,3:0:0:0:
112,176,64755,1,4,3:0:0:0:
176,274,64986,5,8,1:0:0:0:
11,190,65216,1,0,0:0:0:0:
160,88,65447,2,0,P|217:107|252:108,1,90,2|8,3:0|0:1,0:0:0:0:
479,159,65909,6,0,P|429:136|315:190,1,180,4|0,1:2|3:0,0:0:0:0:
409,240,66601,1,4,3:0:0:0:
404,41,66832,2,0,P|354:53|301:51,1,90,8|0,1:0|0:0,0:0:0:0:
221,17,67293,1,0,3:0:0:0:
66,83,67524,1,8,0:1:0:0:
66,83,67640,1,0,0:0:0:0:
66,83,67755,5,4,1:2:0:0:
193,106,67986,1,2,0:0:0:0:
0,25,68216,1,2,3:2:0:0:
32,221,68447,1,4,3:0:0:0:
32,221,68563,1,0,0:0:0:0:
32,221,68678,2,0,L|124:215,1,90,8|2,1:0|0:0,0:0:0:0:
291,306,69140,1,0,3:0:0:0:
273,304,69255,1,0,0:0:0:0:
255,304,69370,2,0,L|210:295,1,45,4|0,3:0|0:0,0:0:0:0:
360,358,69601,6,0,P|381:308|504:264,1,188.999994232178,4|0,1:2|3:0,0:0:0:0:
499,263,70178,1,0,0:0:0:0:
499,263,70293,1,4,3:0:0:0:
344,204,70524,2,0,P|312:208|252:188,1,94.499997116089,8|0,1:0|0:0,0:0:0:0:
141,94,70986,1,0,3:0:0:0:
143,137,71101,1,0,0:0:0:0:
146,181,71216,1,8,0:1:0:0:
149,224,71332,1,0,0:0:0:0:
152,268,71447,6,0,P|147:317|128:356,1,94.499997116089,4|0,1:2|0:0,0:0:0:0:
51,288,71909,1,0,3:0:0:0:
235,332,72140,1,4,3:0:0:0:
235,332,72255,1,0,0:0:0:0:
235,332,72370,2,0,L|332:327,1,94.499997116089,8|0,1:0|0:0,0:0:0:0:
454,264,72832,2,0,L|414:261,7,23.6249992790222,0|0|0|0|8|0|0|0,0:0|0:0|0:0|0:0|0:1|0:0|0:0|0:0,0:0:0:0:
479,286,73293,6,0,P|441:203|464:104,1,188.999994232178,4|0,1:2|3:0,0:0:0:0:
311,116,73986,1,4,3:0:0:0:
304,131,74101,1,0,0:0:0:0:
298,145,74216,2,0,L|313:246,1,94.499997116089,8|0,1:0|0:0,0:0:0:0:
132,275,74678,1,4,3:0:0:0:
252,330,74909,2,0,L|246:377,1,47.2499985580445,8|0,0:1|0:0,0:0:0:0:
81,341,75140,6,0,L|74:152,1,188.999994232178,4|0,1:2|3:0,0:0:0:0:
74,152,75832,1,4,3:0:0:0:
209,58,76063,1,8,1:0:0:0:
297,198,76293,1,0,3:0:0:0:
308,213,76409,1,0,0:0:0:0:
319,228,76524,2,0,L|314:262,7,23.6249992790222,0|0|0|0|8|0|0|0,0:0|0:0|0:0|0:0|0:1|0:0|0:0|0:0,0:0:0:0:
344,281,76986,6,0,L|334:89,1,188.999994232178,4|0,1:2|3:0,0:0:0:0:
440,179,77678,1,4,3:0:0:0:
430,313,77909,6,0,P|417:335|390:360,1,47.2499985580445,8|0,1:0|0:0,0:0:0:0:
295,354,78140,2,0,P|279:341|265:319,1,47.2499985580445,0|0,3:0|0:0,0:0:0:0:
198,179,78370,6,0,P|199:208|194:239,1,47.2499985580445,2|0,3:0|0:0,0:0:0:0:
139,319,78601,2,0,P|107:336|86:342,1,47.2499985580445,8|0,0:1|0:0,0:0:0:0:
6,271,78832,6,0,L|16:77,1,188.999994232178,4|0,1:2|3:0,0:0:0:0:
199,132,79524,1,4,3:0:0:0:
199,132,79755,2,0,L|195:234,1,94.499997116089,8|0,1:0|0:0,0:0:0:0:
349,289,80216,1,0,3:0:0:0:
225,307,80447,1,10,3:0:0:0:
378,208,80678,6,0,P|369:264|460:356,1,188.999994232178,4|0,1:2|3:0,0:0:0:0:
473,252,81370,1,4,3:0:0:0:
473,252,81486,1,0,0:0:0:0:
473,252,81601,1,8,1:0:0:0:
356,121,81832,1,0,0:0:0:0:
281,274,82063,2,0,P|253:257|233:251,1,47.2499985580445,4|0,3:0|0:0,0:0:0:0:
78,297,82293,2,0,P|108:285|129:282,1,47.2499985580445,12|8,3:0|0:1,0:0:0:0:
183,361,82524,5,4,1:2:0:0:
73,189,82755,1,0,3:0:0:0:
63,167,82870,1,0,0:0:0:0:
53,145,82986,1,2,3:0:0:0:
44,123,83101,1,0,0:0:0:0:
35,101,83216,6,0,L|39:43,1,47.2499985580445,4|0,3:0|0:0,0:0:0:0:
153,95,83447,2,0,L|156:142,1,47.2499985580445,8|8,1:0|0:1,0:0:0:0:
265,89,83678,2,0,L|269:31,1,47.2499985580445,2|0,3:0|3:0,0:0:0:0:
391,89,83909,5,0,1:0:0:0:
374,119,84024,1,0,0:0:0:0:
371,155,84139,1,2,3:0:0:0:
384,187,84255,1,0,0:0:0:0:
408,212,84370,1,4,0:0:0:0:
220,351,85063,5,0,3:0:0:0:
220,351,85293,2,0,P|201:340|144:329,1,80.9999975280763,8|0,0:0|0:0,0:0:0:0:
3,254,85755,2,0,P|23:246|81:245,1,80.9999975280763,2|0,0:0|3:0,0:0:0:0:
252,95,86216,6,0,P|218:144|113:157,1,161.999995056153,4|0,0:0|3:0,0:0:0:0:
16,67,86909,1,0,3:0:0:0:
16,67,87140,2,0,L|18:147,1,80.9999975280763,8|0,0:0|3:0,0:0:0:0:
101,257,87601,2,0,L|99:337,1,80.9999975280763,2|2,0:0|3:0,0:0:0:0:
251,303,88063,6,0,B|347:315|296:361|390:373,1,161.999995056153,4|0,0:0|3:0,0:0:0:0:
416,182,88755,1,0,3:0:0:0:
391,276,88986,1,8,0:0:0:0:
358,95,89216,2,0,P|398:148|498:144,1,161.999995056153,0|0,3:0|3:0,0:0:0:0:
287,38,89909,6,0,P|257:70|175:97,1,121.499996292114,4|0,0:0|0:0,0:0:0:0:
146,87,90370,1,0,3:0:0:0:
51,40,90601,1,0,3:0:0:0:
6,135,90832,1,8,0:0:0:0:
100,182,91063,1,0,3:0:0:0:
194,228,91293,2,0,L|192:318,1,80.9999975280763,2|0,0:0|3:0,0:0:0:0:
202,321,91640,1,0,0:0:0:0:
211,333,91755,6,0,P|256:308|363:322,1,161.999995056153,4|0,0:0|3:0,0:0:0:0:
496,189,92447,1,0,3:0:0:0:
407,214,92678,2,0,P|361:213|323:205,1,80.9999975280763,8|0,0:0|3:0,0:0:0:0:
236,47,93140,1,2,0:0:0:0:
332,104,93370,1,0,3:0:0:0:
226,158,93601,6,0,P|184:139|73:153,1,161.999995056153,4|0,0:0|3:0,0:0:0:0:
15,243,94293,2,0,B|-3:155|55:184|28:74,1,161.999995056153,0|0,3:0|3:0,0:0:0:0:
30,85,94986,1,2,0:0:0:0:
201,41,95216,1,0,3:0:0:0:
216,46,95332,1,0,0:0:0:0:
231,51,95447,5,4,0:0:0:0:
256,192,95563,12,0,97293,0:0:0:0:
