osu file format v13

[General]
AudioFilename: SiM-EXiSTENCE.mp3
AudioLeadIn: 2000
PreviewTime: 64234
Countdown: 0
SampleSet: Soft
StackLeniency: 0.9
Mode: 0
LetterboxInBreaks: 0
WidescreenStoryboard: 0

[Editor]
DistanceSpacing: 1.5
BeatDivisor: 4
GridSize: 4
TimelineZoom: 3.000001

[Metadata]
Title:EXiSTENCE (TV Edit)
TitleUnicode:EXiSTENCE (TV Edit)
Artist:SiM
ArtistUnicode:SiM
Creator:Saut
Version:oko's Insane
Source:神撃のバハムート GENESIS
Tags:shingeki no bahamut sin mah godri show-hate silence iz mine reggae punk hard core screamo ska opening theme one okoratu squirrel puxtu
BeatmapID:571840
BeatmapSetID:240415

[Difficulty]
HPDrainRate:6.5
CircleSize:4
OverallDifficulty:8
ApproachRate:9
SliderMultiplier:1.7
SliderTickRate:1

[Events]
//Background and Video events
0,0,"bg.png",0,0
Video,0,"pishifat.avi"
//Break Periods
2,33814,35239
//Storyboard Layer 0 (Background)
//Storyboard Layer 1 (Fail)
//Storyboard Layer 2 (Pass)
//Storyboard Layer 3 (Foreground)
//Storyboard Sound Samples

[TimingPoints]
403,319.148936170213,4,1,9,50,1,0
8700,-100,4,1,9,35,0,0
8860,-100,4,1,9,40,0,0
9020,-100,4,1,9,45,0,0
9179,-100,4,1,9,50,0,0
10296,-100,4,1,9,80,0,0
10615,-100,4,1,10,50,0,0
20828,-133.333333333333,4,1,10,50,0,0
25934,-121.212121212121,4,1,10,50,0,0
29764,-100,4,1,10,50,0,0
31041,321.71581769437,4,1,10,50,1,0
31362,-100,4,1,10,55,0,0
31684,-100,4,1,10,60,0,0
32006,-100,4,1,10,65,0,0
32649,-100,4,2,10,70,0,0
32971,-100,4,2,9,70,0,0
33212,-100,4,2,11,70,0,0
33614,317.880794701987,4,2,10,70,1,0
36157,319.148936170213,4,1,11,50,1,0
36157,-111.111111111111,4,1,11,50,0,0
38710,-166.666666666667,4,2,10,50,0,0
41263,-111.111111111111,4,1,11,50,0,0
45093,333.333333333333,4,1,11,50,1,0
45093,-111.111111111111,4,1,11,50,0,0
45343,319.148936170213,4,1,11,50,1,8
45422,319.148936170213,4,1,11,50,1,8
45422,-111.111111111111,4,1,11,50,0,0
46379,319.148936170213,4,1,11,50,1,0
46379,-111.111111111111,4,1,11,50,0,0
48294,314.13612565445,4,1,11,40,1,8
48294,-111.111111111111,4,1,11,40,0,0
48608,-111.111111111111,4,1,11,50,0,0
48922,319.148936170213,4,1,11,50,1,0
48922,-111.111111111111,4,1,11,50,0,0
54028,-125,4,1,10,50,0,0
62965,317.460317460317,4,1,10,50,1,0
63441,-83.3333333333333,4,1,9,50,0,0
63599,-83.3333333333333,4,1,10,50,0,0
64234,319.148936170213,4,1,10,60,1,1
73968,-100,4,1,11,60,0,1
74047,-100,4,1,10,60,0,1
82744,-100,4,1,11,60,0,1
83382,-100,4,1,10,60,0,1
84659,-100,4,1,10,50,0,0
87531,-100,4,1,10,40,0,0
87691,-100,4,1,10,45,0,0
87851,-100,4,1,10,50,0,0
88329,-100,4,1,10,70,0,0

[Colours]
Combo1 : 133,55,158
Combo2 : 178,24,20
Combo3 : 231,122,125
Combo4 : 253,229,179

[HitObjects]
137,57,403,5,8,0:0:0:0:
99,196,562,1,0,0:0:0:0:
208,134,722,1,0,0:0:0:0:
157,298,881,2,0,B|173:258|173:258|181:212,1,85,8|0,0:0|0:0,0:0:0:0:
50,120,1200,1,0,0:0:0:0:
217,55,1360,2,0,B|257:72|257:72|287:116,1,85,8|0,0:0|0:0,0:0:0:0:
295,254,1679,5,12,0:0:0:0:
387,145,1839,1,0,0:0:0:0:
391,309,1998,1,0,0:0:0:0:
302,142,2158,2,0,B|311:100|311:100|356:54,1,85,8|0,0:0|0:0,0:0:0:0:
388,228,2477,1,0,0:0:0:0:
226,211,2637,2,0,B|184:197|184:197|144:160,1,85,8|0,0:0|0:0,0:0:0:0:
68,63,2956,5,12,0:0:0:0:
202,63,3115,1,0,0:0:0:0:
306,146,3275,1,0,0:0:0:0:
327,34,3434,1,8,0:0:0:0:
193,174,3594,2,0,B|175:208|175:208|156:273,1,85
127,24,3913,2,0,L|213:69,1,85,8|0,0:0|0:0,0:0:0:0:
269,231,4232,6,0,P|262:273|269:324,1,85,12|0,0:0|0:0,0:0:0:0:
401,345,4551,1,0,0:0:0:0:
289,141,4711,2,0,P|240:140|198:167,1,85,8|0,0:0|0:0,0:0:0:0:
87,232,5030,1,0,0:0:0:0:
177,34,5190,1,8,0:0:0:0:
205,19,5270,1,0,0:0:0:0:
236,14,5349,1,0,0:0:0:0:
268,17,5429,1,0,0:0:0:0:
297,30,5509,6,0,B|292:80|292:80|301:128,2,85,12|0|0,0:0|0:0|0:0,0:0:0:0:
383,124,5988,1,8,0:0:0:0:
213,113,6147,1,0,0:0:0:0:
293,228,6307,1,0,0:0:0:0:
377,46,6466,2,0,B|420:54|420:54|459:90,1,85,8|0,0:0|0:0,0:0:0:0:
415,250,6785,5,12,0:0:0:0:
390,271,6865,1,0,0:0:0:0:
375,299,6945,2,0,P|323:291|262:314,1,85
134,352,7264,1,8,0:0:0:0:
100,201,7424,1,0,0:0:0:0:
201,276,7583,1,0,0:0:0:0:
36,268,7743,2,0,P|13:236|10:185,1,85,8|0,0:0|0:0,0:0:0:0:
42,44,8062,5,12,0:0:0:0:
205,280,8381,1,8,0:0:0:0:
46,48,8700,1,8,0:0:0:0:
192,32,8860,1,8,0:0:0:0:
87,163,9020,1,8,0:0:0:0:
196,36,9179,1,8,0:0:0:0:
50,52,9339,5,8,0:0:0:0:
50,94,9418,1,0,0:0:0:0:
64,134,9498,1,0,0:0:0:0:
90,167,9578,1,0,0:0:0:0:
125,191,9658,1,8,0:0:0:0:
166,202,9738,1,0,0:0:0:0:
208,200,9817,1,0,0:0:0:0:
248,185,9897,1,0,0:0:0:0:
281,159,9977,1,8,0:0:0:0:
21,197,10296,1,8,0:3:0:0:
283,76,10615,5,4,0:0:0:0:
364,136,10775,1,0,0:0:0:0:
327,230,10934,2,0,P|304:261|261:286,1,85,8|0,0:0|0:0,0:0:0:0:
353,44,11254,2,0,B|389:49|413:40|413:40|416:102|452:100|436:165,1,170,0|8,0:0|0:0,0:0:0:0:
272,164,11732,1,0,0:0:0:0:
412,256,11892,2,0,B|369:251|369:251|326:232,1,85
203,105,12211,1,8,0:0:0:0:
444,148,12530,1,0,0:0:0:0:
126,279,12849,1,8,0:0:0:0:
306,50,13168,5,0,0:0:0:0:
352,151,13328,1,0,0:0:0:0:
297,248,13488,2,0,P|278:289|276:332,1,85,8|0,0:0|0:0,0:0:0:0:
206,146,13807,2,0,B|214:128|232:119|232:119|252:140|269:132|330:111|353:152,1,170,0|8,0:0|0:0,0:0:0:0:
374,297,14285,1,0,0:0:0:0:
214,227,14445,2,0,P|167:218|114:326,1,170,0|8,0:0|0:0,0:0:0:0:
212,364,14924,1,0,0:0:0:0:
300,178,15083,1,0,0:0:0:0:
312,347,15243,1,0,0:0:0:0:
305,251,15403,1,8,0:0:0:0:
316,351,15562,1,0,0:0:0:0:
367,172,15722,6,0,P|325:105|335:74,1,85,4|0,0:2|0:0,0:0:0:0:
220,154,16041,2,0,P|173:168|126:152,1,85,8|0,0:0|0:0,0:0:0:0:
210,34,16360,2,0,B|240:23|271:40|271:40|300:16|350:11|392:50,1,170,0|8,0:0|0:0,0:0:0:0:
442,160,16839,1,0,0:0:0:0:
365,280,16998,2,0,B|322:290|322:290|267:277,1,85
155,230,17317,1,8,0:0:0:0:
438,156,17637,1,0,0:0:0:0:
202,363,17956,1,8,0:0:0:0:
359,50,18275,5,0,0:0:0:0:
348,182,18434,1,0,0:0:0:0:
247,97,18594,2,0,P|206:73|152:74,1,85,8|0,0:0|0:0,0:0:0:0:
48,177,18913,2,0,B|51:203|47:236|47:236|88:207|136:213|170:239,1,170,0|8,0:0|0:0,0:0:0:0:
220,328,19392,1,0,0:0:0:0:
106,307,19551,2,0,B|68:301|68:301|9:314,1,85,8|0,0:2|2:0,0:0:0:0:
401,71,20030,1,0,0:0:0:0:
433,72,20110,1,0,0:0:0:0:
462,84,20190,1,0,0:0:0:0:
335,165,20349,2,0,B|298:153|298:153|315:128|271:73|315:18,1,170,2|0,0:3|0:0,0:0:0:0:
424,175,20828,5,12,0:2:0:0:
393,259,20988,1,0,0:0:0:0:
305,242,21147,2,0,P|267:239|218:253,1,63.7500024318696
172,299,21466,2,0,P|136:309|49:288,1,127.500004863739,8|0,0:0|0:0,0:0:0:0:
27,202,21945,1,0,0:0:0:0:
97,147,22105,2,0,B|145:139|145:139|174:142|174:142|245:130,1,127.500004863739,10|0,0:2|0:0,0:0:0:0:
309,155,22583,2,0,P|325:167|334:186,2,31.8750012159348,0|0|8,0:0|0:0|0:0,0:0:0:0:
201,64,22903,2,0,B|264:52|264:52|340:59,1,127.500004863739
394,115,23381,5,12,0:2:0:0:
389,204,23541,1,0,0:0:0:0:
468,163,23700,1,0,0:0:0:0:
462,252,23860,2,0,P|446:275|404:292,1,63.7500024318696,0|8,0:0|0:0,0:0:0:0:
327,271,24179,1,0,0:0:0:0:
239,250,24339,1,0,0:0:0:0:
156,282,24498,2,0,P|109:297|72:299,1,63.7500024318696,0|10,0:0|0:2,0:0:0:0:
26,240,24817,1,0,0:0:0:0:
122,89,24977,1,0,0:0:0:0:
99,303,25296,1,8,0:0:0:0:
214,116,25456,2,0,P|257:95|316:138,1,127.500004863739
345,241,25934,5,12,0:2:0:0:
271,321,26094,1,0,0:0:0:0:
202,235,26254,2,0,P|179:205|136:188,1,70.1250006687641
42,174,26573,2,0,B|21:206|21:206|45:234|11:269|44:314,1,140.250001337528,10|0,0:2|0:0,0:0:0:0:
123,369,27051,1,0,0:0:0:0:
208,302,27211,2,0,P|248:304|277:331,1,70.1250006687641,4|0,0:0|0:0,0:0:0:0:
364,376,27530,1,0,0:0:0:0:
379,268,27690,1,0,0:0:0:0:
449,350,27849,1,8,0:0:0:0:
309,186,28009,2,0,P|253:167|235:241,1,140.250001337528
241,341,28488,5,10,0:2:0:0:
145,283,28647,1,0,0:0:0:0:
59,355,28807,1,0,0:0:0:0:
43,244,28966,2,0,P|42:203|52:156,1,70.1250006687641,0|8,0:0|0:0,0:0:0:0:
80,67,29285,1,0,0:0:0:0:
188,97,29445,2,0,P|238:104|273:98,1,70.1250006687641
391,78,29764,5,8,0:0:0:0:
474,210,29924,1,0,0:0:0:0:
341,229,30083,1,0,0:0:0:0:
460,118,30243,1,8,0:0:0:0:
410,269,30403,1,0,0:0:0:0:
327,136,30562,1,0,0:0:0:0:
478,214,30722,5,12,0:0:0:0:
474,218,31041,1,8,0:0:0:0:
470,222,31362,1,8,0:0:0:0:
466,226,31684,1,8,0:0:0:0:
462,230,32006,1,8,0:0:0:0:
458,234,32327,1,8,0:0:0:0:
454,238,32649,6,0,P|395:240|360:223,1,85,8|8,0:1|0:0,0:0:0:0:
256,133,32971,2,0,B|223:112|223:112|114:134,2,127.5,8|8|8,0:0|0:1|0:1,0:0:0:0:
132,226,33614,1,4,0:1:0:0:
102,26,35839,5,6,0:0:0:0:
180,233,36157,6,0,P|184:277|160:336,1,76.4999976654053,12|0,0:0|0:0,0:0:0:0:
151,331,36396,2,0,P|135:327|106:330,1,38.2499988327027
16,360,36635,1,8,0:0:0:0:
46,193,36795,2,0,L|62:115,1,76.4999976654053,8|0,0:0|0:0,0:0:0:0:
232,242,37114,2,0,L|248:320,1,76.4999976654053,8|0,0:0|0:0,0:0:0:0:
442,264,37433,6,0,P|445:221|426:180,1,76.4999976654053,12|0,0:0|0:0,0:0:0:0:
401,176,37672,2,0,P|376:176|360:173,1,38.2499988327027
257,102,37912,1,8,0:0:0:0:
405,63,38071,2,0,L|496:41,1,76.4999976654053,8|0,0:0|0:0,0:0:0:0:
362,254,38391,2,0,L|271:276,1,76.4999976654053,8|0,0:0|0:0,0:0:0:0:
376,360,38710,5,0,0:0:0:0:
228,238,39029,2,0,P|199:233|163:235,1,50.9999984436036,2|0,0:0|0:0,0:0:0:0:
118,131,39348,2,0,P|145:120|181:115,1,50.9999984436036
317,148,39667,2,0,P|307:180|292:209,1,50.9999984436036,2|0,0:0|0:0,0:0:0:0:
211,327,39986,5,0,0:0:0:0:
114,228,40146,2,0,P|114:194|118:181,2,25.4999992218018,0|0|2,0:0|0:0|0:0,0:0:0:0:
127,341,40465,1,0,0:0:0:0:
195,204,40625,2,0,P|194:164|149:113,1,101.999996887207,0|6,0:0|0:0,0:0:0:0:
333,45,41263,6,0,P|358:77|360:118,1,76.4999976654053,12|0,0:0|0:0,0:0:0:0:
352,146,41502,2,0,L|307:142,1,38.2499988327027
161,113,41742,1,8,0:0:0:0:
141,257,41901,2,0,P|180:277|234:264,1,76.4999976654053,8|0,0:0|0:0,0:0:0:0:
239,90,42220,2,0,P|201:41|174:33,1,76.4999976654053,8|0,0:0|0:0,0:0:0:0:
61,131,42539,6,0,P|64:173|53:216,1,76.4999976654053,12|0,0:0|0:0,0:0:0:0:
31,283,42779,1,0,0:0:0:0:
31,283,42859,2,0,P|73:297|122:283,1,76.4999976654053,0|8,0:0|0:0,0:0:0:0:
223,193,43178,1,8,0:0:0:0:
241,310,43337,1,0,0:0:0:0:
150,140,43497,1,8,0:0:0:0:
171,121,43577,1,0,0:0:0:0:
197,109,43657,1,0,0:0:0:0:
225,106,43736,1,0,0:0:0:0:
253,111,43816,6,0,B|281:139|281:139|299:185,1,76.4999976654053,12|0,0:0|0:0,0:0:0:0:
312,192,44055,2,0,P|350:204|375:198,1,38.2499988327027
471,188,44295,1,8,0:0:0:0:
423,61,44454,2,0,B|382:19|326:36|326:36|339:78|310:105,1,152.999995330811,8|8,0:0|0:0,0:0:0:0:
242,186,44933,1,0,0:0:0:0:
167,86,45093,6,0,P|120:61|61:73,1,114.749996498108,12|0,0:0|0:0,0:0:0:0:
35,93,45422,2,0,B|40:128|40:128|32:185,1,76.4999976654053,0|8,0:0|0:0,0:0:0:0:
16,283,45741,1,8,0:0:0:0:
125,239,45900,1,0,0:0:0:0:
230,284,46060,1,8,0:0:0:0:
120,358,46219,1,0,0:0:0:0:
207,195,46379,6,0,P|250:192|289:217,1,76.4999976654053,12|0,0:0|0:0,0:0:0:0:
330,266,46618,1,0,0:0:0:0:
330,266,46698,2,0,L|373:194,1,76.4999976654053,0|8,0:0|0:0,0:0:0:0:
383,74,47017,1,8,0:0:0:0:
262,26,47177,1,0,0:0:0:0:
159,132,47336,1,8,0:0:0:0:
36,45,47496,1,0,0:0:0:0:
65,181,47656,6,0,P|71:230|65:264,1,76.4999976654053,12|0,0:0|0:0,0:0:0:0:
51,337,47895,1,0,0:0:0:0:
51,337,47975,2,0,P|97:343|139:326,1,76.4999976654053,0|8,0:0|0:0,0:0:0:0:
221,212,48294,2,0,B|263:219|263:219|284:233|284:233|332:239,1,114.749996498108,8|0,0:0|0:0,0:0:0:0:
370,247,48608,2,0,P|360:288|371:339,1,76.4999976654053,8|0,0:0|0:0,0:0:0:0:
468,121,48922,6,0,P|438:91|380:88,1,76.4999976654053,12|0,0:0|0:0,0:0:0:0:
274,84,49241,1,0,0:0:0:0:
225,216,49400,1,8,0:0:0:0:
203,234,49480,1,0,0:0:0:0:
175,242,49560,2,0,P|141:230|98:235,1,76.4999976654053,8|0,0:0|0:0,0:0:0:0:
55,97,49879,2,0,B|87:80|87:80|145:77,1,76.4999976654053,8|0,0:0|0:0,0:0:0:0:
204,77,50118,1,0,0:0:0:0:
204,77,50198,6,0,P|195:116|158:147,1,76.4999976654053,12|0,0:0|0:0,0:0:0:0:
55,183,50517,1,0,0:0:0:0:
131,74,50677,1,8,0:0:0:0:
149,213,50836,2,0,B|178:220|205:212|222:195|222:195|250:227|235:278,1,152.999995330811,8|8,0:0|0:0,0:0:0:0:
122,298,51315,1,0,0:0:0:0:
284,125,51475,6,0,P|307:151|324:195,1,76.4999976654053,12|0,0:0|0:0,0:0:0:0:
340,222,51714,2,0,L|390:206,1,38.2499988327027
418,88,51953,1,8,0:0:0:0:
272,22,52113,2,0,P|234:27|198:55,1,76.4999976654053,8|0,0:0|0:0,0:0:0:0:
191,74,52352,1,0,0:0:0:0:
191,74,52432,1,8,0:0:0:0:
64,42,52592,1,0,0:0:0:0:
88,170,52751,6,0,P|97:210|88:255,1,76.4999976654053,12|0,0:0|0:0,0:0:0:0:
71,357,53070,2,0,B|110:351|110:351|166:355,1,76.4999976654053,8|0,0:0|0:0,0:0:0:0:
358,350,53390,2,0,B|361:302|361:302|321:218,1,114.749996498108,12|0,0:0|0:0,0:0:0:0:
310,202,53709,2,0,P|338:168|374:154,1,76.4999976654053,8|0,0:0|0:0,0:0:0:0:
470,179,54028,5,4,0:0:0:0:
492,278,54187,2,0,P|490:303|482:322,2,34,0|0|0,0:0|0:0|0:0,0:0:0:0:
402,227,54507,1,8,0:2:0:0:
303,202,54666,2,0,B|259:193|259:193|180:231,1,102,8|0,0:0|0:0,0:0:0:0:
183,230,54985,2,0,P|159:207|158:159,1,68
134,73,55304,6,0,B|103:37|41:56|41:56|47:89|32:117,1,136,2|0,0:3|0:0,0:0:0:0:
22,191,55783,1,8,0:2:0:0:
119,158,55943,1,8,0:0:0:0:
93,256,56102,2,0,P|120:302|201:322,1,136,8|0,0:2|0:0,0:0:0:0:
293,293,56581,5,12,0:2:0:0:
271,192,56741,2,0,B|268:145|268:145|288:69,1,102
298,70,57060,2,0,P|331:64|371:70,1,68,8|8,0:2|0:0,0:0:0:0:
460,134,57379,1,0,0:0:0:0:
460,134,57459,1,0,0:0:0:0:
460,134,57539,2,0,P|466:175|460:219,1,68
421,294,57858,6,0,P|382:287|315:304,2,102,2|0|8,0:3|0:0|0:2,0:0:0:0:
497,305,58416,1,0,0:0:0:0:
497,305,58496,2,0,P|488:258|461:228,1,68,8|0,0:0|0:0,0:0:0:0:
300,222,58815,1,8,0:2:0:0:
479,35,59134,6,0,P|494:75|491:111,1,68,12|0,0:2|0:0,0:0:0:0:
399,140,59453,2,0,P|372:111|324:97,1,68,0|8,0:0|0:2,0:0:0:0:
248,68,59773,2,0,B|219:108|219:108|193:180,1,102,8|0,0:0|0:0,0:0:0:0:
192,183,60092,2,0,P|150:187|121:167,1,68
74,88,60411,6,0,P|43:118|31:213,1,136,2|0,0:3|0:0,0:0:0:0:
68,300,60890,1,8,0:2:0:0:
157,251,61049,1,8,0:0:0:0:
142,352,61209,2,0,P|170:367|226:370,2,68,8|0|0,0:2|0:0|0:0,0:0:0:0:
85,223,61687,5,12,0:2:0:0:
152,145,61847,2,0,P|159:124|157:102,2,34,0|0|0,0:0|0:0|0:0,0:0:0:0:
161,247,62166,1,8,0:2:0:0:
225,167,62326,2,0,B|245:130|227:80|233:64|233:64|240:44|254:45,1,136,8|0,0:0|0:0,0:0:0:0:
404,81,62804,1,0,0:0:0:0:
411,254,62965,6,0,B|404:288|404:288|307:340,2,127.5,8|8|8,0:0|0:2|0:0,0:0:0:0:
322,161,63599,2,0,B|285:159|285:159|265:173|265:173|199:165,1,101.999996887207,8|0,0:0|0:0,0:0:0:0:
229,172,64234,6,0,P|230:220|206:272,1,85,12|0,0:2|0:0,0:0:0:0:
133,332,64553,1,8,0:2:0:0:
96,199,64712,1,0,0:0:0:0:
27,312,64872,1,8,0:0:0:0:
113,120,65031,1,0,0:0:0:0:
137,336,65191,2,0,B|177:350|177:350|227:341,1,85,8|8,0:2|0:2,0:0:0:0:
27,150,65510,6,0,L|115:213,1,85,8|0,0:2|0:0,0:0:0:0:
223,339,65829,1,8,0:2:0:0:
204,157,65989,2,0,P|204:95|217:61,2,85,0|8|0,0:0|0:0|0:0,0:0:0:0:
290,272,66468,1,8,0:2:0:0:
118,199,66627,1,8,0:2:0:0:
295,128,66787,6,0,P|342:135|385:167,1,85,12|0,0:2|0:0,0:0:0:0:
369,315,67106,1,8,0:2:0:0:
221,239,67265,1,0,0:0:0:0:
418,223,67425,2,0,P|451:253|468:320,1,85,8|0,0:0|0:0,0:0:0:0:
291,362,67744,1,8,0:2:0:0:
217,235,67904,1,8,0:2:0:0:
115,338,68063,6,0,B|72:345|72:345|26:341,1,85,8|0,0:2|0:0,0:0:0:0:
28,180,68382,1,8,0:2:0:0:
126,40,68542,2,0,L|140:137,1,85,0|8,0:0|0:0,0:0:0:0:
233,308,68861,1,0,0:0:0:0:
272,295,68941,1,0,0:0:0:0:
296,261,69021,2,0,P|272:219|261:171,1,85,8|8,0:2|0:2,0:0:0:0:
382,33,69340,6,0,P|410:72|401:141,1,85,8|12,0:2|0:2,0:0:0:0:
380,237,69659,1,8,0:2:0:0:
267,180,69819,1,0,0:0:0:0:
157,245,69978,1,8,0:0:0:0:
207,71,70138,1,0,0:0:0:0:
386,37,70297,2,0,B|411:69|411:69|420:121,1,85,8|8,0:2|0:2,0:0:0:0:
384,241,70616,5,8,0:2:0:0:
233,347,70776,2,0,B|244:304|244:304|277:256,1,85,8|0,0:0|0:0,0:0:0:0:
418,345,71095,1,8,0:2:0:0:
247,161,71255,2,0,B|219:165|196:157|196:157|206:209|144:231|175:303,1,170,8|0,0:0|0:0,0:0:0:0:
304,308,71734,1,0,0:0:0:0:
221,85,71893,6,0,P|161:90|130:120,1,85,12|8,0:2|0:2,0:0:0:0:
45,233,72212,1,8,0:2:0:0:
184,249,72372,1,0,0:0:0:0:
236,371,72531,1,8,0:0:0:0:
118,219,72691,1,0,0:0:0:0:
225,89,72851,2,0,B|185:88|185:88|134:124,1,85,8|8,0:2|0:2,0:0:0:0:
49,237,73170,5,8,0:2:0:0:
223,166,73329,2,0,P|257:179|284:230,1,85,8|0,0:0|0:0,0:0:0:0:
146,320,73648,1,8,0:2:0:0:
307,129,73808,2,0,L|365:49,1,85,8|8,0:0|0:0,0:0:0:0:
369,226,74127,1,0,0:0:0:0:
191,20,74446,6,0,P|156:59|148:111,1,85,12|8,0:2|0:2,0:0:0:0:
171,251,74765,1,12,0:0:0:0:
286,138,74925,2,0,P|330:122|377:145,1,85,0|8,0:0|0:2,0:0:0:0:
463,252,75244,1,8,0:2:0:0:
371,27,75404,1,12,0:0:0:0:
460,110,75563,1,0,0:0:0:0:
254,61,75723,6,0,P|205:67|171:143,1,127.5,8|0,0:2|0:0,0:0:0:0:
170,170,76042,2,0,B|221:165|221:165|293:191,1,127.5,8|0,0:0|0:0,0:0:0:0:
305,224,76361,2,0,P|309:287|246:342,1,127.5,8|0,0:2|0:0,0:0:0:0:
234,347,76680,2,0,B|197:332|197:332|152:338,1,85,8|0,0:0|0:0,0:0:0:0:
40,167,76999,6,0,P|52:119|78:87,1,85,12|8,0:2|0:2,0:0:0:0:
205,20,77319,1,8,0:0:0:0:
250,161,77478,2,0,P|238:209|212:241,1,85,0|8,0:0|0:2,0:0:0:0:
84,303,77797,1,8,0:2:0:0:
160,170,77957,1,8,0:0:0:0:
245,325,78116,1,0,0:0:0:0:
300,87,78276,6,0,P|329:124|325:209,1,127.5,12|0,0:2|0:0,0:0:0:0:
312,234,78595,2,0,B|247:227|247:227|188:255,1,127.5,8|0,0:0|0:0,0:0:0:0:
168,288,78914,2,0,P|130:314|87:314,1,85,8|8,0:2|0:2,0:0:0:0:
21,129,79234,1,8,0:0:0:0:
338,21,79553,6,0,B|364:46|364:46|380:108,1,85,12|8,0:2|0:2,0:0:0:0:
379,262,79872,1,8,0:0:0:0:
258,137,80031,2,0,B|214:129|214:129|172:142,1,85,0|8,0:0|0:2,0:0:0:0:
75,301,80351,1,8,0:2:0:0:
218,218,80510,1,8,0:0:0:0:
189,371,80670,1,0,0:0:0:0:
107,178,80829,6,0,P|101:131|118:88,1,85,12|8,0:2|0:2,0:0:0:0:
294,22,81148,2,0,P|336:44|352:123,1,127.5,8|0,0:2|0:0,0:0:0:0:
340,156,81468,2,0,B|276:144|276:144|189:168,1,127.5,8|0,0:0|0:0,0:0:0:0:
183,189,81787,2,0,P|184:252|242:300,1,127.5,8|0,0:2|0:0,0:0:0:0:
261,311,82106,6,0,P|304:297|360:317,1,85,12|8,0:2|0:2,0:0:0:0:
485,361,82425,1,8,0:0:0:0:
339,53,82744,1,8,0:0:0:0:
496,104,82904,1,8,0:0:0:0:
339,155,83063,1,8,0:0:0:0:
437,22,83223,1,8,0:0:0:0:
436,187,83382,6,0,P|426:236|398:270,1,85,4|0,0:0|2:0,0:0:0:0:
245,191,83702,2,0,P|193:178|154:189,1,85,0|0,2:0|2:0,0:0:0:0:
107,329,84021,2,0,P|165:361|239:335,1,127.5,0|0,0:0|2:0,0:0:0:0:
250,318,84340,2,0,P|296:296|378:332,1,127.5,0|0,0:0|2:0,0:0:0:0:
399,345,84659,5,4,0:0:0:0:
453,251,84819,1,0,0:0:0:0:
408,130,84978,2,0,P|353:118|311:138,1,85,8|0,0:0|0:0,0:0:0:0:
430,34,85297,2,0,B|453:49|480:43|480:43|473:96|508:120|475:175,1,170,0|8,0:0|0:0,0:0:0:0:
351,221,85776,1,0,0:0:0:0:
287,44,85936,2,0,B|241:45|241:45|200:60,1,85
80,168,86255,1,8,0:0:0:0:
362,126,86574,1,0,0:0:0:0:
126,307,86893,1,8,0:0:0:0:
359,44,87212,5,0,0:0:0:0:
448,104,87372,1,0,0:0:0:0:
435,223,87531,2,0,P|390:216|344:232,1,85,8|0,0:0|0:0,0:0:0:0:
276,281,87771,1,0,0:0:0:0:
276,281,87851,2,0,B|235:248|235:248|221:223|221:223|169:177,1,127.5,8|0,0:2|2:0,0:0:0:0:
147,176,88170,1,8,0:0:0:0:
130,311,88329,1,8,0:2:0:0:
