osu file format v13

[General]
AudioFilename: SiM-EXiSTENCE.mp3
AudioLeadIn: 2000
PreviewTime: 64234
Countdown: 0
SampleSet: Normal
StackLeniency: 0.7
Mode: 0
LetterboxInBreaks: 0
WidescreenStoryboard: 0

[Editor]
Bookmarks: 9977,20030,70617
DistanceSpacing: 1.3
BeatDivisor: 4
GridSize: 4
TimelineZoom: 2.4

[Metadata]
Title:EXiSTENCE (TV Edit)
TitleUnicode:EXiSTENCE (TV Edit)
Artist:SiM
ArtistUnicode:SiM
Creator:Saut
Version:Squirrel's Advanced
Source:神撃のバハムート GENESIS
Tags:shingeki no bahamut sin mah godri show-hate silence iz mine reggae punk hard core screamo ska opening theme one okoratu squirrel puxtu
BeatmapID:569801
BeatmapSetID:240415

[Difficulty]
HPDrainRate:6
CircleSize:3.5
OverallDifficulty:6
ApproachRate:7
SliderMultiplier:1.3
SliderTickRate:1

[Events]
//Background and Video events
0,0,"bg.png",0,0
Video,0,"pishifat.avi"
//Break Periods
2,33814,34939
//Storyboard Layer 0 (Background)
//Storyboard Layer 1 (Fail)
//Storyboard Layer 2 (Pass)
//Storyboard Layer 3 (Foreground)
//Storyboard Sound Samples

[TimingPoints]
403,319.148936170213,4,1,1,40,1,0
10615,-100,4,1,1,50,0,0
20828,-100,4,1,1,40,0,0
31041,321.71581769437,4,1,1,50,1,0
33614,317.880794701987,4,1,1,50,1,0
36157,319.148936170213,4,1,1,40,1,0
41263,-100,4,1,1,50,0,0
45093,333.333333333333,4,1,1,50,1,0
45343,319.148936170213,4,1,1,40,1,8
45422,319.148936170213,4,1,1,40,1,8
46379,319.148936170213,4,1,1,40,1,8
48294,314.13612565445,4,1,1,40,1,0
48922,319.148936170213,4,1,1,40,1,8
54028,-100,4,1,1,40,0,0
62965,317.460317460317,4,1,1,40,1,0
64234,319.148936170213,4,1,1,40,1,1
84659,-100,4,1,1,60,0,0
87212,-100,4,1,1,45,0,0
88329,-100,4,1,1,60,0,0

[Colours]
Combo1 : 133,55,158
Combo2 : 178,24,20
Combo3 : 231,122,125
Combo4 : 253,229,179

[HitObjects]
95,214,403,6,0,L|115:275,2,65,8|8|8,0:0|0:2|0:2,0:0:0:0:
165,167,881,2,0,L|185:228,2,65,8|8|8,1:0|0:2|0:2,0:0:0:0:
210,95,1360,1,8,0:0:0:0:
375,60,1679,6,0,P|409:68|440:101,1,65,8|8,0:0|0:2,0:0:0:0:
477,158,1998,1,8,0:2:0:0:
423,223,2158,1,8,0:0:0:0:
338,221,2317,2,0,P|311:244|298:282,1,65,8|8,0:2|0:2,0:0:0:0:
310,355,2637,1,8,0:0:0:0:
145,318,2956,6,0,P|110:303|87:277,2,65,8|8|8,0:0|0:2|0:2,0:0:0:0:
216,273,3434,1,8,0:0:0:0:
194,191,3594,2,0,L|159:104,1,65,8|8,0:2|0:2,0:0:0:0:
139,51,3913,1,8,0:0:0:0:
302,6,4232,6,0,L|367:132,1,130,4|8,0:0|0:2,0:0:0:0:
430,71,4711,2,0,L|495:197,1,130,4|8,0:0|0:2,0:0:0:0:
482,271,5190,2,0,L|466:314,3,32.5,8|8|0|8,0:0|0:2|0:0|0:2,0:0:0:0:
434,323,5509,6,0,P|403:317|377:296,1,65,8|8,0:0|0:2,0:0:0:0:
316,237,5828,1,8,0:2:0:0:
233,256,5988,1,8,0:0:0:0:
201,334,6147,2,0,L|251:374,2,65,8|8|8,0:2|0:2|0:0,0:0:0:0:
83,213,6785,6,0,L|152:188,1,65,8|8,0:0|0:2,0:0:0:0:
211,138,7105,1,8,0:2:0:0:
251,64,7264,2,0,L|312:41,2,65,8|8|8,0:0|0:2|0:2,0:0:0:0:
211,138,7743,1,8,0:0:0:0:
248,301,8062,6,0,P|307:277|349:228,1,130,8|8,0:0|0:2,0:0:0:0:
389,153,8541,2,0,L|420:292,1,130,2|2,3:0|3:0,0:0:0:0:
499,255,9020,1,8,0:2:0:0:
511,171,9179,1,2,3:0:0:0:
483,90,9339,6,0,P|464:63|436:47,1,65,8|0,0:2|3:0,0:0:0:0:
393,49,9578,1,2,3:0:0:0:
352,60,9658,2,0,L|312:40,4,32.5,8|2|0|2|8,0:2|3:0|3:0|3:0|0:2,0:0:0:0:
235,181,10296,1,4,3:0:0:0:
71,138,10615,5,12,0:2:0:0:
16,202,10775,1,8,0:2:0:0:
29,285,10934,2,0,L|153:346,1,130,8|8,0:0|0:2,0:0:0:0:
314,360,11573,1,8,0:0:0:0:
356,287,11732,1,0,0:0:0:0:
322,209,11892,6,0,P|265:180|203:195,1,130,8|8,0:2|0:0,0:0:0:0:
38,228,12530,1,8,0:2:0:0:
125,83,12849,1,8,0:0:0:0:
125,83,13168,6,0,L|182:53,1,65,8|8,0:2|0:2,0:0:0:0:
258,15,13488,2,0,P|321:0|385:8,1,130,8|8,0:0|0:2,0:0:0:0:
388,178,14126,2,0,P|362:208|355:249,1,65,8|0,0:0|0:0,0:0:0:0:
438,245,14445,5,8,0:2:0:0:
320,366,14764,2,0,L|255:358,1,65,8|8,0:0|0:2,0:0:0:0:
214,284,15083,2,0,L|149:276,1,65,0|8,0:0|0:2,0:0:0:0:
116,197,15403,2,0,L|51:189,1,65,8|8,0:0|0:2,0:0:0:0:
52,104,15722,6,0,L|116:111,1,65,12|8,0:2|0:2,0:0:0:0:
200,121,16041,1,8,0:0:0:0:
140,279,16360,1,8,0:2:0:0:
299,334,16679,2,0,P|339:311|355:279,1,65,8|0,0:0|0:0,0:0:0:0:
277,250,16998,6,0,P|326:210|389:219,1,130,8|8,0:2|0:0,0:0:0:0:
506,97,17637,1,8,0:2:0:0:
353,24,17956,1,8,0:0:0:0:
193,78,18275,6,0,P|165:58|115:48,2,65,8|8|8,0:2|0:2|0:0,0:0:0:0:
198,247,18913,2,0,L|170:309,1,65,8|0,0:2|0:0,0:0:0:0:
86,300,19232,2,0,L|118:235,1,65,8|8,0:0|0:2,0:0:0:0:
163,172,19551,5,8,0:0:0:0:
416,181,20030,2,0,L|464:177,2,32.5,8|8|8,0:2|0:2|0:0,0:0:0:0:
366,112,20349,1,8,0:2:0:0:
200,148,20668,1,8,0:2:0:0:
200,148,20828,6,0,L|264:145,1,65,12|0,0:2|0:0,0:0:0:0:
295,225,21147,2,0,L|153:233,1,130,0|8,0:0|0:0,0:0:0:0:
15,309,21785,1,0,0:0:0:0:
57,235,21945,1,0,0:0:0:0:
81,153,22105,6,0,P|80:120|68:90,1,65,12|0,0:2|0:0,0:0:0:0:
223,21,22583,2,0,L|271:26,2,32.5,8|8|8,0:2|0:2|0:0,0:0:0:0:
164,84,22903,2,0,P|163:147|205:195,1,130,8|8,0:2|0:0,0:0:0:0:
287,213,23381,5,0,2:0:0:0:
353,265,23541,1,8,0:2:0:0:
337,347,23700,2,0,B|309:360|309:360|255:355,1,65,8|8,0:2|0:2,0:0:0:0:
205,307,24020,1,8,0:0:0:0:
122,288,24179,2,0,L|81:343,2,65,8|8|8,0:2|0:2|0:2,0:0:0:0:
182,229,24658,5,0,2:0:0:0:
217,152,24817,2,0,P|186:143|154:149,1,65,8|0,0:2|0:0,0:0:0:0:
20,47,25296,1,8,0:0:0:0:
20,47,25456,2,0,B|114:25|114:25|161:34,1,130,8|8,0:2|0:2,0:0:0:0:
228,55,25934,6,0,P|213:83|188:104,2,65,12|0|0,0:2|0:0|0:0,0:0:0:0:
392,10,26573,2,0,L|464:42,1,65,8|0,0:0|0:0,0:0:0:0:
501,105,26892,1,0,0:0:0:0:
501,105,27051,1,0,0:0:0:0:
449,172,27211,5,12,0:2:0:0:
431,340,27530,2,0,L|488:300,1,65,8|8,0:2|0:2,0:0:0:0:
418,248,27849,1,8,0:0:0:0:
356,305,28009,2,0,P|331:247|356:189,1,130,8|8,0:2|0:0,0:0:0:0:
409,122,28488,6,0,P|427:90|431:53,2,65,0|8|8,2:0|0:2|0:2,0:0:0:0:
345,66,28966,1,8,0:2:0:0:
263,43,29126,2,0,P|230:54|206:76,1,65,8|8,0:0|0:2,0:0:0:0:
128,102,29445,2,0,P|109:137|73:162,1,65,8|8,0:2|0:2,0:0:0:0:
69,235,29764,5,8,0:0:0:0:
153,237,29924,1,8,3:2:0:0:
170,319,30083,1,8,3:2:0:0:
253,305,30243,2,0,L|316:346,2,65,8|8|8,0:0|3:2|3:2,0:0:0:0:
236,221,30722,1,12,0:0:0:0:
273,57,31041,5,8,0:0:0:0:
413,149,31362,1,8,0:0:0:0:
368,312,31684,1,8,0:0:0:0:
199,327,32006,1,8,0:0:0:0:
124,175,32327,5,8,0:0:0:0:
269,87,32649,2,0,P|295:102|317:127,1,65,8|8,0:0|0:2,0:0:0:0:
374,192,32971,2,0,P|405:227|454:240,2,97.5,8|8|8,0:0|0:0|0:0,0:0:0:0:
451,155,33614,5,4,3:0:0:0:
451,155,35839,5,8,0:0:0:0:
301,232,36157,6,0,P|283:187|283:139,1,97.5,12|8,0:0|0:2,0:0:0:0:
301,100,36476,1,8,0:2:0:0:
269,22,36635,1,8,0:0:0:0:
187,45,36795,2,0,L|126:68,1,65,8|8,0:2|0:0,0:0:0:0:
154,148,37114,2,0,L|92:169,1,65,8|8,0:2|0:0,0:0:0:0:
36,232,37433,6,0,P|38:283|85:332,1,97.5,12|8,0:0|0:2,0:0:0:0:
106,320,37752,2,0,P|138:320|167:333,1,65,8|8,0:2|0:0,0:0:0:0:
240,378,38071,1,8,0:2:0:0:
298,316,38231,2,0,L|271:243,1,65,8|8,0:0|0:2,0:0:0:0:
281,170,38550,1,0,0:0:0:0:
353,124,38710,6,0,P|416:105|474:135,1,130,8|2,1:0|0:0,0:0:0:0:
409,189,39188,1,0,0:0:0:0:
368,263,39348,2,0,L|390:323,2,65,0|0|2,0:0|0:0|0:0,0:0:0:0:
292,224,39827,1,0,0:0:0:0:
208,238,39986,6,0,B|170:280|121:278|121:278|111:248,1,130,0|2,0:0|0:0,0:0:0:0:
47,193,40465,1,0,0:0:0:0:
30,276,40625,2,0,L|46:326,3,32.5,0|0|0|0,0:0|3:0|0:0|3:0,0:0:0:0:
60,344,40944,2,0,P|106:357|155:357,1,97.5,2|0,0:3|0:0,0:0:0:0:
189,332,41263,6,0,L|152:234,1,97.5,12|8,0:0|0:2,0:0:0:0:
142,200,41582,1,8,0:2:0:0:
140,115,41742,2,0,P|153:80|174:58,1,65,8|8,0:0|0:2,0:0:0:0:
253,39,42061,1,8,0:0:0:0:
305,105,42220,1,8,0:2:0:0:
264,179,42380,1,8,0:0:0:0:
184,206,42539,6,0,P|210:246|255:262,1,97.5,12|8,0:0|0:2,0:0:0:0:
295,277,42859,2,0,L|276:352,1,65,8|8,0:2|0:0,0:0:0:0:
363,338,43178,2,0,L|378:274,1,65,8|8,0:2|0:0,0:0:0:0:
456,240,43497,1,8,0:2:0:0:
416,165,43657,1,8,0:0:0:0:
486,119,43816,6,0,P|452:86|405:80,1,97.5,12|8,0:0|0:0,0:0:0:0:
365,94,44135,1,8,0:2:0:0:
280,103,44295,1,8,0:0:0:0:
223,165,44454,2,0,L|158:159,1,65,8|0,0:2|0:0,0:0:0:0:
104,225,44774,2,0,L|127:293,1,65,8|8,0:2|0:0,0:0:0:0:
200,315,45093,6,0,P|244:285|263:224,1,97.5,12|8,0:2|0:0,0:0:0:0:
289,212,45422,2,0,P|312:190|343:181,1,65,8|8,0:2|0:0,0:0:0:0:
422,213,45741,2,0,L|464:278,2,65,8|0|8,0:2|0:0|0:2,0:0:0:0:
356,265,46219,1,8,0:0:0:0:
271,259,46379,6,0,L|235:204,1,65,12|0,0:2|0:0,0:0:0:0:
193,197,46618,1,8,0:0:0:0:
152,206,46698,2,0,P|122:222|102:253,2,65,8|8|8,0:2|0:0|0:2,0:0:0:0:
148,122,47177,1,0,0:0:0:0:
65,107,47336,2,0,L|3:147,1,65,8|8,0:2|0:0,0:0:0:0:
5,57,47656,6,0,L|59:21,1,65,12|0,0:2|0:0,0:0:0:0:
143,11,47975,2,0,P|172:37|181:63,1,65,8|8,0:2|0:0,0:0:0:0:
202,144,48294,2,0,P|231:185|273:210,1,97.5,8|8,0:2|0:0,0:0:0:0:
313,212,48608,2,0,L|326:143,1,65,8|8,0:2|0:0,0:0:0:0:
368,77,48922,5,12,0:2:0:0:
452,73,49081,2,0,L|482:37,2,32.5,0|8|8,0:0|0:0|0:2,0:0:0:0:
412,147,49400,1,8,0:0:0:0:
405,231,49560,2,0,P|465:212|495:156,1,130,8|8,0:2|2:2,0:0:0:0:
412,148,50039,1,0,0:0:0:0:
329,166,50198,6,0,L|227:244,1,97.5,12|8,0:2|0:2,0:0:0:0:
210,236,50517,1,8,0:2:0:0:
179,156,50677,1,8,0:0:0:0:
109,108,50836,2,0,B|90:139|96:175|96:175|82:199|82:199|87:245,1,130,8|8,0:2|0:2,0:0:0:0:
231,317,51475,6,0,L|239:381,2,65,12|0|8,0:0|0:0|0:2,0:0:0:0:
286,253,51953,1,8,0:0:0:0:
359,295,52113,2,0,L|402:315,3,32.5,8|0|0|0,0:2|0:0|0:0|0:0,0:0:0:0:
430,312,52432,2,0,L|481:293,3,32.5,8|0|8|0,0:2|0:0|0:0|0:0,0:0:0:0:
484,264,52751,6,0,P|484:217|454:179,1,97.5,12|8,0:0|0:0,0:0:0:0:
418,157,53070,2,0,L|445:88,1,65,8|8,0:2|0:0,0:0:0:0:
366,55,53390,2,0,L|332:146,1,97.5,8|8,0:2|0:2,0:0:0:0:
310,182,53709,2,0,P|284:208|249:220,1,65,12|0,0:0|0:0,0:0:0:0:
235,137,54028,6,0,P|185:176|176:238,1,130,12|8,0:2|0:2,0:0:0:0:
55,356,54666,1,8,0:0:0:0:
56,271,54826,2,0,L|35:233,2,32.5,0|8|0,0:0|0:2|0:0,0:0:0:0:
140,279,55145,1,8,0:2:0:0:
221,300,55304,6,0,L|295:302,1,65,8|0,0:0|0:0,0:0:0:0:
296,217,55624,2,0,L|360:217,1,65,0|0,0:0|0:0,0:0:0:0:
445,224,55943,2,0,P|436:255|417:281,1,65,12|0,0:2|0:0,0:0:0:0:
361,218,56262,2,0,P|369:186|389:161,1,65,0|0,0:0|2:0,0:0:0:0:
418,81,56581,5,12,0:2:0:0:
356,23,56741,1,0,0:0:0:0:
274,41,56900,2,0,L|245:15,2,32.5,0|8|8,0:0|0:2|0:2,0:0:0:0:
249,122,57219,2,0,P|230:173|179:203,1,97.5,8|8,0:0|0:2,0:0:0:0:
154,206,57539,2,0,L|89:211,1,65,0|8,0:0|0:2,0:0:0:0:
35,276,57858,6,0,P|5:189|74:127,1,195,4|8,0:0|0:2,0:0:0:0:
116,120,58416,1,8,0:2:0:0:
158,118,58496,2,0,L|223:113,1,65,8|8,0:0|0:2,0:0:0:0:
261,188,58815,2,0,L|157:198,1,97.5,8|0,0:0|0:0,0:0:0:0:
142,233,59134,5,12,0:2:0:0:
149,317,59294,2,0,L|125:351,2,32.5,8|8|0,0:2|0:2|0:0,0:0:0:0:
233,312,59613,1,8,0:2:0:0:
318,313,59773,2,0,L|368:265,1,65,8|0,0:0|0:0,0:0:0:0:
424,329,60092,2,0,L|474:281,1,65,0|0,0:0|0:0,0:0:0:0:
491,201,60411,6,0,P|473:153|383:126,1,130,0|0,0:0|0:0,0:0:0:0:
330,163,60890,1,8,0:2:0:0:
251,132,61049,2,0,L|259:67,2,65,8|0|0,0:0|0:0|0:0,0:0:0:0:
199,292,61687,6,0,L|153:346,1,65,12|2,0:2|3:0,0:0:0:0:
75,315,62007,2,0,L|117:265,1,65,0|8,0:0|0:2,0:0:0:0:
180,209,62326,2,0,P|140:183|92:184,1,97.5,8|8,0:0|0:2,0:0:0:0:
48,184,62645,2,0,P|21:169|0:141,1,65,0|0,0:0|0:0,0:0:0:0:
77,104,62965,5,8,0:0:0:0:
142,51,63123,2,0,L|166:18,2,32.5,0|8|0,0:0|0:2|0:0,0:0:0:0:
196,116,63441,1,8,0:0:0:0:
276,90,63599,1,4,3:0:0:0:
481,356,64234,5,12,0:0:0:0:
397,355,64393,1,0,0:0:0:0:
332,301,64553,2,0,P|301:246|240:230,1,130,0|8,0:0|0:0,0:0:0:0:
155,239,65031,1,8,0:2:0:0:
79,202,65191,2,0,L|46:269,1,65,0|0,0:0|0:0,0:0:0:0:
127,297,65510,6,0,L|155:238,1,65,8|0,0:2|0:0,0:0:0:0:
196,164,65829,2,0,B|205:135|241:120|241:120|277:107|291:80,1,130,0|8,0:0|0:0,0:0:0:0:
217,38,66308,1,8,0:2:0:0:
132,38,66468,2,0,L|51:49,1,65,0|8,0:0|0:2,0:0:0:0:
100,124,66787,6,0,B|67:128|67:128|66:190|26:214,1,130,12|0,0:2|0:0,0:0:0:0:
1,292,67265,1,8,0:2:0:0:
80,321,67425,2,0,L|146:336,1,65,8|8,0:0|0:2,0:0:0:0:
228,336,67744,1,0,0:0:0:0:
287,275,67904,1,0,0:0:0:0:
292,191,68063,6,0,L|223:157,2,65,8|8|0,0:2|0:0|0:0,0:0:0:0:
375,209,68542,1,8,0:2:0:0:
375,209,68702,2,0,P|365:146|315:108,1,130,8|8,0:0|0:0,0:0:0:0:
247,59,69180,1,8,0:0:0:0:
162,48,69340,5,0,0:0:0:0:
81,72,69499,2,0,L|59:139,1,65,12|8,0:2|0:2,0:0:0:0:
49,218,69819,1,0,0:0:0:0:
58,301,69978,2,0,P|88:295|123:265,1,65,8|8,0:0|0:2,0:0:0:0:
170,210,70297,2,0,P|203:197|243:201,1,65,0|0,0:0|0:0,0:0:0:0:
296,254,70616,5,8,0:2:0:0:
216,282,70776,1,8,0:0:0:0:
184,360,70936,2,0,L|257:369,1,65,0|8,0:0|0:2,0:0:0:0:
329,343,71255,2,0,L|402:352,1,65,8|8,0:2|0:0,0:0:0:0:
463,302,71574,2,0,P|484:279|495:240,1,65,0|8,0:0|0:2,0:0:0:0:
494,162,71893,6,0,L|510:23,2,130,12|0|0,0:2|0:0|0:0,0:0:0:0:
451,235,72691,1,0,0:0:0:0:
401,166,72851,2,0,L|406:122,3,32.5,0|0|8|0,0:0|0:0|0:0|0:0,0:0:0:0:
374,103,73170,6,0,P|312:116|277:170,1,130,8|8,0:2|0:0,0:0:0:0:
259,252,73648,1,0,0:0:0:0:
184,291,73808,2,0,L|151:295,3,32.5,8|0|0|0,0:0|0:0|0:0|0:0,0:0:0:0:
109,295,74127,2,0,P|68:288|33:258,1,65,8|0,0:2|0:0,0:0:0:0:
21,195,74446,6,0,P|36:156|121:120,1,130,12|8,0:2|0:0,0:0:0:0:
195,119,74925,2,0,P|228:118|257:103,1,65,8|0,0:2|0:0,0:0:0:0:
406,24,75404,1,8,0:0:0:0:
471,78,75563,1,0,0:0:0:0:
454,161,75723,6,0,P|403:167|334:226,2,130,8|8|8,0:2|0:0|0:2,0:0:0:0:
465,329,76680,1,8,0:2:0:0:
298,357,76999,6,0,L|256:307,1,65,12|8,0:2|0:2,0:0:0:0:
262,222,77319,2,0,L|220:172,1,65,8|8,0:0|0:2,0:0:0:0:
148,126,77638,2,0,P|85:151|64:211,1,130,0|8,0:0|0:0,0:0:0:0:
147,209,78116,1,0,0:0:0:0:
147,209,78276,5,8,0:2:0:0:
232,63,78595,1,8,0:0:0:0:
63,62,78914,1,8,0:2:0:0:
147,209,79234,2,0,L|152:277,1,65,8|0,0:2|0:0,0:0:0:0:
204,340,79553,6,0,P|256:358|336:329,1,130,12|8,0:2|0:0,0:0:0:0:
354,258,80031,1,8,0:2:0:0:
438,250,80191,2,0,L|413:113,1,130,8|8,0:2|0:0,0:0:0:0:
369,50,80670,1,0,0:0:0:0:
285,62,80829,5,8,0:2:0:0:
188,200,81148,2,0,L|211:327,1,130,8|8,0:0|0:2,0:0:0:0:
50,382,81787,1,8,0:0:0:0:
50,213,82106,6,0,P|64:186|73:145,1,65,12|0,0:2|0:0,0:0:0:0:
41,73,82425,1,0,0:0:0:0:
116,34,82585,2,0,L|132:6,2,32.5,0|0|8,0:0|0:0|0:2,0:0:0:0:
147,112,82904,1,8,0:0:0:0:
231,113,83063,1,8,0:0:0:0:
297,61,83223,1,8,0:0:0:0:
368,16,83382,6,0,P|428:36|465:88,2,130,12|8|4,0:2|0:2|2:0,0:0:0:0:
231,113,84340,1,2,3:0:0:0:
95,214,84659,1,12,0:2:0:0:
256,192,84739,12,8,87212,0:2:0:0:
256,192,87292,12,4,88329,3:0:0:0:
