osu file format v14

[General]
AudioFilename: SiM-EXiSTENCE.mp3
AudioLeadIn: 2000
PreviewTime: 64234
Countdown: 0
SampleSet: Normal
StackLeniency: 0.9
Mode: 0
LetterboxInBreaks: 0
WidescreenStoryboard: 0

[Editor]
DistanceSpacing: 0.8
BeatDivisor: 4
GridSize: 4
TimelineZoom: 5.399999

[Metadata]
Title:EXiSTENCE (TV Edit)
TitleUnicode:EXiSTENCE (TV Edit)
Artist:SiM
ArtistUnicode:SiM
Creator:Saut
Version:Rage
Source:神撃のバハムート GENESIS
Tags:shingeki no bahamut sin mah godri show-hate silence iz mine reggae punk hard core screamo ska opening theme one okoratu squirrel puxtu
BeatmapID:555651
BeatmapSetID:240415

[Difficulty]
HPDrainRate:7
CircleSize:4.2
OverallDifficulty:8.5
ApproachRate:9.2
SliderMultiplier:1.8
SliderTickRate:1

[Events]
//Background and Video events
0,0,"bg.png",0,0
Video,0,"pishifat.avi"
//Break Periods
2,33814,35269
//Storyboard Layer 0 (Background)
//Storyboard Layer 1 (Fail)
//Storyboard Layer 2 (Pass)
//Storyboard Layer 3 (Foreground)
//Storyboard Sound Samples

[TimingPoints]
403,319.148936170213,4,1,1,50,1,0
403,-125,4,1,1,50,0,0
8700,-100,4,1,1,35,0,0
8860,-100,4,1,1,40,0,0
9020,-100,4,1,1,45,0,0
9179,-100,4,1,1,50,0,0
10615,-125,4,1,1,50,0,0
20349,-166.666666666667,4,1,1,50,0,0
20828,-142.857142857143,4,1,1,50,0,0
23541,-142.857142857143,4,1,1,75,0,0
23700,-142.857142857143,4,1,1,25,0,0
23860,-142.857142857143,4,1,1,50,0,0
29764,-125,4,1,1,50,0,0
30722,-166.666666666667,4,1,1,50,0,0
31041,321.71581769437,4,1,1,50,1,0
31041,-166.666666666667,4,1,1,50,0,0
33614,317.880794701987,4,2,1,50,1,0
35839,-166.666666666667,4,1,1,50,0,0
36157,319.148936170213,4,1,1,50,1,0
36157,-111.111111111111,4,1,1,50,0,0
38710,-166.666666666667,4,2,1,50,0,0
40944,-200,4,2,1,50,0,0
41263,-111.111111111111,4,1,1,50,0,0
45093,333.333333333333,4,1,1,50,1,0
45343,319.148936170213,4,2,1,50,1,8
45343,-111.111111111111,4,1,1,50,0,0
45422,319.148936170213,4,1,1,50,1,8
45422,-111.111111111111,4,1,1,50,0,0
46379,319.148936170213,4,1,1,50,1,0
46379,-111.111111111111,4,1,1,50,0,0
48294,314.13612565445,4,1,1,50,1,8
48294,-111.111111111111,4,1,1,50,0,0
48922,319.148936170213,4,1,1,50,1,0
48922,-111.111111111111,4,1,1,50,0,0
50437,-111.111111111111,4,1,1,25,0,0
50517,-111.111111111111,4,1,1,50,0,0
54028,-125,4,1,1,50,0,0
62965,317.460317460317,4,1,1,50,1,0
62965,-125,4,1,1,50,0,0
63441,-90.9090909090909,4,1,1,50,0,0
64234,319.148936170213,4,1,1,60,1,1
74446,-90.9090909090909,4,1,1,60,0,1
83382,-100,4,1,1,60,0,1
84021,-166.666666666667,4,1,1,60,0,1
84340,-100,4,1,1,60,0,1
84659,-100,4,1,1,50,0,0
86255,-125,4,1,1,50,0,0
87212,-100,4,1,1,30,0,0
87372,-100,4,1,1,35,0,0
87531,-100,4,1,1,40,0,0
87691,-100,4,1,1,45,0,0
87851,-100,4,1,1,50,0,0
88329,-100,4,1,1,70,0,0

[Colours]
Combo1 : 133,55,158
Combo2 : 178,24,20
Combo3 : 231,122,125
Combo4 : 253,229,179

[HitObjects]
144,126,403,6,0,P|174:119|217:124,1,72,8|8,0:0|0:2,0:0:0:0:
235,251,722,1,8,0:2:0:0:
188,48,881,2,0,P|236:54|274:78,1,72,8|8,1:0|0:2,0:0:0:0:
235,251,1200,1,8,0:2:0:0:
436,129,1360,2,0,B|443:166|443:166|435:218,1,72,8|8,0:0|0:2,0:0:0:0:
316,333,1679,6,0,P|282:339|241:332,1,72,8|8,0:0|0:2,0:0:0:0:
116,267,1998,1,8,0:2:0:0:
267,263,2158,2,0,P|304:263|338:251,1,72,8|8,0:0|0:2,0:0:0:0:
436,129,2477,1,8,0:2:0:0:
208,71,2637,2,0,B|197:105|197:105|209:145,1,72,8|8,0:0|0:2,0:0:0:0:
352,222,2956,5,8,0:0:0:0:
279,114,3115,1,8,0:2:0:0:
243,297,3275,1,8,0:2:0:0:
354,141,3434,2,0,P|391:135|426:141,1,72,8|8,0:0|0:2,0:0:0:0:
341,304,3754,1,8,0:2:0:0:
497,177,3913,2,0,B|506:142|506:142|497:104,1,72,8|8,0:0|0:2,0:0:0:0:
345,54,4232,6,0,L|260:54,1,72,4|8,0:0|0:2,0:0:0:0:
143,54,4551,1,8,0:2:0:0:
322,177,4711,2,0,L|248:134,1,72,4|8,0:0|0:2,0:0:0:0:
143,54,5030,1,8,0:2:0:0:
210,250,5190,1,8,0:0:0:0:
192,218,5270,1,8,0:2:0:0:
173,188,5349,1,0,0:0:0:0:
153,157,5429,1,8,0:2:0:0:
135,125,5509,6,8,L|144:50,1,72,8|8,0:0|0:2,0:0:0:0:
272,40,5828,1,8,0:2:0:0:
423,126,5988,2,8,L|414:201,1,72,8|8,0:0|0:2,0:0:0:0:
301,261,6307,1,8,0:2:0:0:
384,60,6466,2,0,B|419:49|419:49|469:61,1,72,8|8,0:0|0:2,0:0:0:0:
492,253,6785,6,0,P|467:278|420:291,1,72,8|8,0:0|0:2,0:0:0:0:
360,181,7105,1,8,0:2:0:0:
488,348,7264,2,0,P|450:360|406:357,1,72,8|8,0:0|0:2,0:0:0:0:
360,181,7583,1,8,0:2:0:0:
166,307,7743,2,0,B|157:271|157:271|166:231,1,72,8|8,0:0|0:2,0:0:0:0:
231,177,7982,1,8,0:2:0:0:
231,177,8062,6,0,L|214:95,1,72,8|2,0:0|3:0,0:0:0:0:
382,39,8381,2,0,L|399:121,1,72,8|2,0:2|3:0,0:0:0:0:
247,289,8700,1,8,0:2:0:0:
291,123,8860,1,2,3:0:0:0:
478,278,9020,1,8,0:2:0:0:
397,110,9179,1,2,3:0:0:0:
323,296,9339,5,8,0:2:0:0:
311,329,9418,1,2,3:0:0:0:
285,354,9498,1,0,3:0:0:0:
251,365,9578,1,2,3:0:0:0:
215,359,9658,1,8,0:2:0:0:
188,337,9738,1,2,3:0:0:0:
174,305,9817,1,0,3:0:0:0:
172,267,9897,1,2,3:0:0:0:
192,237,9977,1,8,0:2:0:0:
223,219,10296,5,4,3:0:0:0:
258,213,10615,5,12,0:2:0:0:
218,89,10775,1,8,0:2:0:0:
247,289,10934,2,0,P|283:289|313:265,1,72,8|0,0:0|2:0,0:0:0:0:
344,126,11254,1,8,0:2:0:0:
356,100,11573,5,8,0:0:0:0:
387,239,11732,1,0,0:0:0:0:
215,155,11892,2,0,P|178:151|131:159,1,72,8|0,0:2|2:0,0:0:0:0:
71,325,12211,5,8,0:0:0:0:
93,306,12530,1,8,0:2:0:0:
114,286,12849,1,8,0:0:0:0:
136,268,13168,5,8,0:2:0:0:
95,107,13328,1,8,0:2:0:0:
274,223,13488,2,0,P|280:259|269:307,1,72,8|0,0:0|2:0,0:0:0:0:
137,268,13807,1,8,0:2:0:0:
159,249,14126,5,8,0:0:0:0:
243,107,14285,1,0,0:0:0:0:
275,293,14445,2,0,P|303:296|352:296,1,72,8|0,0:2|2:0,0:0:0:0:
262,141,14764,1,8,0:0:0:0:
390,355,14924,1,8,0:2:0:0:
456,180,15083,1,0,0:0:0:0:
409,334,15243,1,8,0:2:0:0:
364,128,15403,1,8,0:0:0:0:
424,308,15562,1,8,0:2:0:0:
505,102,15722,6,0,P|472:100|422:103,1,72,12|8,0:2|0:2,0:0:0:0:
196,152,16041,2,0,L|279:152,1,72,8|0,0:0|2:0,0:0:0:0:
375,231,16360,1,8,0:2:0:0:
346,233,16679,5,8,0:0:0:0:
419,52,16839,1,0,0:0:0:0:
471,268,16998,2,0,P|479:305|472:355,1,72,8|0,0:2|2:0,0:0:0:0:
368,156,17317,5,8,0:0:0:0:
340,146,17637,1,8,0:2:0:0:
314,134,17956,1,8,0:0:0:0:
287,122,18275,5,8,0:2:0:0:
130,98,18434,1,8,0:2:0:0:
315,37,18594,2,0,P|353:34|408:44,1,72,8|0,0:0|2:0,0:0:0:0:
486,179,18913,1,8,0:2:0:0:
491,207,19232,5,8,0:0:0:0:
380,341,19392,1,8,0:2:0:0:
372,305,19472,1,8,0:2:0:0:
368,269,19551,1,8,0:0:0:0:
132,341,20030,5,8,0:2:0:0:
140,305,20110,1,8,0:2:0:0:
144,269,20190,1,8,0:0:0:0:
232,134,20349,6,0,P|250:190|228:245,1,107.999996704102,8|8,0:2|0:2,0:0:0:0:
109,98,20828,5,12,0:2:0:0:
220,37,20988,2,0,P|252:29|282:37,1,62.9999980773926,0|0,0:0|0:0,0:0:0:0:
259,242,21466,2,0,B|251:198|251:198|251:110,1,125.999996154785,8|0,0:0|0:0,0:0:0:0:
177,246,21945,1,0,0:0:0:0:
326,77,22105,6,0,P|281:35|220:37,1,125.999996154785,12|0,0:2|2:0,0:0:0:0:
97,144,22583,1,8,0:2:0:0:
104,172,22663,1,8,0:2:0:0:
105,200,22743,1,8,0:0:0:0:
71,324,22903,2,4,L|204:302,1,125.999996154785,8|8,0:2|0:0,0:0:0:0:
304,274,23381,5,0,2:0:0:0:
193,149,23541,2,0,P|189:117|204:66,1,62.9999980773926,8|8,0:2|0:2,0:0:0:0:
321,40,23860,1,8,0:2:0:0:
249,209,24020,1,8,0:0:0:0:
250,37,24179,1,8,0:2:0:0:
380,86,24339,1,8,0:2:0:0:
332,201,24498,2,8,P|330:235|342:281,1,62.9999980773926,8|0,0:2|2:0,0:2:0:0:
180,184,24817,6,8,P|182:150|176:118,1,62.9999980773926,8|0,0:2|0:0,0:2:0:0:
85,326,25296,1,8,0:0:0:0:
97,124,25456,2,0,P|115:64|171:42,1,125.999996154785,8|8,0:2|0:2,0:0:0:0:
295,108,25934,5,12,0:2:0:0:
429,61,26094,2,0,L|418:133,1,62.9999980773926,0|0,0:0|0:0,0:0:0:0:
200,341,26573,2,0,B|187:268|187:268|197:211,1,125.999996154785,8|0,0:0|0:0,0:0:0:0:
295,108,27051,1,0,0:0:0:0:
387,178,27211,6,0,B|325:161|328:209|258:180,1,125.999996154785,12|8,0:2|0:2,0:0:0:0:
307,77,27690,1,8,0:2:0:0:
366,251,27849,1,8,0:0:0:0:
477,170,28009,2,0,P|482:118|461:75,1,94.499997116089,8|0,0:2|2:0,0:0:0:0:
447,62,28328,1,8,0:0:0:0:
388,178,28488,5,0,2:0:0:0:
211,181,28647,1,8,0:2:0:0:
307,77,28807,1,8,0:2:0:0:
322,214,28966,1,8,0:2:0:0:
371,43,29126,1,8,0:0:0:0:
303,197,29285,1,8,0:2:0:0:
224,93,29445,1,8,0:2:0:0:
386,62,29605,1,8,0:2:0:0:
441,231,29764,6,0,P|443:267|439:312,1,72,8|8,0:0|3:2,0:0:0:0:
196,157,30083,1,8,3:2:0:0:
463,156,30243,6,0,P|465:119|461:75,1,72,8|8,0:0|3:2,0:0:0:0:
169,235,30562,1,8,3:2:0:0:
56,152,30722,6,0,P|84:156|120:156,1,53.9999983520508,12|0,0:0|2:0,0:0:0:0:
200,320,31041,2,0,P|172:316|136:316,1,53.9999983520508,8|0,0:0|2:0,0:0:0:0:
308,199,31362,2,0,P|312:227|312:263,1,53.9999983520508,8|0,0:0|2:0,0:0:0:0:
172,90,31684,2,0,P|168:62|168:26,1,53.9999983520508,8|0,0:0|2:0,0:0:0:0:
350,88,32006,2,0,L|418:88,1,53.9999983520508,8|0,0:0|2:0,0:0:0:0:
424,280,32327,2,0,P|424:240|428:212,1,53.9999983520508,8|0,0:0|2:0,0:0:0:0:
280,56,32649,5,8,0:0:0:0:
308,199,32810,2,0,L|331:199,4,13.4999995880127,8|0|8|0|8,0:2|2:0|0:2|2:0|0:0,0:0:0:0:
78,264,33212,1,8,0:0:0:0:
217,84,33453,1,8,0:0:0:0:
89,36,33614,5,4,3:0:0:0:
88,36,35839,5,8,0:0:0:0:
88,36,36157,6,0,P|88:79|82:131,1,80.9999975280763,12|0,0:0|0:0,0:0:0:0:
47,205,36396,1,8,0:2:0:0:
47,205,36476,2,0,P|83:213|130:201,1,80.9999975280763,8|8,0:2|0:0,0:0:0:0:
313,70,36795,2,0,P|324:114|317:163,1,80.9999975280763,8|8,0:2|0:0,0:0:0:0:
244,338,37114,2,0,P|233:294|240:245,1,80.9999975280763,8|8,0:2|0:0,0:0:0:0:
205,71,37433,6,0,P|215:108|200:168,1,80.9999975280763,12|0,0:0|0:0,0:0:0:0:
161,231,37672,1,8,0:2:0:0:
161,231,37752,2,0,P|119:239|60:219,1,80.9999975280763,8|8,0:2|0:0,0:0:0:0:
109,61,38071,2,0,P|125:104|117:151,1,80.9999975280763,8|8,0:2|0:0,0:0:0:0:
161,231,38391,2,0,P|193:239|217:239,1,40.4999987640381,8|0,0:2|0:2,0:0:0:0:
122,138,38550,2,0,P|90:130|65:130,1,40.4999987640381,0|0,0:0|0:0,0:0:0:0:
12,189,38710,5,8,1:0:0:0:
192,351,38949,1,0,0:0:0:0:
192,351,39029,2,0,L|193:284,1,53.9999983520508,2|0,0:0|0:0,0:0:0:0:
342,243,39348,1,0,0:0:0:0:
342,243,39428,2,0,L|342:297,1,53.9999983520508
264,244,39667,2,0,L|265:177,1,53.9999983520508,2|0,0:0|0:0,0:0:0:0:
395,158,39986,5,0,0:0:0:0:
292,96,40146,1,0,0:0:0:0:
292,68,40226,1,0,0:0:0:0:
292,41,40305,2,0,L|366:41,1,53.9999983520508,2|0,0:0|0:0,0:0:0:0:
396,158,40625,6,0,L|397:200,1,26.9999991760254,0|0,0:0|3:0,0:0:0:0:
301,193,40784,2,0,L|301:220,1,26.9999991760254,0|0,0:0|3:0,0:0:0:0:
210,224,40944,6,0,B|210:250|210:250|171:277,1,67.5,2|0,0:3|0:0,0:0:0:0:
146,288,41263,6,0,P|138:230|148:187,1,80.9999975280763,12|0,0:0|0:0,0:0:0:0:
165,119,41502,1,8,0:2:0:0:
165,119,41582,2,0,P|205:115|259:126,1,80.9999975280763,8|8,0:2|0:0,0:0:0:0:
355,253,41901,2,0,P|315:257|261:246,1,80.9999975280763,8|8,0:2|0:0,0:0:0:0:
204,45,42220,2,0,P|249:48|295:68,1,80.9999975280763,8|8,0:2|0:0,0:0:0:0:
301,329,42539,6,0,P|263:324|214:298,1,80.9999975280763,12|0,0:0|0:0,0:0:0:0:
151,243,42779,1,8,0:2:0:0:
151,243,42859,2,0,P|146:200|155:157,1,80.9999975280763,8|8,0:2|0:0,0:0:0:0:
312,57,43178,2,0,P|384:57|421:52,1,80.9999975280763,8|8,0:2|0:0,0:0:0:0:
424,49,43417,1,0,0:0:0:0:
464,41,43497,1,8,0:2:0:0:
480,69,43577,1,0,0:0:0:0:
488,101,43657,1,8,0:0:0:0:
492,133,43736,1,0,0:0:0:0:
492,165,43816,5,12,0:0:0:0:
289,274,43976,1,0,0:0:0:0:
289,274,44055,1,8,0:0:0:0:
289,275,44135,2,0,P|273:237|283:192,1,80.9999975280763,8|8,0:2|0:0,0:0:0:0:
492,165,44454,1,8,0:2:0:0:
466,196,44534,1,0,0:0:0:0:
433,219,44614,1,0,0:0:0:0:
394,229,44694,1,0,0:0:0:0:
353,228,44774,1,8,0:2:0:0:
226,164,44933,1,8,0:0:0:0:
84,244,45093,6,0,P|73:190|82:100,1,135,12|8,0:2|0:0,0:0:0:0:
88,86,45422,1,8,0:2:0:0:
226,164,45581,1,8,0:0:0:0:
361,92,45741,1,8,0:2:0:0:
369,123,45820,1,0,0:0:0:0:
373,155,45900,1,0,0:0:0:0:
372,187,45980,1,0,0:0:0:0:
367,219,46060,1,8,0:2:0:0:
196,331,46219,2,0,P|185:290|197:243,1,80.9999975280763,8|12,0:0|0:2,0:0:0:0:
268,91,46538,5,0,0:0:0:0:
292,112,46618,1,8,0:0:0:0:
304,141,46698,2,0,P|305:196|281:226,1,80.9999975280763,8|8,0:2|0:0,0:0:0:0:
110,277,47017,1,8,0:2:0:0:
226,164,47176,1,0,0:0:0:0:
270,345,47336,1,8,0:2:0:0:
145,202,47496,6,0,L|136:118,1,80.9999975280763,8|12,0:0|0:2,0:0:0:0:
305,63,47815,1,0,0:0:0:0:
309,95,47894,1,8,0:0:0:0:
312,127,47974,1,8,0:2:0:0:
167,283,48134,1,8,0:0:0:0:
167,283,48294,2,0,P|231:283|311:275,1,121.499996292114,8|8,0:2|0:0,0:0:0:0:
378,260,48608,2,0,P|359:215|318:196,1,80.9999975280763,8|8,0:2|0:0,0:0:0:0:
211,354,48922,6,0,P|252:354|304:358,1,80.9999975280763,12|0,0:2|0:0,0:0:0:0:
387,336,49161,1,8,0:0:0:0:
387,336,49241,2,0,P|428:321|450:279,1,80.9999975280763,8|8,0:2|0:0,0:0:0:0:
454,83,49560,1,8,0:2:0:0:
337,202,49719,1,0,0:0:0:0:
329,170,49799,1,8,0:0:0:0:
324,137,49879,2,0,P|323:95|329:51,1,80.9999975280763,8|0,2:2|0:0,0:0:0:0:
478,176,50198,6,0,P|482:225|469:301,1,121.499996292114,12|8,0:2|0:2,0:0:0:0:
457,325,50517,1,8,0:2:0:0:
263,256,50677,1,8,0:0:0:0:
478,176,50836,1,8,0:2:0:0:
181,349,51156,1,8,0:2:0:0:
356,45,51475,6,0,P|359:86|383:146,1,80.9999975280763,12|0,0:0|0:0,0:0:0:0:
426,195,51714,1,8,0:0:0:0:
426,195,51794,2,0,P|387:211|338:205,1,80.9999975280763,8|8,0:2|0:0,0:0:0:0:
224,80,52113,1,8,0:2:0:0:
184,77,52193,1,0,0:0:0:0:
147,93,52273,1,0,0:0:0:0:
117,119,52352,1,0,0:0:0:0:
99,157,52432,1,8,0:2:0:0:
232,216,52592,1,8,0:0:0:0:
39,247,52751,6,0,P|42:287|76:320,1,80.9999975280763,12|0,0:0|0:0,0:0:0:0:
169,304,52991,1,8,0:0:0:0:
169,304,53070,2,0,L|252:307,1,80.9999975280763,8|8,0:2|0:0,0:0:0:0:
444,327,53390,2,0,P|450:262|439:195,1,121.499996292114,8|8,0:2|0:2,0:0:0:0:
410,123,53709,2,0,P|361:163|360:232,1,121.499996292114,12|0,0:0|2:0,0:0:0:0:
366,252,54028,5,12,0:2:0:0:
218,294,54187,1,0,0:0:0:0:
203,268,54267,1,8,0:2:0:0:
188,243,54347,2,0,L|187:165,1,72,8|8,0:2|0:2,0:0:0:0:
346,170,54666,2,0,B|346:94|346:94|318:45,2,108,8|8|8,0:0|0:2|0:2,0:0:0:0:
188,243,55304,6,0,P|141:277|115:242,1,108,8|0,0:0|2:0,0:0:0:0:
53,211,55624,2,0,P|43:252|70:313,1,108,0|0,0:0|2:0,0:0:0:0:
131,346,55943,2,0,P|217:331|255:218,1,216,12|0,0:2|2:0,0:0:0:0:
248,41,56581,5,12,0:2:0:0:
327,201,56741,2,0,P|335:255|316:330,1,108,0|8,0:0|0:2,0:0:0:0:
316,334,57060,1,8,0:2:0:0:
180,201,57219,1,8,0:0:0:0:
364,134,57379,1,0,0:0:0:0:
364,134,57459,1,8,0:2:0:0:
364,134,57539,1,0,0:0:0:0:
255,276,57698,1,8,0:2:0:0:
171,126,57858,6,0,P|119:154|105:207,1,108,4|0,0:0|2:0,0:0:0:0:
180,273,58177,2,0,L|180:194,1,72,8|8,0:0|0:2,0:0:0:0:
180,201,58416,1,8,0:2:0:0:
180,201,58496,1,8,0:0:0:0:
312,148,58656,1,8,0:2:0:0:
125,65,58815,2,0,P|63:106|35:192,1,144,8|12,0:0|0:2,0:0:0:0:
146,330,59294,5,8,0:2:0:0:
146,330,59374,1,8,0:2:0:0:
146,330,59453,2,0,L|165:238,1,72,0|8,0:0|0:2,0:0:0:0:
226,110,59773,2,0,P|213:163|235:222,1,108,8|8,0:0|0:2,0:0:0:0:
313,234,60092,6,0,P|311:195|294:163,1,72,0|0,0:0|0:0,0:0:0:0:
135,122,60411,2,0,P|134:198|173:276,1,144,0|0,0:0|0:0,0:0:0:0:
291,345,60890,1,8,0:2:0:0:
213,128,61049,6,0,P|201:78|58:133,1,252,8|0,0:0|2:0,0:0:0:0:
58,154,61687,6,0,L|58:190,1,36,12|0,0:2|2:0,0:0:0:0:
203,266,61847,2,0,L|203:231,1,36,2|0,3:0|2:0,0:0:0:0:
138,124,62007,2,0,L|138:160,1,36,0|0,0:0|2:0,0:0:0:0:
174,336,62166,1,8,0:2:0:0:
174,336,62326,2,0,P|227:339|269:306,1,108,8|8,0:0|0:2,0:0:0:0:
268,68,62804,6,0,P|233:77|208:104,1,72,0|8,0:0|0:0,0:0:0:0:
268,307,63203,1,8,0:2:0:0:
168,36,63441,6,0,P|136:77|149:147,1,99.0000030212403,8|4,0:0|3:0,0:0:0:0:
163,150,64234,6,0,P|194:215|126:305,1,180,12|0,0:0|0:0,0:0:0:0:
8,138,64712,1,8,0:2:0:0:
148,55,64872,1,8,0:0:0:0:
109,218,65031,1,8,0:2:0:0:
178,73,65191,1,0,0:0:0:0:
211,84,65510,6,0,B|239:99|277:93|301:65|301:65|320:113|303:164,1,180,8|0,0:2|0:0,0:0:0:0:
142,203,65989,1,8,0:2:0:0:
244,6,66148,1,8,0:0:0:0:
304,179,66308,1,8,0:2:0:0:
294,213,66627,1,8,0:2:0:0:
102,135,66787,5,12,0:2:0:0:
188,292,66946,2,0,P|234:298|284:292,1,90
397,196,67265,1,8,0:2:0:0:
233,82,67425,2,0,P|187:76|137:82,1,90,8|8,0:0|0:2,0:0:0:0:
210,365,67744,2,0,P|260:367|307:356,1,90,0|0,0:0|0:0,0:0:0:0:
217,223,68063,5,8,0:2:0:0:
397,196,68223,1,8,0:0:0:0:
312,113,68382,1,0,0:0:0:0:
313,268,68542,1,8,0:2:0:0:
384,69,68702,1,8,0:0:0:0:
296,299,68861,1,8,0:2:0:0:
296,299,68941,1,8,0:2:0:0:
296,299,69021,1,8,0:0:0:0:
237,101,69180,1,8,0:0:0:0:
329,170,69340,5,0,0:0:0:0:
186,301,69499,2,0,P|168:260|175:208,1,90,12|8,0:2|0:2,0:0:0:0:
237,101,69819,1,0,0:0:0:0:
257,246,69978,1,8,0:0:0:0:
148,131,70138,1,8,0:2:0:0:
331,31,70297,2,0,B|359:96|295:143|329:216,1,180,0|8,0:0|0:2,0:0:0:0:
495,221,70776,6,0,P|428:191|318:211,1,180,8|8,0:0|0:2,0:0:0:0:
400,327,71255,1,8,0:2:0:0:
423,98,71414,1,8,0:0:0:0:
456,85,71734,1,8,0:2:0:0:
367,343,71893,6,0,B|324:363|259:363|232:319|232:319|258:309|283:320,1,180,12|0,0:2|0:0,0:0:0:0:
443,295,72372,1,8,0:2:0:0:
218,249,72531,2,0,B|176:257|152:287|162:324,1,90
369,262,72851,1,0,0:0:0:0:
167,340,73010,1,8,0:0:0:0:
234,126,73170,5,8,0:2:0:0:
262,315,73329,1,8,0:2:0:0:
202,107,73489,1,8,0:0:0:0:
150,226,73648,1,0,0:0:0:0:
379,184,73808,1,8,0:0:0:0:
421,200,73888,1,0,0:0:0:0:
446,237,73968,1,0,0:0:0:0:
447,281,74047,1,0,0:0:0:0:
427,321,74127,2,0,B|391:305|351:300|316:314|316:314|287:294,1,135,8|0,0:2|2:0,0:0:0:0:
268,276,74446,6,0,P|235:238|225:187,1,99.0000030212403,12|8,0:2|0:2,0:0:0:0:
353,116,74765,1,8,0:0:0:0:
171,274,74925,2,0,P|152:223|156:166,1,99.0000030212403,8|0,0:2|0:0,0:0:0:0:
353,116,75244,1,8,0:2:0:0:
427,321,75404,1,8,0:0:0:0:
344,249,75563,1,0,0:0:0:0:
419,58,75723,6,0,P|368:28|283:62,1,148.50000453186,8|0,0:2|2:0,0:0:0:0:
253,147,76042,2,0,P|169:148|98:118,1,148.50000453186,8|0,0:0|2:0,0:0:0:0:
183,73,76361,2,0,B|239:81|289:55|289:55|310:95,1,148.50000453186,8|0,0:2|2:0,0:0:0:0:
326,124,76680,1,8,0:2:0:0:
299,329,76840,1,0,0:0:0:0:
165,176,76999,6,0,P|205:147|261:150,1,99.0000030212403,12|8,0:2|0:2,0:0:0:0:
299,329,77319,1,8,0:0:0:0:
193,77,77478,2,0,P|252:72|299:90,1,99.0000030212403,8|0,0:2|0:0,0:0:0:0:
299,329,77797,1,8,0:2:0:0:
390,143,77957,1,8,0:0:0:0:
440,234,78116,1,0,0:0:0:0:
407,53,78276,6,0,B|350:77|295:56|295:56|311:40|337:43,1,148.50000453186,8|0,0:2|2:0,0:0:0:0:
324,42,78595,2,0,P|316:112|231:117,1,148.50000453186,8|0,0:0|2:0,0:0:0:0:
249,128,78914,2,0,B|223:95|186:86|186:86|146:96|97:81,1,148.50000453186,8|0,0:2|2:0,0:0:0:0:
76,74,79234,1,8,0:2:0:0:
107,289,79393,1,0,0:0:0:0:
188,86,79553,6,0,P|191:144|200:191,1,99.0000030212403,12|8,0:2|0:2,0:0:0:0:
354,339,79872,1,8,0:0:0:0:
324,86,80031,2,0,P|321:144|312:191,1,99.0000030212403,8|8,0:2|0:2,0:0:0:0:
158,339,80351,1,8,0:2:0:0:
76,145,80510,2,0,B|50:118|50:118|62:176|39:227,1,148.50000453186,8|0,0:0|2:0,2:0:0:0:
23,263,80829,5,8,0:2:0:0:
125,60,80989,1,0,0:0:0:0:
216,287,81148,2,0,B|242:314|242:314|230:256|253:205,1,148.50000453186,8|0,0:0|2:0,2:0:0:0:
298,109,81468,2,0,P|360:87|379:153,1,148.50000453186,8|0,0:2|2:0,0:0:0:0:
362,187,81787,1,8,0:0:0:0:
440,335,81946,1,8,2:0:0:0:
413,36,82106,6,0,P|334:9|240:63,1,198.000006042481,12|0,0:2|0:0,0:0:0:0:
254,320,82744,1,8,0:2:0:0:
276,130,82904,1,8,0:0:0:0:
359,319,83063,1,8,0:0:0:0:
146,278,83223,1,8,0:0:0:0:
317,233,83382,5,12,0:2:0:0:
125,311,83542,1,8,0:0:0:0:
335,202,83702,1,8,0:2:0:0:
106,341,83861,1,8,0:0:0:0:
353,171,84021,6,0,L|353:79,1,80.9999975280763,4|0,2:0|2:0,0:0:0:0:
348,54,84340,6,0,P|285:75|269:155,1,135,2|0,3:0|2:0,0:0:0:0:
268,171,84659,5,12,0:2:0:0:
190,348,84819,1,8,0:2:0:0:
135,211,84978,2,0,P|137:154|124:101,1,90,8|0,0:0|0:0,0:0:0:0:
40,16,85297,2,0,B|15:81|80:128|56:209,1,180,8|8,0:2|0:0,0:0:0:0:
115,48,85776,1,0,0:0:0:0:
244,202,85936,2,0,P|282:209|333:191,1,90,8|0,0:2|0:0,0:2:0:0:
456,62,86255,6,0,L|451:146,1,72,8|0,0:0|2:0,3:0:0:0:
353,351,86574,2,0,L|358:267,1,72,8|0,0:0|2:0,3:0:0:0:
370,34,86893,2,0,L|365:118,1,72,8|0,0:0|2:0,3:0:0:0:
433,358,87212,5,8,0:2:0:0:
229,295,87372,1,8,0:0:0:0:
478,262,87531,1,8,0:0:0:0:
146,239,87691,2,0,L|190:214,1,45,8|8,0:2|0:2,0:0:0:0:
141,145,87851,2,0,B|181:125|181:125|224:136|224:136|275:106,1,135,4|0,3:0|2:0,3:0:0:0:
294,94,88170,5,8,0:0:0:0:
478,262,88329,1,4,3:0:0:0:
